<?xml version="1.0" standalone="no"?>
<!DOCTYPE svg PUBLIC "-//W3C//DTD SVG 1.1//EN" "http://www.w3.org/Graphics/SVG/1.1/DTD/svg11.dtd">
<svg xmlns="http://www.w3.org/2000/svg">
<defs >
<font id="WorkSans" horiz-adv-x="597" ><font-face
    font-family="Work Sans SemiBold"
    units-per-em="1000"
    panose-1="0 0 0 0 0 0 0 0 0 0"
    ascent="930"
    descent="-243"
    alphabetic="0" />
<glyph unicode=" " horiz-adv-x="306" />
<glyph unicode="!" horiz-adv-x="291" d="M217 660V420L200 213H90L73 420V660H217ZM145 145Q184 145 207 124T230 68Q230 32 207 12T145 -9Q106 -9 83 11T60 68Q60 103 83 124T145 145Z" />
<glyph unicode="&quot;" horiz-adv-x="431" d="M379 682L351 416H257V682H379ZM192 682L164 416H70V682H192Z" />
<glyph unicode="#" horiz-adv-x="670" d="M555 660L447 0H349L457 660H555ZM603 256V169H24V256H603ZM314 660L206 0H108L215 660H314ZM646 492V405H67V492H646Z" />
<glyph unicode="$" horiz-adv-x="634" d="M323 1Q257 1 201 17T102 61T29 126L105 216Q127 182 162 158T241 120T331 106Q392 106 427 126T462 185Q462 210 443 228T375 257L235 289Q179 302 139 325T79 381T58 459Q58 517 89 562T179 634T321 661Q408 661 474
631T587 542L514 459Q474 510 426 533T313 557Q268 557 240 547T199 518T185 477Q185 459 193 445T223 420T288 398L408 371Q502 350 543 310T585 202Q585 138 552 93T460 25T323 1ZM276 -92V752H369V-92H276Z" />
<glyph unicode="%" horiz-adv-x="908" d="M177 0L622 660H732L287 0H177ZM210 670Q264 670 303 647T364 582T386 484Q386 428 365 387T304 322T210 298Q157 298 117 321T56 386T34 484Q34 540 55 582T117 647T210 670ZM210 575Q188 575 172 565T148 534T140 484Q140
456 148 436T172 405T210 394Q233 394 248 404T272 435T280 484Q280 513 272 533T249 564T210 575ZM698 362Q751 362 790 339T852 274T874 176Q874 120 852 78T791 13T698 -10Q645 -10 605 13T544 78T522 176Q522 232 543 273T605 338T698 362ZM698 266Q675 266
660 256T636 225T628 176Q628 148 636 127T659 96T698 85Q721 85 736 95T760 127T768 176Q768 205 760 225T737 255T698 266Z" />
<glyph unicode="&amp;" horiz-adv-x="638" d="M258 -10Q190 -10 140 11T62 73T34 171Q34 200 42 229T70 284T126 333T217 368L252 382Q293 406 317 425T351 465T362 512Q362 541 344 557T296 574Q262 574 245 555T227 506Q227 489 232 473T254 434T301 372T386
273Q439 213 474 175T534 118T583 92T637 88L620 -10Q583 -10 554 -4T492 23T418 85T314 195Q250 265 210 312T147 392T116 452T107 509Q107 549 127 586T189 646T297 670Q356 670 394 650T452 597T472 523Q472 482 455 446T399 381T291 328L259 312Q218 291 195
272T163 232T154 181Q154 152 170 130T213 96T275 84Q325 84 361 101T429 147L444 164Q465 199 477 243T487 344L584 340Q586 276 567 218T507 116L483 93Q448 46 392 18T258 -10Z" />
<glyph unicode="&apos;" horiz-adv-x="244" d="M192 682L164 416H70V682H192Z" />
<glyph unicode="(" horiz-adv-x="376" d="M291 741L359 675Q299 621 262 561T209 430T192 276Q192 192 208 122T262 -9T359 -124L291 -191Q180 -108 123 9T65 276Q65 425 122 542T291 741Z" />
<glyph unicode=")" horiz-adv-x="376" d="M85 -190L17 -124Q77 -70 114 -10T167 121T184 275Q184 359 168 429T114 560T17 675L85 742Q196 659 253 542T311 275Q311 126 254 9T85 -190Z" />
<glyph unicode="*" horiz-adv-x="582" d="M314 503L397 423L475 318L394 259L318 366L268 469L291 486L314 503ZM268 503L291 486L314 469L264 366L188 259L107 318L186 423L268 503ZM74 609L199 567L300 514L291 486L282 458L169 475L44 514L74 609ZM341 730L339
599L320 486H291H262L243 599L240 730H341ZM508 609L538 514L413 475L300 458L291 486L282 514L383 567L508 609Z" />
<glyph unicode="+" horiz-adv-x="604" d="M359 580V63H246V580H359ZM550 374V269H54V374H550Z" />
<glyph unicode="," horiz-adv-x="281" d="M139 153Q171 153 192 138T224 97T235 40Q235 -1 219 -39T173 -107T107 -154L47 -107Q75 -96 97 -80T136 -44T159 -3L154 0Q149 -3 142 -5T122 -8Q106 -8 90 0T63 25T52 67Q52 94 64 113T96 142T139 153Z" />
<glyph unicode="-" horiz-adv-x="521" d="M437 324V206H84V324H437Z" />
<glyph unicode="." horiz-adv-x="281" d="M141 153Q181 153 204 131T228 72Q228 34 205 13T141 -9Q101 -9 78 12T54 72Q54 109 77 131T141 153Z" />
<glyph unicode="/" horiz-adv-x="456" d="M437 719L147 -70H20L309 719H437Z" />
<glyph unicode="0" horiz-adv-x="636" d="M318 -10Q191 -10 123 76T54 330Q54 498 122 584T318 670Q445 670 513 584T582 330Q582 162 514 76T318 -10ZM318 101Q361 101 388 125T430 200T444 330Q444 409 430 459T389 534T318 559Q275 559 247 535T206 460T192
330Q192 251 205 201T247 126T318 101Z" />
<glyph unicode="1" horiz-adv-x="416" d="M197 0V418Q197 441 197 465T199 516Q165 485 123 462T37 430L19 546Q42 548 70 559T128 587T182 622T220 660H332V0H197Z" />
<glyph unicode="2" horiz-adv-x="591" d="M65 0V94Q155 154 217 203T318 295T374 376T392 452Q392 498 364 527T285 557Q229 557 198 519T163 411L44 456Q49 524 80 571T166 644T293 670Q353 670 397 653T472 607T516 539T531 460Q531 396 500 339T403 226T238
108V107Q253 108 274 109T319 110T359 111H541V0H65Z" />
<glyph unicode="3" horiz-adv-x="589" d="M297 -10Q198 -10 129 31T33 151L163 208Q170 172 186 149T229 113T295 101Q329 101 352 113T389 147T402 198Q402 227 390 246T356 273T298 282Q285 282 274 282T248 279V380Q256 379 264 379T282 378Q338 378 362 400T387
473Q387 514 363 536T293 559Q245 559 217 536T178 464L55 510Q67 560 101 596T187 651T300 671Q374 671 423 648T498 585T524 493Q524 452 512 424T480 376T439 346T400 334V331Q423 330 447 322T491 296T525 253T538 190Q538 130 507 85T421 15T297 -10Z" />
<glyph unicode="4" horiz-adv-x="633" d="M366 0V155H44V245Q49 255 58 269T80 303L326 660H491V255H598V155H491V0H366ZM162 255H367V473Q367 494 368 518T370 565H368Q357 543 342 518T313 472L175 274Q172 269 169 265T162 255Z" />
<glyph unicode="5" horiz-adv-x="582" d="M286 -10Q199 -10 140 26T42 136L166 198Q179 154 207 127T289 100Q326 100 352 113T392 151T407 212Q407 248 394 272T355 309T292 322Q266 322 244 317T203 302T171 274L63 294L104 660H503V549H208L188 388L185 375H187Q208
399 244 412T328 425Q393 425 439 399T510 327T535 220Q535 163 516 120T463 48T383 5T286 -10Z" />
<glyph unicode="6" horiz-adv-x="613" d="M335 670Q388 670 431 656T506 610T557 526L441 472Q429 511 402 533T326 556Q292 556 266 540T220 494T191 423T181 331Q181 328 181 325T181 314L184 310Q195 345 222 368T284 402T353 413Q416 413 464 389T540 318T568
208Q568 142 539 93T456 17T328 -10Q244 -10 183 30T88 145T54 326Q54 441 91 517T192 632T335 670ZM326 312Q293 312 268 299T228 262T213 207Q213 176 228 152T269 114T326 100Q379 100 408 128T438 207Q438 239 425 263T387 299T326 312Z" />
<glyph unicode="7" horiz-adv-x="591" d="M35 660H558V555Q475 472 426 384T356 201T334 0H197Q197 110 224 211T309 405T456 583L484 547H35V660Z" />
<glyph unicode="8" horiz-adv-x="623" d="M311 668Q382 668 434 647T515 586T544 490Q544 438 519 400T445 342V341Q503 320 536 280T569 179Q569 121 538 79T449 14T311 -10Q232 -10 175 13T86 79T54 179Q54 239 87 279T179 341V342Q131 361 105 399T79 490Q79
546 107 585T189 646T311 668ZM312 562Q265 562 238 539T210 475Q210 434 237 411T312 388Q358 388 385 411T413 475Q413 516 386 539T312 562ZM312 97Q350 97 377 108T418 141T433 193Q433 223 419 245T377 278T312 290Q275 290 247 279T204 245T189 193Q189 163
204 141T246 108T312 97Z" />
<glyph unicode="9" horiz-adv-x="617" d="M294 670Q382 670 442 630T532 514T563 332Q563 215 530 140T437 27T295 -10Q210 -10 149 26T56 136L183 190Q194 149 221 125T298 100Q337 100 364 115T407 160T431 231T439 325Q439 329 439 332T439 339H435Q424 304
398 282T337 249T267 238Q204 238 156 263T79 335T51 444Q51 514 81 564T165 642T294 670ZM295 558Q242 558 213 529T183 446Q183 399 213 373T295 346Q328 346 353 359T393 396T407 451Q407 484 393 508T354 545T295 558Z" />
<glyph unicode=":" horiz-adv-x="300" d="M150 510Q190 510 213 488T237 429Q237 391 214 370T150 348Q110 348 87 369T63 429Q63 466 86 488T150 510ZM150 153Q190 153 213 131T237 72Q237 34 214 13T150 -9Q110 -9 87 12T63 72Q63 109 86 131T150 153Z" />
<glyph unicode=";" horiz-adv-x="300" d="M148 153Q180 153 201 138T233 97T244 40Q244 -1 228 -39T182 -107T116 -154L56 -107Q84 -96 106 -80T145 -44T168 -3L163 0Q158 -3 151 -5T131 -8Q115 -8 99 0T72 25T61 67Q61 94 73 113T105 142T148 153ZM150 510Q190
510 213 488T237 429Q237 391 214 370T150 348Q110 348 87 369T63 429Q63 466 86 488T150 510Z" />
<glyph unicode="&lt;" horiz-adv-x="604" d="M551 14L66 234V361L551 582V450L173 299L551 147V14Z" />
<glyph unicode="=" horiz-adv-x="604" d="M540 468V366H64V468H540ZM540 257V156H64V257H540Z" />
<glyph unicode="&gt;" horiz-adv-x="604" d="M53 581L538 361V234L53 13V145L431 296L53 448V581Z" />
<glyph unicode="?" horiz-adv-x="583" d="M295 670Q365 670 420 650T506 589T538 491Q538 431 513 392T444 332T349 305L342 212H217L218 363Q281 370 319 384T374 420T391 473Q391 511 365 533T286 555Q234 555 203 526T165 442L35 492Q47 544 79 584T164 647T295
670ZM281 145Q320 145 343 124T366 68Q366 32 343 12T281 -9Q242 -9 219 11T196 68Q196 103 219 124T281 145Z" />
<glyph unicode="@" horiz-adv-x="941" d="M473 -189Q380 -189 303 -161T169 -79T81 52T50 227Q50 323 83 403T176 541T317 631T494 663Q585 663 658 635T783 554T862 432T890 278Q890 205 872 151T822 62T752 10T676 -7Q612 -7 581 25T552 108Q530 60 487 33T396
5Q349 5 313 28T256 95T235 197Q235 250 251 298T296 383T365 443T456 465Q489 465 517 453T565 418T592 360L615 456H734L664 155Q662 144 660 134T658 115Q658 88 671 78T705 67Q736 67 762 89T804 158T821 275Q821 346 798 405T731 507T629 572T496 595Q415
595 348 569T232 495T157 379T130 227Q130 142 156 78T231 -31T342 -97T477 -120Q553 -120 599 -101T681 -59L716 -117Q689 -136 656 -152T578 -179T473 -189ZM446 96Q481 96 508 121T550 187T565 273Q565 304 555 326T526 360T479 372Q450 372 427 358T388 318T363
263T354 200Q354 167 364 144T396 109T446 96Z" />
<glyph unicode="A" horiz-adv-x="671" d="M12 0L253 660H418L659 0H516L365 449L335 549H333L305 451L153 0H12ZM154 161V263H516V161H154Z" />
<glyph unicode="B" horiz-adv-x="672" d="M86 0V660H375Q495 660 552 613T609 480Q609 427 577 386T483 334V333Q552 323 589 281T626 181Q626 96 565 48T385 0H86ZM220 104H373Q429 104 456 127T483 191Q483 233 456 255T373 277H220V104ZM220 383H357Q466 383
466 468Q466 553 357 553H220V383Z" />
<glyph unicode="C" horiz-adv-x="683" d="M651 182Q632 118 591 75T494 11T371 -10Q273 -10 202 31T92 148T53 330Q53 436 91 512T201 629T369 670Q437 670 492 652T585 595T642 499L517 446Q500 506 465 531T375 557Q321 557 281 531T218 455T196 330Q196 257
216 206T277 129T375 103Q429 103 468 132T524 220L651 182Z" />
<glyph unicode="D" horiz-adv-x="719" d="M341 660Q496 660 581 575T666 330Q666 172 581 86T341 0H86V660H341ZM334 110Q428 110 475 166T523 330Q523 437 476 493T334 550H224V110H334Z" />
<glyph unicode="E" horiz-adv-x="633" d="M86 0V660H581V549H224V385H505V279H224V111H595V0H86Z" />
<glyph unicode="F" horiz-adv-x="612" d="M580 549H224V382H505V270H224V0H86V660H580V549Z" />
<glyph unicode="G" horiz-adv-x="723" d="M357 -10Q266 -10 198 30T91 146T53 329Q53 435 93 511T206 629T377 670Q484 670 550 631T655 508L527 453Q511 506 473 531T378 557Q322 557 281 531T218 454T196 330Q196 255 217 204T279 127T382 101Q415 101 443 109T493
133T526 174T538 232V247H365V348H657V0H560L550 144L574 127Q552 61 497 26T357 -10Z" />
<glyph unicode="H" horiz-adv-x="739" d="M653 660V0H515V660H653ZM224 660V0H86V660H224ZM587 389V278H155V389H587Z" />
<glyph unicode="I" horiz-adv-x="310" d="M224 660V0H86V660H224Z" />
<glyph unicode="J" horiz-adv-x="599" d="M523 660V243Q523 124 456 57T266 -10Q178 -10 123 22T47 112T39 245L173 269Q161 181 184 142T269 103Q334 103 359 143T385 262V660H523Z" />
<glyph unicode="K" horiz-adv-x="679" d="M655 660L353 317L342 328L177 141L156 269L495 660H655ZM224 660V0H86V660H224ZM391 432L663 0H505L285 355L391 432Z" />
<glyph unicode="L" horiz-adv-x="601" d="M224 111H572V0H86V660H224V111Z" />
<glyph unicode="M" horiz-adv-x="890" d="M804 660V0H680V344L686 537H684L501 0H388L206 537H204L211 344V0H86V660H286L405 300L447 151H449L492 299L610 660H804Z" />
<glyph unicode="N" horiz-adv-x="739" d="M653 660V0H495L264 388L207 496H206L210 382V0H86V660H243L474 273L531 164H533L529 278V660H653Z" />
<glyph unicode="O" horiz-adv-x="741" d="M371 670Q469 670 540 629T649 512T688 330Q688 224 650 148T540 31T371 -10Q273 -10 202 31T92 148T53 330Q53 436 91 512T201 629T371 670ZM371 557Q316 557 277 531T217 454T196 330Q196 257 216 206T276 129T371 103Q426
103 465 129T524 206T545 330Q545 403 525 454T465 531T371 557Z" />
<glyph unicode="P" horiz-adv-x="646" d="M363 660Q439 660 493 635T576 562T606 447Q606 380 577 333T493 260T363 234H224V0H86V660H363ZM342 343Q404 343 435 369T466 447Q466 499 435 525T342 551H224V343H342Z" />
<glyph unicode="Q" horiz-adv-x="741" d="M535 -200Q475 -200 427 -180T350 -115T322 -3Q322 13 325 31T337 66L427 80Q420 62 417 48T413 21Q413 -25 430 -49T475 -82T537 -91Q578 -91 607 -82T657 -55L682 -158Q657 -178 616 -189T535 -200ZM371 670Q469 670
540 629T649 512T688 330Q688 224 650 148T540 31T371 -10Q273 -10 202 31T92 148T53 330Q53 436 91 512T201 629T371 670ZM371 557Q316 557 277 531T217 454T196 330Q196 257 216 206T276 129T371 103Q426 103 465 129T524 206T545 330Q545 403 525 454T465 531T371
557Z" />
<glyph unicode="R" horiz-adv-x="680" d="M377 660Q489 660 553 606T617 461Q617 364 553 313T378 261L364 253H222V0H86V660H377ZM361 358Q419 358 447 381T476 454Q476 503 448 526T361 550H222V358H361ZM442 329L656 0H501L324 289L442 329Z" />
<glyph unicode="S" horiz-adv-x="644" d="M327 670Q417 670 485 639T601 547L524 458Q483 510 435 534T322 559Q280 559 253 548T213 519T200 479Q200 452 221 434T293 403L416 375Q514 353 556 310T599 197Q599 132 565 86T470 15T330 -10Q261 -10 204 6T101
52T26 119L104 212Q127 180 161 155T238 116T330 101Q371 101 399 110T442 137T457 180Q457 206 440 224T375 253L241 283Q183 297 142 319T79 377T57 462Q57 521 89 568T181 642T327 670Z" />
<glyph unicode="T" horiz-adv-x="635" d="M608 660V549H387V0H249V549H27V660H608Z" />
<glyph unicode="U" horiz-adv-x="710" d="M637 660V260Q637 125 565 58T355 -10Q217 -10 145 57T73 260V660H211V266Q211 183 246 143T355 103Q428 103 463 143T498 266V660H637Z" />
<glyph unicode="V" horiz-adv-x="670" d="M656 660L416 0H255L14 660H160L299 240L337 110L374 239L514 660H656Z" />
<glyph unicode="W" horiz-adv-x="984" d="M211 0L19 660H166L296 115L428 660H560L694 115L823 660H964L772 0H617L525 360L494 516H492L461 360L370 0H211Z" />
<glyph unicode="X" horiz-adv-x="640" d="M624 0H460L316 234L174 0H16L243 333L32 660H194L327 438L462 660H612L400 338L624 0Z" />
<glyph unicode="Y" horiz-adv-x="626" d="M616 660L382 247V0H244V247L10 660H157L263 463L313 359L364 463L470 660H616Z" />
<glyph unicode="Z" horiz-adv-x="633" d="M156 62L131 110H593V0H44V104L470 598L494 550H52V660H581V556L156 62Z" />
<glyph unicode="[" horiz-adv-x="375" d="M347 618H206V-67H347V-168H86V719H347V618Z" />
<glyph unicode="\" horiz-adv-x="456" d="M20 719H147L437 -70H309L20 719Z" />
<glyph unicode="]" horiz-adv-x="375" d="M28 -67H169V618H28V719H289V-168H28V-67Z" />
<glyph unicode="^" horiz-adv-x="593" d="M25 355L237 726H356L568 355H443L297 630L150 355H25Z" />
<glyph unicode="_" horiz-adv-x="539" d="M539 -77V-190H0V-77H539Z" />
<glyph unicode="`" horiz-adv-x="500" d="M282 742L352 572H250L150 742H282Z" />
<glyph unicode="a" horiz-adv-x="574" d="M357 319Q357 362 333 386T268 410Q231 410 203 391T162 328L45 364Q62 430 119 470T274 510Q340 510 389 490T465 428T493 325V122Q493 84 529 84Q546 84 561 89L553 4Q527 -9 488 -9Q453 -9 425 3T381 39T365 101V105L389
109Q383 71 356 45T291 4T211 -10Q160 -10 123 5T66 51T46 125Q46 181 82 216T185 265L373 303L372 218L252 194Q218 187 201 176T183 138Q183 113 201 100T246 87Q267 87 287 92T323 108T348 138T357 184V319Z" />
<glyph unicode="b" horiz-adv-x="627" d="M366 -10Q320 -10 283 9T221 63T187 141L201 159L193 0H72V719H209V359L196 380Q212 436 257 473T370 510Q430 510 477 479T552 390T580 249Q580 168 553 110T477 21T366 -10ZM325 95Q380 95 411 134T443 250Q443 326
412 365T326 405Q290 405 264 386T224 332T209 249Q209 201 223 166T264 113T325 95Z" />
<glyph unicode="c" horiz-adv-x="564" d="M299 510Q366 510 412 491T487 438T528 363L400 317Q390 362 366 385T301 408Q263 408 236 391T195 338T181 249Q181 196 195 161T237 109T302 92Q332 92 353 102T387 133T406 181L530 141Q519 96 489 62T412 9T303 -10Q226
-10 167 21T76 110T44 250Q44 332 76 390T166 479T299 510Z" />
<glyph unicode="d" horiz-adv-x="627" d="M261 -10Q199 -10 151 21T75 110T47 249Q47 332 76 390T154 479T266 510Q332 510 375 472T431 374L418 358V719H555V0H432L423 152L439 144Q433 97 408 63T345 9T261 -10ZM301 95Q337 95 363 113T403 168T418 254Q418
302 404 335T364 387T303 405Q247 405 216 366T184 250Q184 174 215 135T301 95Z" />
<glyph unicode="e" horiz-adv-x="579" d="M304 -10Q225 -10 167 21T76 110T44 250Q44 332 76 390T165 479T297 510Q373 510 426 480T507 397T535 277Q535 257 534 239T531 207H132V302H471L405 278Q405 341 377 375T296 409Q258 409 231 391T189 338T175 248Q175
195 190 161T234 109T303 92Q347 92 374 109T416 156L525 114Q509 75 477 47T400 5T304 -10Z" />
<glyph unicode="f" horiz-adv-x="407" d="M295 729Q330 729 358 722T401 703L382 612Q371 619 357 623T324 627Q285 627 262 610T239 550V481L245 454V0H108V560Q108 602 122 634T161 687T220 718T295 729ZM397 500V398H21V500H397Z" />
<glyph unicode="g" horiz-adv-x="549" d="M533 619L549 521Q545 521 541 521T531 522Q486 522 463 502T439 445L383 468Q383 508 399 542T446 598T522 619Q524 619 527 619T533 619ZM369 94Q450 94 494 59T538 -39Q538 -96 505 -135T413 -195T275 -215Q146 -215
87 -179T27 -85Q27 -44 58 -16T163 15L158 -1Q106 8 79 33T51 104Q51 150 86 179T183 214L243 186H229Q186 183 169 169T151 136Q151 115 167 105T215 94H369ZM276 -121Q328 -121 361 -112T411 -89T428 -58Q428 -39 413 -28T359 -16H190Q166 -16 151 -28T135 -61Q135
-89 172 -105T276 -121ZM277 510Q347 510 398 490T477 431T505 340Q505 288 478 250T399 192T277 171Q166 171 107 216T48 340Q48 393 76 431T155 489T277 510ZM277 424Q237 424 211 402T185 341Q185 302 211 280T277 257Q317 257 342 279T368 341Q368 380 343
402T277 424Z" />
<glyph unicode="h" horiz-adv-x="619" d="M72 0V719H209V415Q233 463 275 486T370 510Q422 510 462 490T526 430T550 328V0H413V288Q413 353 388 377T324 402Q295 402 269 389T226 345T209 264V0H72Z" />
<glyph unicode="i" horiz-adv-x="282" d="M141 572Q98 572 77 590T56 645Q56 682 77 700T141 719Q184 719 205 701T226 645Q226 609 205 591T141 572ZM209 500V0H72V500H209Z" />
<glyph unicode="j" horiz-adv-x="282" d="M141 572Q98 572 77 590T56 645Q56 682 77 700T141 719Q184 719 205 701T226 645Q226 609 205 591T141 572ZM209 500V-37Q209 -102 186 -141T122 -197T31 -215Q-6 -215 -36 -207T-89 -183L-67 -85Q-55 -95 -37 -101T3
-108Q34 -108 53 -90T72 -24V500H209Z" />
<glyph unicode="k" horiz-adv-x="602" d="M581 500L350 259L323 246L173 85L171 231L425 500H581ZM209 719V0H72V719H209ZM369 341L593 0H438L275 261L369 341Z" />
<glyph unicode="l" horiz-adv-x="319" d="M207 719V154Q207 119 219 105T259 91Q276 91 287 93T315 101L303 11Q286 1 261 -4T210 -10Q137 -10 104 25T70 139V719H207Z" />
<glyph unicode="m" horiz-adv-x="945" d="M72 0V500H195L200 410Q225 460 268 485T365 510Q419 510 462 485T528 411Q544 444 571 466T631 499T698 510Q747 510 787 490T852 430T876 328V0H739V301Q739 356 715 379T653 402Q623 402 598 387T558 343T543 269V0H406V301Q406
356 382 379T319 402Q293 402 268 388T226 344T209 265V0H72Z" />
<glyph unicode="n" horiz-adv-x="619" d="M72 0V500H195L203 350L186 366Q198 415 224 446T287 494T370 510Q422 510 462 490T526 430T550 328V0H413V289Q413 353 388 377T323 402Q295 402 269 389T226 345T209 265V0H72Z" />
<glyph unicode="o" horiz-adv-x="599" d="M300 510Q376 510 433 479T523 390T556 250Q556 169 524 111T434 21T300 -10Q225 -10 167 21T77 110T44 250Q44 332 76 390T167 479T300 510ZM300 408Q262 408 236 391T195 338T181 250Q181 197 195 162T235 110T300 92Q337
92 363 109T404 162T418 250Q418 303 404 338T364 390T300 408Z" />
<glyph unicode="p" horiz-adv-x="627" d="M72 -210V500H195L204 341L187 359Q196 403 220 437T283 490T368 510Q429 510 477 479T552 391T580 251Q580 169 552 111T476 21T365 -10Q299 -10 256 27T196 120L209 141V-210H72ZM325 95Q380 95 411 134T443 250Q443
326 413 365T327 405Q292 405 266 387T224 334T209 250Q209 203 223 168T263 114T325 95Z" />
<glyph unicode="q" horiz-adv-x="627" d="M418 -210V156L434 138Q427 93 403 60T343 9T261 -10Q199 -10 151 21T75 110T47 251Q47 334 75 391T154 479T266 510Q312 510 349 491T410 436T440 354L423 344L432 500H555V-210H418ZM301 95Q337 95 363 113T403 167T418
252Q418 302 404 336T363 387T302 405Q247 405 216 366T184 250Q184 174 215 135T301 95Z" />
<glyph unicode="r" horiz-adv-x="422" d="M72 0V500H191L200 402Q220 454 258 482T355 510Q372 510 386 507T409 499L393 384Q383 388 369 390T331 392Q301 392 273 378T227 334T209 259V0H72Z" />
<glyph unicode="s" horiz-adv-x="531" d="M272 -10Q196 -10 134 17T32 93L111 173Q135 137 175 114T270 91Q309 91 332 102T356 139Q356 155 345 166T301 185L213 203Q126 221 90 257T53 352Q53 393 77 429T151 487T273 510Q348 510 403 487T491 417L409 337Q387
372 352 390T277 409Q249 409 229 403T199 387T189 360Q189 344 203 333T254 313L356 292Q430 277 462 242T494 156Q494 108 469 71T394 12T272 -10Z" />
<glyph unicode="t" horiz-adv-x="430" d="M249 653V163Q249 127 267 111T318 94Q344 94 362 101T396 122L418 31Q394 12 358 1T282 -10Q232 -10 194 5T134 53T112 141V615L249 653ZM409 500V398H20V500H409Z" />
<glyph unicode="u" horiz-adv-x="618" d="M246 -10Q196 -10 156 8T93 65T69 168V500H206V201Q206 143 230 121T299 98Q320 98 340 105T375 129T400 170T409 231V500H546V0H424L419 87Q394 37 351 14T246 -10Z" />
<glyph unicode="v" horiz-adv-x="546" d="M400 500H542L352 0H194L4 500H151L274 105L400 500Z" />
<glyph unicode="w" horiz-adv-x="876" d="M717 500H863L703 0H545L436 340L331 0H173L13 500H159L259 117L370 500H506L618 117L717 500Z" />
<glyph unicode="x" horiz-adv-x="569" d="M183 500L315 281L352 282L552 0H393L257 224L216 228L23 500H183ZM549 500L356 231L315 234L169 0H14L221 284L260 279L393 500H549Z" />
<glyph unicode="y" horiz-adv-x="546" d="M542 500L340 -31Q316 -99 287 -139T219 -197T127 -215Q88 -215 56 -206T-1 -181L28 -82Q47 -97 68 -103T116 -110Q144 -110 164 -98T199 -50L216 -7L161 123L8 500H160L255 200L281 100L312 206L403 500H542Z" />
<glyph unicode="z" horiz-adv-x="523" d="M43 0V88L265 344L322 401L239 399H45V500H474V412L253 157L196 99L287 101H482V0H43Z" />
<glyph unicode="{" horiz-adv-x="395" d="M361 -191Q284 -191 238 -175T170 -124T148 -37V124Q148 180 123 204T36 228V323Q97 323 122 347T148 427V589Q148 642 169 675T237 725T361 741V649Q308 649 285 632T262 578V402Q262 351 236 320T158 276Q209 263 235
232T262 149V-27Q262 -64 285 -81T361 -98V-191Z" />
<glyph unicode="|" horiz-adv-x="292" d="M206 719V-168H86V719H206Z" />
<glyph unicode="}" horiz-adv-x="395" d="M34 742Q111 742 157 726T225 675T247 588V427Q247 371 272 347T359 323V228Q298 228 273 204T247 124V-38Q247 -91 226 -124T158 -174T34 -190V-98Q87 -98 110 -81T133 -27V149Q133 200 159 231T237 275Q186 288 160
319T133 402V578Q133 615 110 632T34 649V742Z" />
<glyph unicode="~" horiz-adv-x="576" d="M533 410Q528 323 491 278T384 232Q349 232 325 242T282 266T246 290T208 300Q185 300 173 284T155 235H43Q48 323 85 368T193 413Q227 413 251 403T295 379T331 355T369 345Q391 345 404 362T421 410H533Z" />
<glyph unicode="&#xa0;" horiz-adv-x="306" />
<glyph unicode="&#xa1;" horiz-adv-x="286" d="M71 -160V80L88 287H198L215 80V-160H71ZM143 355Q104 355 81 376T58 432Q58 468 81 488T143 509Q182 509 205 489T228 432Q228 397 205 376T143 355Z" />
<glyph unicode="&#xa2;" horiz-adv-x="572" d="M312 -10Q233 -10 174 21T83 110T51 250Q51 332 83 390T173 479T308 510Q375 510 420 491T494 439T535 363L426 320Q415 369 386 394T313 419Q250 419 211 377T172 249Q172 191 190 154T241 99T313 81Q345 81 369
92T409 125T432 178L537 142Q525 96 495 62T419 9T312 -10ZM261 -100V600H352V-100H261Z" />
<glyph unicode="&#xa3;" horiz-adv-x="621" d="M62 273V346H477V273H62ZM153 -10Q101 -10 69 14T36 80Q36 108 52 128T96 160T162 172Q204 172 234 164T288 143T333 117T376 95T428 86Q465 86 482 107T499 175L591 167Q595 113 579 73T530 12T451 -10Q412 -10
380 2T321 31T268 67T216 97T159 109Q137 109 127 102T117 81Q117 66 129 58T159 50Q191 50 206 64T227 103T233 161Q233 204 219 238T172 322Q153 355 141 380T124 428T119 475Q119 533 147 577T227 645T346 670Q435 670 490 629T565 502L453 454Q440 509 415
537T341 565Q294 565 266 541T237 470Q237 453 240 438T253 403T277 355Q300 311 314 269T329 188Q329 153 319 118T288 54T233 8T153 -10Z" />
<glyph unicode="&#xa4;" horiz-adv-x="653" d="M327 538Q389 538 437 512T512 438T539 329Q539 268 512 221T437 147T327 120Q265 120 217 147T142 221T114 329Q114 391 141 438T217 511T327 538ZM327 435Q282 435 254 406T226 329Q226 282 254 253T327 223Q371
223 399 252T427 329Q427 376 399 405T327 435ZM129 607L256 471L186 401L49 526L129 607ZM184 258L254 188L129 51L49 132L184 258ZM470 255L605 132L523 51L399 184L470 255ZM523 607L605 526L472 401L401 472L523 607Z" />
<glyph unicode="&#xa5;" horiz-adv-x="649" d="M260 0V116H68V173H260V242H68V302H190L244 298L24 660H170L278 446L324 345H326L371 447L479 660H625L405 298L459 302H582V242H389V173H582V116H389V0H260Z" />
<glyph unicode="&#xa6;" horiz-adv-x="292" d="M206 719V345H86V719H206ZM206 206V-168H86V206H206Z" />
<glyph unicode="&#xa7;" horiz-adv-x="614" d="M420 113L365 176Q405 180 431 189T469 214T482 250Q482 275 463 292T397 318L235 348Q187 357 154 378T105 429T89 495Q89 547 117 586T196 648T317 670Q394 670 448 645T540 572L461 504Q433 541 396 558T311 576Q255
576 227 557T199 509Q199 494 206 481T234 459T292 442L406 422Q473 410 512 390T569 342T586 275Q586 232 567 198T511 143T420 113ZM297 -110Q211 -110 149 -83T53 -10L133 60Q156 25 199 4T300 -18Q354 -18 386 0T419 51Q419 72 402 85T344 106L186 138Q132
149 97 169T44 219T26 291Q26 333 45 363T99 412T178 438L225 378Q193 371 172 361T140 338T129 306Q129 281 150 264T222 237L377 208Q454 194 489 157T525 63Q525 11 498 -28T419 -88T297 -110Z" />
<glyph unicode="&#xa8;" horiz-adv-x="500" d="M144 705Q179 705 199 687T220 635Q220 603 200 584T144 565Q110 565 90 584T70 635Q70 668 90 686T144 705ZM354 705Q390 705 410 687T430 635Q430 603 410 584T354 565Q320 565 300 584T280 635Q280 668 300 686T354 705Z" />
<glyph unicode="&#xa9;" horiz-adv-x="790" d="M395 -10Q294 -10 217 34T95 155T51 330Q51 429 95 505T216 626T395 670Q496 670 573 626T694 506T738 330Q738 232 695 155T574 34T395 -10ZM395 67Q473 67 532 101T624 195T657 330Q657 406 624 465T532 559T395
593Q317 593 258 559T166 466T133 330Q133 255 166 195T258 101T395 67ZM401 140Q313 140 263 191T213 329Q213 416 263 467T401 518Q466 518 508 490T568 413L484 372Q473 399 454 410T404 422Q363 422 339 398T315 329Q315 284 339 260T404 235Q435 235 456 247T489
288L569 252Q547 196 507 168T401 140Z" />
<glyph unicode="&#xaa;" horiz-adv-x="418" d="M141 314Q86 314 57 339T27 404Q27 446 53 468T140 502L252 524V475L180 459Q152 453 141 443T129 415Q129 399 140 390T171 381Q187 381 203 386T229 405T240 443V535Q240 561 226 575T186 589Q161 589 141 577T111
533L28 559Q39 605 79 634T188 663Q265 663 305 631T345 534V410Q345 394 353 387T373 380Q388 380 395 383L387 325Q377 319 365 317T338 314Q300 314 278 334T255 393V411L269 404Q263 379 246 359T202 326T141 314ZM31 169V245H380V169H31Z" />
<glyph unicode="&#xab;" horiz-adv-x="552" d="M292 461L168 265L292 69H166L41 265L166 461H292ZM510 461L386 265L510 69H384L259 265L384 461H510Z" />
<glyph unicode="&#xac;" horiz-adv-x="604" d="M545 316V110H429V316H545ZM545 374V269H59V374H545Z" />
<glyph unicode="&#xad;" horiz-adv-x="521" d="M437 324V206H84V324H437Z" />
<glyph unicode="&#xae;" horiz-adv-x="790" d="M395 -10Q294 -10 217 34T95 155T51 330Q51 429 95 505T216 626T395 670Q496 670 573 627T694 506T738 330Q738 232 695 155T574 34T395 -10ZM454 148L370 295L446 318L559 148H454ZM395 67Q473 67 532 101T624 195T657
330Q657 406 624 465T532 559T395 593Q317 593 258 559T166 466T133 330Q133 255 166 195T258 101T395 67ZM250 148V515H416Q456 515 486 500T533 458T551 395Q551 339 512 308T409 276H338V148H250ZM338 339H401Q429 339 445 351T461 391Q461 418 445 430T401
443H338V339Z" />
<glyph unicode="&#xaf;" horiz-adv-x="500" d="M425 670V579H75V670H425Z" />
<glyph unicode="&#xb0;" horiz-adv-x="482" d="M241 313Q184 313 142 335T75 398T51 492Q51 545 75 585T141 648T241 670Q299 670 341 648T408 586T432 492Q432 438 408 398T342 336T241 313ZM241 406Q280 406 304 430T328 492Q328 530 304 554T241 578Q204 578
180 554T155 492Q155 455 179 431T241 406Z" />
<glyph unicode="&#xb1;" horiz-adv-x="604" d="M355 648V174H250V648H355ZM550 461V359H54V461H550ZM550 100V0H54V100H550Z" />
<glyph unicode="&#xb2;" horiz-adv-x="382" d="M33 333V400Q56 414 78 428T123 457Q167 489 193 513T231 558T242 598Q242 623 228 638T184 654Q153 654 136 633T118 571L20 595Q22 660 67 697T187 735Q245 735 281 716T334 668T351 606Q351 579 339 554T301 503T236
450Q221 440 204 431T168 413V412Q182 413 207 414T250 415H357V333H33Z" />
<glyph unicode="&#xb3;" horiz-adv-x="373" d="M189 735Q259 735 298 705T337 624Q337 596 326 576T296 545T255 533V530Q280 530 300 520T333 491T345 443Q345 408 324 382T265 342T180 327Q111 327 70 353T14 430L111 463Q116 433 133 419T181 405Q209 405 225
418T241 456Q241 480 224 490T175 500Q171 500 167 500T158 499V559Q162 558 165 558T172 558Q202 558 217 570T233 606Q233 630 219 642T180 654Q155 654 139 641T118 601L25 629Q36 682 81 708T189 735Z" />
<glyph unicode="&#xb4;" horiz-adv-x="562" d="M250 742H382L282 572H181L250 742Z" />
<glyph unicode="&#xb5;" horiz-adv-x="622" d="M72 -210V500H209V204Q209 147 233 123T302 98Q333 98 357 112T397 157T412 238V500H549V0H430L424 87Q402 39 363 15T273 -10Q246 -10 223 -2T182 24L209 62V-210H72Z" />
<glyph unicode="&#xb6;" horiz-adv-x="715" d="M296 -100V182Q220 183 162 211T70 292T37 420Q37 496 72 550T170 632T317 660H639V-100H526V553H411V-100H296ZM294 289V553Q248 553 216 537T168 491T151 421Q151 380 167 351T216 305T294 289Z" />
<glyph unicode="&#xb7;" horiz-adv-x="256" d="M129 435Q169 435 192 413T216 354Q216 316 193 295T129 273Q89 273 66 294T42 354Q42 391 65 413T129 435Z" />
<glyph unicode="&#xb8;" horiz-adv-x="500" d="M189 8L230 34Q302 20 334 -12T367 -93Q367 -147 331 -181T233 -215Q198 -215 175 -207T134 -186L158 -113Q171 -121 185 -127T221 -133Q247 -133 264 -117T281 -71Q281 -47 261 -29T189 8Z" />
<glyph unicode="&#xb9;" horiz-adv-x="277" d="M143 730H232V333H128V562Q128 575 129 593T131 629Q107 610 78 596T16 577V663Q36 667 61 677T109 701T143 730Z" />
<glyph unicode="&#xba;" horiz-adv-x="400" d="M200 314Q122 314 75 360T27 488Q27 571 74 617T200 663Q278 663 325 617T372 488Q372 406 325 360T200 314ZM36 169V245H364V169H36ZM200 386Q235 386 251 411T267 488Q267 540 251 566T200 592Q165 592 149 566T133
488Q133 437 149 412T200 386Z" />
<glyph unicode="&#xbb;" horiz-adv-x="552" d="M260 69L384 265L260 461H386L511 265L386 69H260ZM42 69L166 265L42 461H168L293 265L168 69H42Z" />
<glyph unicode="&#xbc;" horiz-adv-x="841" d="M143 921H232V524H128V753Q128 766 129 784T131 820Q107 801 78 787T16 768V854Q36 858 61 868T109 892T143 921ZM111 0L588 660H693L216 0H111ZM825 156V86H761V-4H671V86H471V135L640 393H761V156H825ZM563 156H671V247Q671
267 672 287T674 325H671Q665 313 657 297T640 268L563 156Z" />
<glyph unicode="&#xbd;" horiz-adv-x="909" d="M143 921H232V524H128V753Q128 766 129 784T131 820Q107 801 78 787T16 768V854Q36 858 61 868T109 892T143 921ZM111 0L588 660H693L216 0H111ZM560 -4V63Q583 77 605 91T650 120Q694 152 720 176T758 221T769 261Q769
286 755 301T711 317Q680 317 663 296T645 234L547 258Q549 323 594 360T714 398Q772 398 808 379T861 331T878 269Q878 242 866 217T828 166T763 113Q748 103 731 94T695 76V75Q709 76 734 77T777 78H884V-4H560Z" />
<glyph unicode="&#xbe;" horiz-adv-x="937" d="M189 926Q259 926 298 896T337 815Q337 787 326 767T296 736T255 724V721Q280 721 300 711T333 682T345 634Q345 599 324 573T265 533T180 518Q111 518 70 544T14 621L111 654Q116 624 133 610T181 596Q209 596 225
609T241 647Q241 671 224 681T175 691Q171 691 167 691T158 690V750Q162 749 165 749T172 749Q202 749 217 761T233 797Q233 821 219 833T180 845Q155 845 139 832T118 792L25 820Q36 873 81 899T189 926ZM207 0L684 660H789L312 0H207ZM921 156V86H857V-4H767V86H567V135L736
393H857V156H921ZM659 156H767V247Q767 267 768 287T770 325H767Q761 313 753 297T736 268L659 156Z" />
<glyph unicode="&#xbf;" horiz-adv-x="580" d="M287 -170Q217 -170 162 -150T76 -89T44 9Q44 69 69 108T138 168T233 195L240 288H365L364 137Q301 130 263 116T208 80T191 27Q191 -11 217 -33T296 -55Q348 -55 379 -26T417 58L547 8Q535 -44 503 -84T418 -147T287
-170ZM301 355Q262 355 239 376T216 432Q216 468 239 488T301 509Q340 509 363 489T386 432Q386 397 363 376T301 355Z" />
<glyph unicode="&#xc0;" horiz-adv-x="671" d="M12 0L253 660H418L659 0H516L365 449L335 549H333L305 451L153 0H12ZM154 161V263H516V161H154ZM330 892L393 730H292L204 892H330Z" />
<glyph unicode="&#xc1;" horiz-adv-x="671" d="M12 0L253 660H418L659 0H516L365 449L335 549H333L305 451L153 0H12ZM154 161V263H516V161H154ZM337 892H463L375 730H274L337 892Z" />
<glyph unicode="&#xc2;" horiz-adv-x="671" d="M12 0L253 660H418L659 0H516L365 449L335 549H333L305 451L153 0H12ZM154 161V263H516V161H154ZM508 730H405L335 828L265 730H162L266 892H404L508 730Z" />
<glyph unicode="&#xc3;" horiz-adv-x="671" d="M12 0L253 660H418L659 0H516L365 449L335 549H333L305 451L153 0H12ZM154 161V263H516V161H154ZM526 878Q524 828 509 795T467 745T407 728Q379 728 359 737T325 758T297 779T268 789Q249 789 240 774T226 728H142Q146
803 178 840T266 878Q293 878 312 869T346 847T372 826T400 817Q420 817 429 832T442 878H526Z" />
<glyph unicode="&#xc4;" horiz-adv-x="671" d="M12 0L253 660H418L659 0H516L365 449L335 549H333L305 451L153 0H12ZM154 161V263H516V161H154ZM229 865Q264 865 284 847T305 795Q305 763 285 744T229 725Q195 725 175 744T155 795Q155 828 175 846T229 865ZM439
865Q475 865 495 847T515 795Q515 763 495 744T439 725Q405 725 385 744T365 795Q365 828 385 846T439 865Z" />
<glyph unicode="&#xc5;" horiz-adv-x="671" d="M12 0L253 660H418L659 0H516L365 449L335 549H333L305 451L153 0H12ZM154 161V263H516V161H154ZM334 844Q395 844 431 811T468 721Q468 665 432 632T334 598Q274 598 237 631T199 721Q199 777 236 810T334 844ZM334
780Q308 780 291 764T274 721Q274 695 291 679T334 663Q361 663 377 679T394 721Q394 747 378 763T334 780Z" />
<glyph unicode="&#xc6;" horiz-adv-x="935" d="M563 108H897V0H432V202H234L141 0H0L321 660H883V552H563V384H807V281H563V108ZM274 301H432V555H398L274 301Z" />
<glyph unicode="&#xc7;" horiz-adv-x="683" d="M651 182Q632 118 591 75T494 11T371 -10Q273 -10 202 31T92 148T53 330Q53 436 91 512T201 629T369 670Q437 670 492 652T585 595T642 499L517 446Q500 506 465 531T375 557Q321 557 281 531T218 455T196 330Q196
257 216 206T277 129T375 103Q429 103 468 132T524 220L651 182ZM295 8L336 34Q408 20 440 -12T473 -93Q473 -147 437 -181T339 -215Q304 -215 281 -207T240 -186L264 -113Q277 -121 291 -127T327 -133Q353 -133 370 -117T387 -71Q387 -47 367 -29T295 8Z" />
<glyph unicode="&#xc8;" horiz-adv-x="633" d="M86 0V660H581V549H224V385H505V279H224V111H595V0H86ZM332 892L395 730H294L206 892H332Z" />
<glyph unicode="&#xc9;" horiz-adv-x="633" d="M86 0V660H581V549H224V385H505V279H224V111H595V0H86ZM332 892H458L370 730H269L332 892Z" />
<glyph unicode="&#xca;" horiz-adv-x="633" d="M86 0V660H581V549H224V385H505V279H224V111H595V0H86ZM507 730H404L334 828L264 730H161L265 892H403L507 730Z" />
<glyph unicode="&#xcb;" horiz-adv-x="633" d="M86 0V660H581V549H224V385H505V279H224V111H595V0H86ZM228 865Q263 865 283 847T304 795Q304 763 284 744T228 725Q194 725 174 744T154 795Q154 828 174 846T228 865ZM438 865Q474 865 494 847T514 795Q514 763
494 744T438 725Q404 725 384 744T364 795Q364 828 384 846T438 865Z" />
<glyph unicode="&#xcc;" horiz-adv-x="310" d="M224 660V0H86V660H224ZM147 892L210 730H109L21 892H147Z" />
<glyph unicode="&#xcd;" horiz-adv-x="310" d="M224 660V0H86V660H224ZM163 892H289L201 730H100L163 892Z" />
<glyph unicode="&#xce;" horiz-adv-x="310" d="M224 660V0H86V660H224ZM328 730H225L155 828L85 730H-18L86 892H224L328 730Z" />
<glyph unicode="&#xcf;" horiz-adv-x="310" d="M58 865Q93 865 112 847T132 795Q132 763 113 744T58 725Q25 725 6 744T-14 795Q-14 828 5 846T58 865ZM250 865Q285 865 304 847T324 795Q324 763 305 744T250 725Q217 725 198 744T178 795Q178 828 197 846T250
865ZM224 660V0H86V660H224Z" />
<glyph unicode="&#xd0;" horiz-adv-x="740" d="M18 280V383H399V280H18ZM362 660Q517 660 601 575T686 330Q686 172 602 86T362 0H107V660H362ZM354 110Q449 110 496 166T544 330Q544 437 497 493T354 550H245V110H354Z" />
<glyph unicode="&#xd1;" horiz-adv-x="739" d="M653 660V0H495L264 388L207 496H206L210 382V0H86V660H243L474 273L531 164H533L529 278V660H653ZM563 878Q561 828 546 795T504 745T444 728Q416 728 396 737T362 758T334 779T305 789Q286 789 277 774T263 728H179Q183
803 215 840T303 878Q330 878 349 869T383 847T409 826T437 817Q457 817 466 832T479 878H563Z" />
<glyph unicode="&#xd2;" horiz-adv-x="741" d="M371 670Q469 670 540 629T649 512T688 330Q688 224 650 148T540 31T371 -10Q273 -10 202 31T92 148T53 330Q53 436 91 512T201 629T371 670ZM371 557Q316 557 277 531T217 454T196 330Q196 257 216 206T276 129T371
103Q426 103 465 129T524 206T545 330Q545 403 525 454T465 531T371 557ZM362 892L425 730H324L236 892H362Z" />
<glyph unicode="&#xd3;" horiz-adv-x="741" d="M371 670Q469 670 540 629T649 512T688 330Q688 224 650 148T540 31T371 -10Q273 -10 202 31T92 148T53 330Q53 436 91 512T201 629T371 670ZM371 557Q316 557 277 531T217 454T196 330Q196 257 216 206T276 129T371
103Q426 103 465 129T524 206T545 330Q545 403 525 454T465 531T371 557ZM373 892H499L411 730H310L373 892Z" />
<glyph unicode="&#xd4;" horiz-adv-x="741" d="M371 670Q469 670 540 629T649 512T688 330Q688 224 650 148T540 31T371 -10Q273 -10 202 31T92 148T53 330Q53 436 91 512T201 629T371 670ZM371 557Q316 557 277 531T217 454T196 330Q196 257 216 206T276 129T371
103Q426 103 465 129T524 206T545 330Q545 403 525 454T465 531T371 557ZM544 730H441L371 828L301 730H198L302 892H440L544 730Z" />
<glyph unicode="&#xd5;" horiz-adv-x="741" d="M371 670Q469 670 540 629T649 512T688 330Q688 224 650 148T540 31T371 -10Q273 -10 202 31T92 148T53 330Q53 436 91 512T201 629T371 670ZM371 557Q316 557 277 531T217 454T196 330Q196 257 216 206T276 129T371
103Q426 103 465 129T524 206T545 330Q545 403 525 454T465 531T371 557ZM562 878Q560 828 545 795T503 745T443 728Q415 728 395 737T361 758T333 779T304 789Q285 789 276 774T262 728H178Q182 803 214 840T302 878Q329 878 348 869T382 847T408 826T436 817Q456
817 465 832T478 878H562Z" />
<glyph unicode="&#xd6;" horiz-adv-x="741" d="M371 670Q469 670 540 629T649 512T688 330Q688 224 650 148T540 31T371 -10Q273 -10 202 31T92 148T53 330Q53 436 91 512T201 629T371 670ZM371 557Q316 557 277 531T217 454T196 330Q196 257 216 206T276 129T371
103Q426 103 465 129T524 206T545 330Q545 403 525 454T465 531T371 557ZM265 865Q300 865 320 847T341 795Q341 763 321 744T265 725Q231 725 211 744T191 795Q191 828 211 846T265 865ZM475 865Q511 865 531 847T551 795Q551 763 531 744T475 725Q441 725 421
744T401 795Q401 828 421 846T475 865Z" />
<glyph unicode="&#xd7;" horiz-adv-x="604" d="M462 85L539 163L142 561L64 483L462 85ZM142 85L539 483L462 561L64 163L142 85Z" />
<glyph unicode="&#xd8;" horiz-adv-x="741" d="M244 95L196 134L489 544L538 507L244 95ZM72 -31L185 122L235 83L148 -31H72ZM554 525L504 564L593 682H670L554 525ZM371 670Q469 670 540 629T649 512T688 330Q688 224 650 148T540 31T371 -10Q273 -10 202 31T92
148T53 330Q53 436 91 512T201 629T371 670ZM371 557Q316 557 277 531T217 454T196 330Q196 257 216 206T276 129T371 103Q426 103 465 129T524 206T545 330Q545 403 525 454T465 531T371 557Z" />
<glyph unicode="&#xd9;" horiz-adv-x="710" d="M637 660V260Q637 125 565 58T355 -10Q217 -10 145 57T73 260V660H211V266Q211 183 246 143T355 103Q428 103 463 143T498 266V660H637ZM353 877L416 715H315L227 877H353Z" />
<glyph unicode="&#xda;" horiz-adv-x="710" d="M637 660V260Q637 125 565 58T355 -10Q217 -10 145 57T73 260V660H211V266Q211 183 246 143T355 103Q428 103 463 143T498 266V660H637ZM357 877H483L395 715H294L357 877Z" />
<glyph unicode="&#xdb;" horiz-adv-x="710" d="M637 660V260Q637 125 565 58T355 -10Q217 -10 145 57T73 260V660H211V266Q211 183 246 143T355 103Q428 103 463 143T498 266V660H637ZM528 715H425L355 813L285 715H182L286 877H424L528 715Z" />
<glyph unicode="&#xdc;" horiz-adv-x="710" d="M637 660V260Q637 125 565 58T355 -10Q217 -10 145 57T73 260V660H211V266Q211 183 246 143T355 103Q428 103 463 143T498 266V660H637ZM249 850Q284 850 304 832T325 780Q325 748 305 729T249 710Q215 710 195 729T175
780Q175 813 195 831T249 850ZM459 850Q495 850 515 832T535 780Q535 748 515 729T459 710Q425 710 405 729T385 780Q385 813 405 831T459 850Z" />
<glyph unicode="&#xdd;" horiz-adv-x="626" d="M616 660L382 247V0H244V247L10 660H157L263 463L313 359L364 463L470 660H616ZM315 880H441L353 718H252L315 880Z" />
<glyph unicode="&#xde;" horiz-adv-x="657" d="M357 553Q482 553 547 498T613 337Q613 232 548 177T357 121H155V230H348Q472 230 472 338Q472 392 441 418T348 444H155V553H357ZM224 660V0H86V660H224Z" />
<glyph unicode="&#xdf;" horiz-adv-x="636" d="M417 371Q477 371 516 347T574 282T594 193Q594 138 572 92T505 18T388 -10Q342 -10 308 0T256 23L282 118Q297 109 316 102T367 94Q412 94 438 125T464 207Q464 261 433 289T342 317H285L296 419H333Q385 419 412
449T439 523Q439 571 409 594T332 618Q263 618 236 579T209 457V0H72V474Q72 550 97 606T182 693T339 724Q417 724 469 699T547 633T574 541Q574 501 556 463T503 401T417 373V371Z" />
<glyph unicode="&#xe0;" horiz-adv-x="574" d="M357 319Q357 362 333 386T268 410Q231 410 203 391T162 328L45 364Q62 430 119 470T274 510Q340 510 389 490T465 428T493 325V122Q493 84 529 84Q546 84 561 89L553 4Q527 -9 488 -9Q453 -9 425 3T381 39T365 101V105L389
109Q383 71 356 45T291 4T211 -10Q160 -10 123 5T66 51T46 125Q46 181 82 216T185 265L373 303L372 218L252 194Q218 187 201 176T183 138Q183 113 201 100T246 87Q267 87 287 92T323 108T348 138T357 184V319ZM264 742L334 572H232L132 742H264Z" />
<glyph unicode="&#xe1;" horiz-adv-x="574" d="M357 319Q357 362 333 386T268 410Q231 410 203 391T162 328L45 364Q62 430 119 470T274 510Q340 510 389 490T465 428T493 325V122Q493 84 529 84Q546 84 561 89L553 4Q527 -9 488 -9Q453 -9 425 3T381 39T365 101V105L389
109Q383 71 356 45T291 4T211 -10Q160 -10 123 5T66 51T46 125Q46 181 82 216T185 265L373 303L372 218L252 194Q218 187 201 176T183 138Q183 113 201 100T246 87Q267 87 287 92T323 108T348 138T357 184V319ZM279 742H411L311 572H210L279 742Z" />
<glyph unicode="&#xe2;" horiz-adv-x="574" d="M357 319Q357 362 333 386T268 410Q231 410 203 391T162 328L45 364Q62 430 119 470T274 510Q340 510 389 490T465 428T493 325V122Q493 84 529 84Q546 84 561 89L553 4Q527 -9 488 -9Q453 -9 425 3T381 39T365 101V105L389
109Q383 71 356 45T291 4T211 -10Q160 -10 123 5T66 51T46 125Q46 181 82 216T185 265L373 303L372 218L252 194Q218 187 201 176T183 138Q183 113 201 100T246 87Q267 87 287 92T323 108T348 138T357 184V319ZM456 565H351L276 663L201 565H96L207 736H345L456
565Z" />
<glyph unicode="&#xe3;" horiz-adv-x="574" d="M357 319Q357 362 333 386T268 410Q231 410 203 391T162 328L45 364Q62 430 119 470T274 510Q340 510 389 490T465 428T493 325V122Q493 84 529 84Q546 84 561 89L553 4Q527 -9 488 -9Q453 -9 425 3T381 39T365 101V105L389
109Q383 71 356 45T291 4T211 -10Q160 -10 123 5T66 51T46 125Q46 181 82 216T185 265L373 303L372 218L252 194Q218 187 201 176T183 138Q183 113 201 100T246 87Q267 87 287 92T323 108T348 138T357 184V319ZM467 718Q465 668 450 635T408 585T348 568Q320 568
300 577T266 598T238 619T209 629Q190 629 181 614T167 568H83Q87 643 119 680T207 718Q234 718 253 709T287 687T313 666T341 657Q361 657 370 672T383 718H467Z" />
<glyph unicode="&#xe4;" horiz-adv-x="574" d="M357 319Q357 362 333 386T268 410Q231 410 203 391T162 328L45 364Q62 430 119 470T274 510Q340 510 389 490T465 428T493 325V122Q493 84 529 84Q546 84 561 89L553 4Q527 -9 488 -9Q453 -9 425 3T381 39T365 101V105L389
109Q383 71 356 45T291 4T211 -10Q160 -10 123 5T66 51T46 125Q46 181 82 216T185 265L373 303L372 218L252 194Q218 187 201 176T183 138Q183 113 201 100T246 87Q267 87 287 92T323 108T348 138T357 184V319ZM170 705Q205 705 225 687T246 635Q246 603 226 584T170
565Q136 565 116 584T96 635Q96 668 116 686T170 705ZM380 705Q416 705 436 687T456 635Q456 603 436 584T380 565Q346 565 326 584T306 635Q306 668 326 686T380 705Z" />
<glyph unicode="&#xe5;" horiz-adv-x="574" d="M357 319Q357 362 333 386T268 410Q231 410 203 391T162 328L45 364Q62 430 119 470T274 510Q340 510 389 490T465 428T493 325V122Q493 84 529 84Q546 84 561 89L553 4Q527 -9 488 -9Q453 -9 425 3T381 39T365 101V105L389
109Q383 71 356 45T291 4T211 -10Q160 -10 123 5T66 51T46 125Q46 181 82 216T185 265L373 303L372 218L252 194Q218 187 201 176T183 138Q183 113 201 100T246 87Q267 87 287 92T323 108T348 138T357 184V319ZM274 806Q335 806 371 773T408 683Q408 627 372 594T274
560Q214 560 177 593T139 683Q139 739 176 772T274 806ZM274 742Q248 742 231 726T214 683Q214 657 231 641T274 625Q301 625 317 641T334 683Q334 709 318 725T274 742Z" />
<glyph unicode="&#xe6;" horiz-adv-x="887" d="M218 -10Q166 -10 127 5T67 51T45 127Q45 183 81 217T182 264L358 299V318Q358 362 334 386T268 410Q232 410 205 391T163 328L49 364Q55 406 85 439T162 491T268 510Q339 510 390 482T461 397H418Q438 433 467 458T535
496T617 510Q689 510 739 480T816 397T843 277Q843 260 842 244T839 207H492V207Q492 147 530 120T620 92Q661 92 685 109T724 156L834 114Q818 75 787 47T714 5T622 -10Q540 -10 483 28T402 141L434 140Q429 107 411 80T365 33T299 1T218 -10ZM250 87Q271 87 290
92T325 109T349 138T358 180V216L253 194Q216 187 201 175T185 138Q185 117 200 102T250 87ZM493 302H712Q711 335 698 359T662 396T609 409Q562 409 532 381T493 302Z" />
<glyph unicode="&#xe7;" horiz-adv-x="564" d="M299 510Q366 510 412 491T487 438T528 363L400 317Q390 362 366 385T301 408Q263 408 236 391T195 338T181 249Q181 196 195 161T237 109T302 92Q332 92 353 102T387 133T406 181L530 141Q519 96 489 62T412 9T303
-10Q226 -10 167 21T76 110T44 250Q44 332 76 390T166 479T299 510ZM230 8L271 34Q343 20 375 -12T408 -93Q408 -147 372 -181T274 -215Q239 -215 216 -207T175 -186L199 -113Q212 -121 226 -127T262 -133Q288 -133 305 -117T322 -71Q322 -47 302 -29T230 8Z" />
<glyph unicode="&#xe8;" horiz-adv-x="578" d="M304 -10Q225 -10 167 21T76 110T44 250Q44 332 76 390T165 479T297 510Q373 510 426 480T507 397T535 277Q535 257 534 239T531 207H132V302H471L405 278Q405 341 377 375T296 409Q258 409 231 391T189 338T175
248Q175 195 190 161T234 109T303 92Q347 92 374 109T416 156L525 114Q509 75 477 47T400 5T304 -10ZM281 742L351 572H249L149 742H281Z" />
<glyph unicode="&#xe9;" horiz-adv-x="578" d="M304 -10Q225 -10 167 21T76 110T44 250Q44 332 76 390T165 479T297 510Q373 510 426 480T507 397T535 277Q535 257 534 239T531 207H132V302H471L405 278Q405 341 377 375T296 409Q258 409 231 391T189 338T175
248Q175 195 190 161T234 109T303 92Q347 92 374 109T416 156L525 114Q509 75 477 47T400 5T304 -10ZM296 742H428L328 572H227L296 742Z" />
<glyph unicode="&#xea;" horiz-adv-x="578" d="M304 -10Q225 -10 167 21T76 110T44 250Q44 332 76 390T165 479T297 510Q373 510 426 480T507 397T535 277Q535 257 534 239T531 207H132V302H471L405 278Q405 341 377 375T296 409Q258 409 231 391T189 338T175
248Q175 195 190 161T234 109T303 92Q347 92 374 109T416 156L525 114Q509 75 477 47T400 5T304 -10ZM473 565H368L293 663L218 565H113L224 736H362L473 565Z" />
<glyph unicode="&#xeb;" horiz-adv-x="578" d="M304 -10Q225 -10 167 21T76 110T44 250Q44 332 76 390T165 479T297 510Q373 510 426 480T507 397T535 277Q535 257 534 239T531 207H132V302H471L405 278Q405 341 377 375T296 409Q258 409 231 391T189 338T175
248Q175 195 190 161T234 109T303 92Q347 92 374 109T416 156L525 114Q509 75 477 47T400 5T304 -10ZM187 705Q222 705 242 687T263 635Q263 603 243 584T187 565Q153 565 133 584T113 635Q113 668 133 686T187 705ZM397 705Q433 705 453 687T473 635Q473 603 453
584T397 565Q363 565 343 584T323 635Q323 668 343 686T397 705Z" />
<glyph unicode="&#xec;" horiz-adv-x="282" d="M209 500V0H72V500H209ZM129 742L199 572H97L-3 742H129Z" />
<glyph unicode="&#xed;" horiz-adv-x="282" d="M209 500V0H72V500H209ZM144 742H276L176 572H75L144 742Z" />
<glyph unicode="&#xee;" horiz-adv-x="282" d="M209 500V0H72V500H209ZM321 565H216L141 663L66 565H-39L72 736H210L321 565Z" />
<glyph unicode="&#xef;" horiz-adv-x="282" d="M231 564Q197 564 178 583T159 635Q159 669 178 687T231 706Q266 706 284 688T303 635Q303 602 285 583T231 564ZM51 564Q17 564 -2 583T-21 635Q-21 669 -2 687T51 706Q85 706 104 688T123 635Q123 602 104 583T51
564ZM209 500V0H72V500H209Z" />
<glyph unicode="&#xf0;" horiz-adv-x="610" d="M298 -10Q221 -10 165 19T79 106T49 241Q49 320 79 376T163 461T285 491Q352 491 392 464T453 391L445 385Q436 443 416 490T365 577T289 653T186 725H326Q375 698 417 658T490 564T538 444T556 298Q556 202 525
133T437 27T298 -10ZM304 92Q344 92 371 111T412 163T426 241Q426 292 412 326T372 377T307 395Q269 395 243 378T202 326T188 241Q188 168 218 130T304 92ZM197 537L184 598L370 635L400 584L197 537ZM422 588L394 639L547 675L562 616L422 588Z" />
<glyph unicode="&#xf1;" horiz-adv-x="619" d="M72 0V500H195L203 350L186 366Q198 415 224 446T287 494T370 510Q422 510 462 490T526 430T550 328V0H413V289Q413 353 388 377T323 402Q295 402 269 389T226 345T209 265V0H72ZM506 718Q504 668 489 635T447 585T387
568Q359 568 339 577T305 598T277 619T248 629Q229 629 220 614T206 568H122Q126 643 158 680T246 718Q273 718 292 709T326 687T352 666T380 657Q400 657 409 672T422 718H506Z" />
<glyph unicode="&#xf2;" horiz-adv-x="599" d="M300 510Q376 510 433 479T523 390T556 250Q556 169 524 111T434 21T300 -10Q225 -10 167 21T77 110T44 250Q44 332 76 390T167 479T300 510ZM300 408Q262 408 236 391T195 338T181 250Q181 197 195 162T235 110T300
92Q337 92 363 109T404 162T418 250Q418 303 404 338T364 390T300 408ZM288 742L358 572H256L156 742H288Z" />
<glyph unicode="&#xf3;" horiz-adv-x="599" d="M300 510Q376 510 433 479T523 390T556 250Q556 169 524 111T434 21T300 -10Q225 -10 167 21T77 110T44 250Q44 332 76 390T167 479T300 510ZM300 408Q262 408 236 391T195 338T181 250Q181 197 195 162T235 110T300
92Q337 92 363 109T404 162T418 250Q418 303 404 338T364 390T300 408ZM303 742H435L335 572H234L303 742Z" />
<glyph unicode="&#xf4;" horiz-adv-x="599" d="M300 510Q376 510 433 479T523 390T556 250Q556 169 524 111T434 21T300 -10Q225 -10 167 21T77 110T44 250Q44 332 76 390T167 479T300 510ZM300 408Q262 408 236 391T195 338T181 250Q181 197 195 162T235 110T300
92Q337 92 363 109T404 162T418 250Q418 303 404 338T364 390T300 408ZM480 565H375L300 663L225 565H120L231 736H369L480 565Z" />
<glyph unicode="&#xf5;" horiz-adv-x="599" d="M300 510Q376 510 433 479T523 390T556 250Q556 169 524 111T434 21T300 -10Q225 -10 167 21T77 110T44 250Q44 332 76 390T167 479T300 510ZM300 408Q262 408 236 391T195 338T181 250Q181 197 195 162T235 110T300
92Q337 92 363 109T404 162T418 250Q418 303 404 338T364 390T300 408ZM491 718Q489 668 474 635T432 585T372 568Q344 568 324 577T290 598T262 619T233 629Q214 629 205 614T191 568H107Q111 643 143 680T231 718Q258 718 277 709T311 687T337 666T365 657Q385
657 394 672T407 718H491Z" />
<glyph unicode="&#xf6;" horiz-adv-x="599" d="M300 510Q376 510 433 479T523 390T556 250Q556 169 524 111T434 21T300 -10Q225 -10 167 21T77 110T44 250Q44 332 76 390T167 479T300 510ZM300 408Q262 408 236 391T195 338T181 250Q181 197 195 162T235 110T300
92Q337 92 363 109T404 162T418 250Q418 303 404 338T364 390T300 408ZM194 705Q229 705 249 687T270 635Q270 603 250 584T194 565Q160 565 140 584T120 635Q120 668 140 686T194 705ZM404 705Q440 705 460 687T480 635Q480 603 460 584T404 565Q370 565 350 584T330
635Q330 668 350 686T404 705Z" />
<glyph unicode="&#xf7;" horiz-adv-x="616" d="M557 374V269H59V374H557ZM308 189Q343 189 363 169T384 113Q384 78 364 58T308 38Q273 38 252 58T231 113Q231 148 252 168T308 189ZM308 605Q343 605 363 585T384 529Q384 494 364 474T308 454Q273 454 252 474T231
529Q231 564 252 584T308 605Z" />
<glyph unicode="&#xf8;" horiz-adv-x="599" d="M300 510Q376 510 433 479T523 390T556 250Q556 169 524 111T434 21T300 -10Q225 -10 167 21T77 110T44 250Q44 332 76 390T167 479T300 510ZM300 408Q262 408 236 391T195 338T181 250Q181 197 195 162T235 110T300
92Q337 92 363 109T404 162T418 250Q418 303 404 338T364 390T300 408ZM305 -27L740 526H807L372 -27H305Z" />
<glyph unicode="&#xf9;" horiz-adv-x="618" d="M246 -10Q196 -10 156 8T93 65T69 168V500H206V201Q206 143 230 121T299 98Q320 98 340 105T375 129T400 170T409 231V500H546V0H424L419 87Q394 37 351 14T246 -10ZM293 736L363 566H261L161 736H293Z" />
<glyph unicode="&#xfa;" horiz-adv-x="618" d="M246 -10Q196 -10 156 8T93 65T69 168V500H206V201Q206 143 230 121T299 98Q320 98 340 105T375 129T400 170T409 231V500H546V0H424L419 87Q394 37 351 14T246 -10ZM308 736H440L340 566H239L308 736Z" />
<glyph unicode="&#xfb;" horiz-adv-x="618" d="M246 -10Q196 -10 156 8T93 65T69 168V500H206V201Q206 143 230 121T299 98Q320 98 340 105T375 129T400 170T409 231V500H546V0H424L419 87Q394 37 351 14T246 -10ZM485 559H380L305 657L230 559H125L236 730H374L485 559Z" />
<glyph unicode="&#xfc;" horiz-adv-x="618" d="M246 -10Q196 -10 156 8T93 65T69 168V500H206V201Q206 143 230 121T299 98Q320 98 340 105T375 129T400 170T409 231V500H546V0H424L419 87Q394 37 351 14T246 -10ZM199 699Q234 699 254 681T275 629Q275 597 255
578T199 559Q165 559 145 578T125 629Q125 662 145 680T199 699ZM409 699Q445 699 465 681T485 629Q485 597 465 578T409 559Q375 559 355 578T335 629Q335 662 355 680T409 699Z" />
<glyph unicode="&#xfd;" horiz-adv-x="546" d="M542 500L340 -31Q316 -99 287 -139T219 -197T127 -215Q88 -215 56 -206T-1 -181L28 -82Q47 -97 68 -103T116 -110Q144 -110 164 -98T199 -50L216 -7L161 123L8 500H160L255 200L281 100L312 206L403 500H542ZM286
736H418L318 566H217L286 736Z" />
<glyph unicode="&#xfe;" horiz-adv-x="627" d="M72 -210V719H209V367L196 380Q212 436 257 473T370 510Q430 510 477 479T552 390T580 249Q580 168 552 110T476 21T365 -10Q299 -10 256 27T196 120L209 141V-210H72ZM325 95Q380 95 411 134T443 250Q443 326 413
365T327 405Q292 405 266 387T224 334T209 250Q209 203 223 168T263 114T325 95Z" />
<glyph unicode="&#xff;" horiz-adv-x="546" d="M542 500L340 -31Q316 -99 287 -139T219 -197T127 -215Q88 -215 56 -206T-1 -181L28 -82Q47 -97 68 -103T116 -110Q144 -110 164 -98T199 -50L216 -7L161 123L8 500H160L255 200L281 100L312 206L403 500H542ZM177
699Q212 699 232 681T253 629Q253 597 233 578T177 559Q143 559 123 578T103 629Q103 662 123 680T177 699ZM387 699Q423 699 443 681T463 629Q463 597 443 578T387 559Q353 559 333 578T313 629Q313 662 333 680T387 699Z" />
<glyph unicode="&#x2013;" horiz-adv-x="681" d="M602 322V209H79V322H602Z" />
<glyph unicode="&#x2014;" horiz-adv-x="1009" d="M929 322V209H79V322H929Z" />
<glyph unicode="&#x2018;" horiz-adv-x="280" d="M141 388Q109 388 88 403T56 444T45 501Q45 542 61 580T107 648T173 695L233 648Q205 637 183 621T144 585T121 544L126 541Q131 544 138 546T158 549Q174 549 190 541T217 516T228 474Q228 447 216 428T184 399T141 388Z" />
<glyph unicode="&#x2019;" horiz-adv-x="280" d="M143 694Q175 694 196 679T228 638T239 581Q239 540 223 502T177 434T111 387L51 434Q79 445 101 461T140 497T163 538L158 541Q153 538 146 536T126 533Q110 533 94 541T67 566T56 608Q56 635 68 654T100 683T143 694Z" />
<glyph unicode="&#x201a;" horiz-adv-x="274" d="M394 153Q426 153 447 138T479 97T490 40Q490 -1 474 -39T428 -107T362 -154L302 -107Q330 -96 352 -80T391 -44T414 -3L409 0Q404 -3 397 -5T377 -8Q361 -8 345 0T318 25T307 67Q307 94 319 113T351 142T394 153Z" />
<glyph unicode="&#x201c;" horiz-adv-x="504" d="M141 388Q109 388 88 403T56 444T45 501Q45 542 61 580T107 648T173 695L233 648Q205 637 183 621T144 585T121 544L126 541Q131 544 138 546T158 549Q174 549 190 541T217 516T228 474Q228 447 216 428T184 399T141
388ZM365 388Q333 388 312 403T280 444T269 501Q269 542 285 580T331 648T397 695L457 648Q429 637 407 621T368 585T345 544L350 541Q355 544 362 546T382 549Q398 549 414 541T441 516T452 474Q452 447 440 428T408 399T365 388Z" />
<glyph unicode="&#x201d;" horiz-adv-x="504" d="M143 694Q175 694 196 679T228 638T239 581Q239 540 223 502T177 434T111 387L51 434Q79 445 101 461T140 497T163 538L158 541Q153 538 146 536T126 533Q110 533 94 541T67 566T56 608Q56 635 68 654T100 683T143
694ZM367 694Q399 694 420 679T452 638T463 581Q463 540 447 502T401 434T335 387L275 434Q303 445 325 461T364 497T387 538L382 541Q377 538 370 536T350 533Q334 533 318 541T291 566T280 608Q280 635 292 654T324 683T367 694Z" />
<glyph unicode="&#x201e;" horiz-adv-x="495" d="M394 153Q426 153 447 138T479 97T490 40Q490 -1 474 -39T428 -107T362 -154L302 -107Q330 -96 352 -80T391 -44T414 -3L409 0Q404 -3 397 -5T377 -8Q361 -8 345 0T318 25T307 67Q307 94 319 113T351 142T394 153ZM359
153Q391 153 412 138T444 97T455 40Q455 -1 439 -39T393 -107T327 -154L267 -107Q295 -96 317 -80T356 -44T379 -3L374 0Q369 -3 362 -5T342 -8Q326 -8 310 0T283 25T272 67Q272 94 284 113T316 142T359 153Z" />
<glyph unicode="&#x2022;" horiz-adv-x="430" d="M215 196Q150 196 111 234T72 334Q72 398 111 435T215 473Q281 473 319 436T358 334Q358 272 320 234T215 196Z" />
<glyph unicode="&#x2039;" horiz-adv-x="333" d="M292 461L168 265L292 69H166L41 265L166 461H292Z" />
<glyph unicode="&#x203a;" horiz-adv-x="333" d="M41 69L165 265L41 461H167L292 265L167 69H41Z" />
</font>
</defs>
</svg>
