<?xml version="1.0" standalone="no"?>
<!DOCTYPE svg PUBLIC "-//W3C//DTD SVG 1.1//EN" "http://www.w3.org/Graphics/SVG/1.1/DTD/svg11.dtd">
<svg xmlns="http://www.w3.org/2000/svg">
<defs >
<font id="WorkSans" horiz-adv-x="597" ><font-face
    font-family="Work Sans"
    units-per-em="1000"
    panose-1="0 0 0 0 0 0 0 0 0 0"
    ascent="930"
    descent="-243"
    alphabetic="0" />
<glyph unicode=" " horiz-adv-x="341" />
<glyph unicode="!" horiz-adv-x="272" d="M178 660V374L166 208H106L94 374V660H178ZM136 120Q165 120 183 102T201 55Q201 26 183 8T136 -10Q107 -10 89 8T71 55Q71 84 89 102T136 120Z" />
<glyph unicode="&quot;" horiz-adv-x="403" d="M339 690L313 443H251V690H339ZM170 690L144 443H82V690H170Z" />
<glyph unicode="#" horiz-adv-x="639" d="M525 660L415 0H347L457 660H525ZM575 246V185H20V246H575ZM291 660L181 0H113L223 660H291ZM619 476V415H64V476H619Z" />
<glyph unicode="$" horiz-adv-x="622" d="M317 1Q248 1 195 20T104 71T42 143L110 198Q129 162 158 134T228 90T322 74Q396 74 439 101T483 180Q483 211 463 235T386 273L236 307Q176 321 140 344T88 400T72 471Q72 523 100 566T182 635T311 661Q395 661 456 627T558
525L493 475Q458 537 413 563T303 589Q251 589 218 575T169 536T153 482Q153 459 162 440T194 407T260 382L399 351Q491 331 527 290T564 187Q564 132 534 90T448 25T317 1ZM279 -100V760H348V-100H279Z" />
<glyph unicode="%" horiz-adv-x="856" d="M180 0L600 660H676L256 0H180ZM199 670Q248 670 283 648T338 584T358 488Q358 433 339 392T284 329T199 306Q151 306 115 328T60 392T40 488Q40 543 59 584T115 647T199 670ZM199 607Q171 607 151 593T121 553T111 488Q111
451 121 424T151 383T199 369Q228 369 247 383T277 424T287 488Q287 526 277 552T248 593T199 607ZM657 354Q706 354 741 332T796 268T816 172Q816 117 797 76T742 13T657 -10Q609 -10 573 12T518 76T498 172Q498 227 517 268T573 331T657 354ZM657 291Q629 291
609 277T579 237T569 172Q569 135 579 108T609 67T657 53Q686 53 705 67T735 108T745 172Q745 210 735 236T706 277T657 291Z" />
<glyph unicode="&amp;" horiz-adv-x="623" d="M258 -10Q192 -10 145 13T73 76T48 168Q48 200 56 228T84 283T135 332T216 375L258 396Q296 417 321 435T358 476T371 528Q371 563 350 582T291 602Q248 602 228 579T207 524Q207 505 212 488T233 444T283 375T372
262Q429 192 466 150T529 86T577 57T627 50L607 -10Q578 -10 553 -3T497 27T424 96T318 219Q264 286 228 332T171 410T141 468T132 523Q132 559 149 593T203 648T296 670Q339 670 371 654T421 608T440 537Q440 502 429 471T386 409T292 345L258 332Q206 308 177
286T136 237T124 175Q124 138 143 111T194 70T266 55Q321 55 359 75T429 132L442 144Q468 185 482 237T492 353L560 347Q564 283 547 221T491 109L476 88Q438 43 384 17T258 -10Z" />
<glyph unicode="&apos;" horiz-adv-x="234" d="M170 690L144 443H82V690H170Z" />
<glyph unicode="(" horiz-adv-x="350" d="M275 751L321 705Q255 645 216 579T160 439T143 281Q143 198 160 124T216 -16T321 -143L275 -189Q169 -97 115 21T61 281Q61 422 115 541T275 751Z" />
<glyph unicode=")" horiz-adv-x="350" d="M75 -189L29 -143Q95 -83 134 -17T190 123T207 281Q207 364 190 438T134 578T29 705L75 751Q181 659 235 541T289 281Q289 140 235 21T75 -189Z" />
<glyph unicode="*" horiz-adv-x="572" d="M301 506L380 422L450 324L398 286L326 383L271 484L286 495L301 506ZM271 506L286 495L301 484L246 383L174 286L122 324L192 422L271 506ZM72 598L188 562L292 513L286 495L280 477L167 499L53 537L72 598ZM319 730V609L305
495H286H267L253 609V730H319ZM500 598L519 537L405 499L292 477L286 495L280 513L384 562L500 598Z" />
<glyph unicode="+" horiz-adv-x="604" d="M340 564V68H265V564H340ZM545 354V279H59V354H545Z" />
<glyph unicode="," horiz-adv-x="266" d="M133 120Q157 120 173 108T199 74T208 23Q208 -10 197 -42T161 -101T99 -146L57 -107Q84 -98 104 -82T138 -46T155 -5L151 -3Q147 -6 141 -8T123 -10Q111 -10 99 -3T77 17T68 53Q68 71 77 86T100 111T133 120Z" />
<glyph unicode="-" horiz-adv-x="510" d="M420 303V220H90V303H420Z" />
<glyph unicode="." horiz-adv-x="266" d="M133 120Q162 120 180 102T198 55Q198 26 180 8T133 -10Q104 -10 86 8T68 55Q68 84 86 102T133 120Z" />
<glyph unicode="/" horiz-adv-x="437" d="M409 730L103 -70H28L334 730H409Z" />
<glyph unicode="0" horiz-adv-x="622" d="M311 -10Q199 -10 132 77T65 330Q65 496 132 583T311 670Q424 670 490 583T557 330Q557 164 491 77T311 -10ZM311 62Q364 62 400 92T455 183T474 330Q474 417 456 477T401 567T311 598Q258 598 222 568T167 477T148 330Q148
243 166 183T221 93T311 62Z" />
<glyph unicode="1" horiz-adv-x="390" d="M208 0V484Q208 501 208 520T210 561Q176 528 131 504T39 468L18 541Q36 543 63 554T121 583T178 621T218 660H288V0H208Z" />
<glyph unicode="2" horiz-adv-x="583" d="M74 0V65Q173 138 239 193T346 293T403 378T420 463Q420 522 383 558T280 595Q212 595 171 551T123 432L53 474Q62 532 90 576T167 645T283 670Q334 670 374 655T444 613T488 547T504 463Q504 401 474 342T375 217T188
73V72Q199 73 218 73T257 74T287 75H518V0H74Z" />
<glyph unicode="3" horiz-adv-x="583" d="M290 -10Q202 -10 135 31T43 146L123 187Q135 150 156 123T211 80T298 65Q342 65 372 81T418 124T434 188Q434 224 421 248T378 283T302 295Q291 295 278 295T251 292V372Q260 371 268 371T284 371Q357 371 388 399T419
489Q419 541 387 568T296 595Q233 595 200 568T148 493L72 529Q88 571 120 603T197 653T298 671Q367 671 412 648T479 585T502 499Q502 463 492 435T465 385T425 352T378 335V333Q411 332 436 320T480 288T507 243T517 189Q517 131 489 86T409 16T290 -10Z" />
<glyph unicode="4" horiz-adv-x="611" d="M366 0V173H44V232Q44 232 44 232T44 232L345 660H446V242H563V173H446V0H366ZM129 242H366V489Q366 515 367 542T370 595H368Q356 570 337 539T302 485L129 242Q129 242 129 242T129 242Z" />
<glyph unicode="5" horiz-adv-x="582" d="M287 -10Q199 -10 146 30T63 141L141 182Q157 130 190 98T289 65Q335 65 367 82T418 130T436 206Q436 253 420 284T372 332T296 348Q264 348 237 342T187 321T149 284L79 297L118 660H489V585H186L160 377L158 368H160Q184
393 221 408T311 423Q374 423 420 397T493 322T519 210Q519 159 502 118T454 49T381 5T287 -10Z" />
<glyph unicode="6" horiz-adv-x="608" d="M323 670Q376 670 415 656T484 611T533 531L459 496Q444 542 411 568T318 595Q275 595 242 574T186 514T152 425T140 315Q140 313 140 309T140 297H144Q155 340 184 366T251 405T325 418Q392 418 442 392T519 318T547
204Q547 139 519 91T441 16T320 -10Q237 -10 180 34T94 154T65 330Q65 441 99 516T191 631T323 670ZM319 341Q276 341 244 324T193 276T175 205Q175 167 194 136T245 86T319 67Q387 67 425 103T463 205Q463 247 446 277T397 324T319 341Z" />
<glyph unicode="7" horiz-adv-x="561" d="M40 660H526V585Q443 497 391 405T314 212T290 0H208Q208 111 235 217T319 422T458 605L471 585H40V660Z" />
<glyph unicode="8" horiz-adv-x="616" d="M308 669Q372 669 419 648T492 589T518 496Q518 445 494 407T425 348V347Q481 326 514 283T548 178Q548 120 518 78T435 13T308 -10Q236 -10 182 13T98 78T68 178Q68 239 101 282T192 347V348Q149 367 124 405T98 496Q98
550 124 588T197 648T308 669ZM308 594Q250 594 216 566T181 488Q181 439 216 411T308 383Q365 383 400 411T435 488Q435 538 401 566T308 594ZM308 65Q357 65 392 79T446 121T465 186Q465 224 446 251T391 293T308 308Q261 308 226 294T171 252T151 186Q151 149
170 122T224 80T308 65Z" />
<glyph unicode="9" horiz-adv-x="617" d="M297 670Q380 670 437 627T523 507T552 330Q552 219 523 144T438 29T298 -10Q216 -10 157 28T69 139L148 181Q164 129 200 97T301 65Q353 65 387 85T442 144T470 237T479 357Q479 359 479 361T479 366H475Q463 321 433
294T366 254T291 242Q226 242 176 267T98 339T70 448Q70 516 97 565T175 642T297 670ZM298 593Q228 593 191 555T154 447Q154 388 193 354T298 319Q341 319 373 336T424 384T442 455Q442 497 424 528T374 576T298 593Z" />
<glyph unicode=":" horiz-adv-x="296" d="M148 510Q177 510 195 492T213 445Q213 416 195 398T148 380Q119 380 101 398T83 445Q83 474 101 492T148 510ZM148 120Q177 120 195 102T213 55Q213 26 195 8T148 -10Q119 -10 101 8T83 55Q83 84 101 102T148 120Z" />
<glyph unicode=";" horiz-adv-x="296" d="M147 120Q171 120 187 108T213 74T222 23Q222 -10 211 -42T175 -101T113 -146L71 -107Q98 -98 118 -82T152 -46T169 -5L165 -3Q161 -6 155 -8T137 -10Q125 -10 113 -3T91 17T82 53Q82 71 91 86T114 111T147 120ZM148 510Q177
510 195 492T213 445Q213 416 195 398T148 380Q119 380 101 398T83 445Q83 474 101 492T148 510Z" />
<glyph unicode="&lt;" horiz-adv-x="604" d="M547 28L71 253V346L547 571V489L135 301L547 112V28Z" />
<glyph unicode="=" horiz-adv-x="604" d="M540 441V366H64V441H540ZM540 241V166H64V241H540Z" />
<glyph unicode="&gt;" horiz-adv-x="604" d="M57 571L533 346V253L57 28V110L469 298L57 487V571Z" />
<glyph unicode="?" horiz-adv-x="542" d="M273 670Q337 670 386 650T464 591T492 500Q492 442 467 403T399 342T304 315V208H221V358Q288 368 329 384T389 426T408 490Q408 537 373 566T267 595Q201 595 160 559T110 459L39 500Q50 551 81 589T161 649T273 670ZM261
120Q290 120 308 102T326 55Q326 26 308 8T261 -10Q232 -10 214 8T196 55Q196 84 214 102T261 120Z" />
<glyph unicode="@" horiz-adv-x="958" d="M484 -195Q390 -195 313 -165T181 -80T96 52T66 223Q66 320 98 400T190 538T329 628T505 660Q599 660 672 630T795 545T872 421T898 273Q898 208 882 156T836 68T771 12T695 -8Q641 -8 616 20T594 91Q572 49 528 24T437
-1Q385 -1 346 24T284 93T262 196Q262 252 279 300T326 385T399 442T490 463Q529 463 560 450T612 412T641 353L665 454H736L660 128Q658 118 657 110T655 93Q655 65 669 57T702 48Q738 48 769 73T819 148T839 273Q839 343 816 403T750 507T645 576T508 601Q425
601 357 575T238 499T161 379T133 223Q133 139 159 73T234 -40T346 -111T484 -136Q569 -136 618 -115T700 -68L735 -117Q708 -138 675 -155T595 -184T484 -195ZM460 60Q502 60 537 87T592 162T613 269Q613 309 599 338T558 384T495 401Q459 401 430 386T379 342T345
277T333 197Q333 153 348 123T391 76T460 60Z" />
<glyph unicode="A" horiz-adv-x="660" d="M26 0L283 660H378L634 0H549L361 492L330 584H328L299 495L110 0H26ZM152 183V258H505V183H152Z" />
<glyph unicode="B" horiz-adv-x="653" d="M108 0V660H343Q460 660 514 611T568 478Q568 428 539 388T457 336V335Q516 324 550 282T585 185Q585 101 522 51T342 0H108ZM188 75H361Q432 75 466 104T501 185Q501 238 467 266T361 295H188V75ZM188 370H344Q484 370
484 478Q484 585 344 585H188V370Z" />
<glyph unicode="C" horiz-adv-x="686" d="M640 169Q619 113 580 73T489 11T374 -10Q280 -10 212 31T106 149T68 330Q68 435 105 511T211 628T372 670Q436 670 486 653T571 601T628 516L549 479Q527 536 486 565T378 595Q311 595 260 564T181 473T152 330Q152 247
179 188T256 97T374 65Q440 65 489 98T560 199L640 169Z" />
<glyph unicode="D" horiz-adv-x="721" d="M321 660Q476 660 564 575T653 330Q653 171 565 86T321 0H108V660H321ZM329 75Q442 75 505 142T569 330Q569 450 506 517T329 585H188V75H329Z" />
<glyph unicode="E" horiz-adv-x="638" d="M108 0V660H571V585H188V372H486V297H188V75H586V0H108Z" />
<glyph unicode="F" horiz-adv-x="610" d="M570 585H188V372H486V297H188V0H108V660H570V585Z" />
<glyph unicode="G" horiz-adv-x="724" d="M374 -10Q280 -10 212 31T106 149T68 330Q68 435 107 511T218 628T381 670Q479 670 540 633T640 519L567 479Q545 536 498 565T381 595Q314 595 263 564T182 473T152 330Q152 247 177 188T253 97T377 65Q418 65 453 75T515
107T557 160T572 235V258H362V333H645V0H582L578 123L595 120Q569 58 513 24T374 -10Z" />
<glyph unicode="H" horiz-adv-x="734" d="M626 660V0H546V660H626ZM188 660V0H108V660H188ZM583 372V297H150V372H583Z" />
<glyph unicode="I" horiz-adv-x="296" d="M188 660V0H108V660H188Z" />
<glyph unicode="J" horiz-adv-x="566" d="M465 660V226Q465 115 406 53T241 -10Q167 -10 119 18T53 97T47 218L121 233Q110 148 136 107T238 65Q323 65 354 111T385 246V660H465Z" />
<glyph unicode="K" horiz-adv-x="656" d="M625 660L337 365L325 352L148 171V279L520 660H625ZM188 660V0H108V660H188ZM345 416L628 0H532L279 371L345 416Z" />
<glyph unicode="L" horiz-adv-x="598" d="M188 75H566V0H108V660H188V75Z" />
<glyph unicode="M" horiz-adv-x="854" d="M746 660V0H670V415L679 589H678L461 0H393L176 589H175L184 415V0H108V660H231L376 259L426 94H428L479 258L623 660H746Z" />
<glyph unicode="N" horiz-adv-x="734" d="M626 660V0H527L251 442L181 566H180L184 466V0H108V660H207L482 220L553 93H554L550 194V660H626Z" />
<glyph unicode="O" horiz-adv-x="748" d="M374 670Q468 670 536 629T642 511T680 330Q680 225 643 149T537 32T374 -10Q280 -10 212 31T106 149T68 330Q68 435 105 511T211 628T374 670ZM374 595Q306 595 256 564T179 473T152 330Q152 247 179 188T256 97T374
65Q443 65 492 96T569 187T596 330Q596 413 569 472T493 563T374 595Z" />
<glyph unicode="P" horiz-adv-x="610" d="M341 660Q408 660 457 636T535 566T563 459Q563 397 535 352T458 283T341 258H188V0H108V660H341ZM329 333Q407 333 443 365T479 459Q479 521 443 553T329 585H188V333H329Z" />
<glyph unicode="Q" horiz-adv-x="748" d="M534 -195Q483 -195 438 -176T365 -111T336 15Q336 24 336 34T338 55L409 53Q408 43 408 35T407 18Q407 -39 425 -67T472 -104T536 -114Q573 -114 604 -104T654 -77L680 -151Q656 -172 614 -183T534 -195ZM374 670Q468
670 536 629T642 511T680 330Q680 225 643 149T537 32T374 -10Q280 -10 212 31T106 149T68 330Q68 435 105 511T211 628T374 670ZM374 595Q306 595 256 564T179 473T152 330Q152 247 179 188T256 97T374 65Q443 65 492 96T569 187T596 330Q596 413 569 472T493
563T374 595Z" />
<glyph unicode="R" horiz-adv-x="665" d="M358 660Q459 660 520 608T581 467Q581 378 520 329T357 279L350 274H188V0H108V660H358ZM357 349Q428 349 462 378T497 467Q497 526 463 555T357 585H188V349H357ZM403 333L621 0H526L336 289L403 333Z" />
<glyph unicode="S" horiz-adv-x="641" d="M320 670Q407 670 470 635T575 530L508 478Q471 542 425 568T312 595Q259 595 225 580T174 541T158 485Q158 450 180 424T268 382L411 350Q506 329 543 287T581 181Q581 125 550 82T461 14T327 -10Q255 -10 201 9T107
62T43 136L113 193Q132 155 162 126T234 81T332 65Q383 65 420 77T478 114T498 174Q498 206 477 231T398 270L243 305Q182 319 145 343T91 401T74 474Q74 527 103 571T188 643T320 670Z" />
<glyph unicode="T" horiz-adv-x="604" d="M572 660V585H342V0H262V585H32V660H572Z" />
<glyph unicode="U" horiz-adv-x="708" d="M613 660V246Q613 119 546 55T354 -10Q230 -10 163 54T95 246V660H175V266Q175 163 218 114T354 65Q446 65 489 114T533 266V660H613Z" />
<glyph unicode="V" horiz-adv-x="648" d="M620 660L370 0H279L28 660H114L282 204L324 73L366 203L534 660H620Z" />
<glyph unicode="W" horiz-adv-x="961" d="M231 0L36 660H119L282 73L437 660H528L683 71L846 660H925L731 0H632L515 428L481 577H480L446 428L330 0H231Z" />
<glyph unicode="X" horiz-adv-x="601" d="M569 0H477L298 272L118 0H25L256 336L45 660H139L306 403L475 660H562L348 340L569 0Z" />
<glyph unicode="Y" horiz-adv-x="572" d="M562 660L326 258V0H246V258L10 660H105L233 434L286 340L339 434L467 660H562Z" />
<glyph unicode="Z" horiz-adv-x="630" d="M128 46L114 75H575V0H56V71L490 614L504 585H66V660H562V589L128 46Z" />
<glyph unicode="[" horiz-adv-x="348" d="M315 660H162V-98H315V-168H87V730H315V660Z" />
<glyph unicode="\" horiz-adv-x="437" d="M28 730H103L409 -70H334L28 730Z" />
<glyph unicode="]" horiz-adv-x="348" d="M33 -98H186V660H33V730H261V-168H33V-98Z" />
<glyph unicode="^" horiz-adv-x="560" d="M27 355L242 730H318L533 355H452L280 662L108 355H27Z" />
<glyph unicode="_" horiz-adv-x="539" d="M539 -97V-172H0V-97H539Z" />
<glyph unicode="`" horiz-adv-x="500" d="M256 750L332 583H267L169 750H256Z" />
<glyph unicode="a" horiz-adv-x="566" d="M385 323Q385 379 355 409T270 440Q218 440 182 418T129 345L64 385Q84 441 138 475T272 510Q326 510 370 492T439 436T465 339V97Q465 61 503 61Q522 61 540 66L536 3Q516 -7 484 -7Q455 -7 432 4T396 37T383 94V104L403
101Q391 62 362 38T297 2T226 -10Q182 -10 144 5T84 50T61 126Q61 182 98 218T203 268L401 307V241L240 208Q191 198 167 180T143 130Q143 99 167 80T237 60Q266 60 292 67T340 90T373 129T385 185V323Z" />
<glyph unicode="b" horiz-adv-x="627" d="M338 -10Q296 -10 260 5T198 47T159 108L170 122L163 0H93V730H173V387L163 402Q183 449 230 479T339 510Q401 510 453 479T536 390T567 250Q567 169 536 111T452 21T338 -10ZM330 60Q404 60 445 112T487 250Q487 336
446 388T331 440Q284 440 249 416T193 349T173 248Q173 191 192 149T247 83T330 60Z" />
<glyph unicode="c" horiz-adv-x="560" d="M300 510Q352 510 391 494T460 448T507 377L431 341Q415 389 383 414T298 440Q248 440 212 418T157 353T138 250Q138 191 157 148T212 83T298 60Q337 60 365 72T412 107T438 163L512 137Q495 91 466 58T395 8T300 -10Q230
-10 175 21T89 110T58 250Q58 331 89 389T175 479T300 510Z" />
<glyph unicode="d" horiz-adv-x="627" d="M288 -10Q226 -10 174 21T91 110T60 250Q60 333 93 391T180 479T296 510Q358 510 403 478T464 393L454 386V730H534V0H464L457 121L468 127Q461 83 435 53T370 6T288 -10ZM296 60Q344 60 379 84T434 152T454 257Q454 314
435 355T381 418T300 440Q224 440 182 388T140 250Q140 164 181 112T296 60Z" />
<glyph unicode="e" horiz-adv-x="577" d="M302 -10Q231 -10 176 21T89 110T58 250Q58 331 89 389T174 479T297 510Q367 510 416 480T492 399T518 283Q518 266 517 252T514 227H110V298H479L438 290Q438 362 399 401T295 440Q246 440 211 418T156 353T136 250Q136
191 156 148T212 83T300 60Q355 60 389 81T445 138L508 101Q489 67 460 42T391 4T302 -10Z" />
<glyph unicode="f" horiz-adv-x="393" d="M296 735Q322 735 345 729T381 712L360 647Q348 655 334 658T303 662Q260 662 236 642T212 576V500V474V0H132V584Q132 617 142 645T172 693T224 724T296 735ZM379 500V431H32V500H379Z" />
<glyph unicode="g" horiz-adv-x="532" d="M514 592L532 521Q531 521 529 521T525 521Q476 521 450 502T423 439L374 464Q374 503 392 532T441 576T509 592Q510 592 511 592T514 592ZM362 64Q433 64 473 32T513 -55Q513 -104 481 -140T394 -195T271 -215Q153 -215
95 -175T36 -79Q36 -39 62 -8T152 28L145 13Q111 22 88 43T64 106Q64 147 94 176T185 213L238 186H228Q179 181 159 162T138 119Q138 91 158 78T216 64H362ZM270 -148Q328 -148 365 -136T421 -105T439 -64Q439 -37 418 -21T340 -5H186Q154 -5 132 -21T110 -67Q110
-104 152 -126T270 -148ZM263 510Q323 510 369 489T442 429T468 341Q468 292 442 254T370 194T263 172Q164 172 111 219T58 341Q58 391 84 429T157 488T263 510ZM263 445Q211 445 176 417T141 341Q141 295 176 266T263 237Q315 237 350 266T385 341Q385 388 350
416T263 445Z" />
<glyph unicode="h" horiz-adv-x="619" d="M93 0V730H173V425Q199 470 242 490T336 510Q390 510 434 490T504 427T531 320V0H451V292Q451 375 416 407T328 440Q292 440 256 423T197 368T173 265V0H93Z" />
<glyph unicode="i" horiz-adv-x="266" d="M133 596Q106 596 90 612T73 656Q73 683 89 699T133 716Q160 716 176 700T193 656Q193 629 177 613T133 596ZM173 500V0H93V500H173Z" />
<glyph unicode="j" horiz-adv-x="266" d="M133 596Q106 596 90 612T73 656Q73 683 89 699T133 716Q160 716 176 700T193 656Q193 629 177 613T133 596ZM173 500V-51Q173 -113 149 -149T90 -200T21 -215Q-10 -215 -36 -206T-79 -182L-62 -106Q-48 -119 -27 -128T20
-137Q52 -137 72 -116T93 -43V500H173Z" />
<glyph unicode="k" horiz-adv-x="567" d="M532 500L316 284L297 265L133 101V201L431 500H532ZM173 730V0H93V730H173ZM323 325L544 0H447L256 280L323 325Z" />
<glyph unicode="l" horiz-adv-x="306" d="M169 730V127Q169 89 183 75T228 60Q248 60 261 63T296 74L283 4Q267 -3 248 -6T209 -10Q148 -10 119 23T89 124V730H169Z" />
<glyph unicode="m" horiz-adv-x="953" d="M93 0V500H163L168 422Q195 468 238 489T328 510Q381 510 428 486T500 412Q516 446 545 467T608 499T674 510Q722 510 765 490T837 428T865 320V0H785V312Q785 380 751 410T667 440Q628 440 594 421T540 365T519 274V0H439V312Q439
380 405 410T321 440Q288 440 254 423T196 367T173 267V0H93Z" />
<glyph unicode="n" horiz-adv-x="619" d="M93 0V500H163L170 388L157 399Q173 439 200 463T262 499T336 510Q390 510 434 490T504 427T531 320V0H451V292Q451 375 416 407T328 440Q292 440 256 423T197 368T173 266V0H93Z" />
<glyph unicode="o" horiz-adv-x="600" d="M300 510Q371 510 425 479T511 390T542 250Q542 169 511 111T426 21T300 -10Q230 -10 175 21T89 110T58 250Q58 331 89 389T175 479T300 510ZM300 441Q249 441 213 418T158 353T138 250Q138 191 157 148T213 82T300 59Q351
59 387 82T442 148T462 250Q462 310 443 352T387 418T300 441Z" />
<glyph unicode="p" horiz-adv-x="627" d="M93 -210V500H163L170 378L159 392Q172 427 198 453T261 495T341 510Q402 510 453 479T536 390T567 250Q567 169 536 111T452 21T338 -10Q276 -10 230 20T163 98L173 113V-210H93ZM330 60Q404 60 445 112T487 250Q487
336 447 388T333 440Q285 440 249 417T193 351T173 250Q173 193 192 150T247 84T330 60Z" />
<glyph unicode="q" horiz-adv-x="627" d="M454 -210V137L468 127Q461 83 435 53T370 6T288 -10Q226 -10 174 21T91 110T60 250Q60 333 93 391T180 479T296 510Q338 510 374 495T435 451T469 383H457L464 500H534V-210H454ZM296 60Q343 60 378 83T434 150T454 253Q454
313 435 354T380 418T298 440Q224 440 182 388T140 250Q140 164 181 112T296 60Z" />
<glyph unicode="r" horiz-adv-x="408" d="M93 0V500H158L169 418Q190 464 230 487T329 510Q342 510 357 508T384 500L370 427Q359 431 346 433T309 435Q278 435 247 417T194 363T173 270V0H93Z" />
<glyph unicode="s" horiz-adv-x="527" d="M273 -10Q200 -10 139 21T44 109L112 158Q134 112 176 86T279 60Q332 60 362 80T392 134Q392 155 379 172T327 198L207 223Q134 238 103 273T71 360Q71 401 94 435T161 489T264 510Q338 510 389 481T465 399L398 355Q381
399 343 419T264 440Q228 440 203 430T164 403T150 363Q150 341 165 323T221 296L346 270Q416 256 444 224T472 146Q472 99 447 64T377 9T273 -10Z" />
<glyph unicode="t" horiz-adv-x="419" d="M211 642V138Q211 101 232 83T286 65Q315 65 336 75T374 102L402 35Q379 14 348 2T275 -10Q237 -10 204 3T152 46T131 124V620L211 642ZM393 500V431H31V500H393Z" />
<glyph unicode="u" horiz-adv-x="617" d="M274 -10Q226 -10 184 8T115 66T88 172V500H168V193Q168 117 201 89T294 60Q322 60 349 69T397 99T431 152T444 228V500H524V0H454L449 76Q423 31 379 11T274 -10Z" />
<glyph unicode="v" horiz-adv-x="520" d="M424 500H508L300 0H220L12 500H103L261 81L424 500Z" />
<glyph unicode="w" horiz-adv-x="836" d="M720 500H809L635 0H555L414 398L281 0H201L27 500H116L242 93L378 500H458L594 93L720 500Z" />
<glyph unicode="x" horiz-adv-x="533" d="M141 500L290 291L295 284L500 0H402L247 217L238 228L41 500H141ZM497 500L299 233H294L122 0H29L247 287H253L403 500H497Z" />
<glyph unicode="y" horiz-adv-x="516" d="M504 500L269 -84Q250 -133 228 -161T178 -202T114 -215Q80 -215 52 -206T1 -180L23 -110Q43 -128 65 -136T110 -145Q136 -145 159 -129T201 -64L227 1L177 120L18 500H109L234 174L265 85L301 184L418 500H504Z" />
<glyph unicode="z" horiz-adv-x="534" d="M57 0V61L319 368L382 433L293 431H60V500H471V439L209 132L147 67L244 69H479V0H57Z" />
<glyph unicode="{" horiz-adv-x="351" d="M304 -189Q245 -189 209 -175T157 -132T140 -65V142Q140 198 115 222T28 246V316Q89 316 114 340T140 420V627Q140 667 156 694T209 736T304 751V686Q255 686 235 673T215 633V413Q215 359 186 326T101 281Q157 269 186
236T215 149V-71Q215 -98 235 -111T304 -124V-189Z" />
<glyph unicode="|" horiz-adv-x="243" d="M156 730V-168H87V730H156Z" />
<glyph unicode="}" horiz-adv-x="351" d="M47 751Q106 751 142 737T194 694T211 627V420Q211 364 236 340T323 316V246Q262 246 237 222T211 142V-65Q211 -105 195 -132T142 -174T47 -189V-124Q96 -124 116 -111T136 -71V149Q136 203 165 236T250 281Q194 293
165 326T136 413V633Q136 660 116 673T47 686V751Z" />
<glyph unicode="~" horiz-adv-x="540" d="M497 384Q491 311 459 273T367 235Q333 235 308 246T264 272T225 298T181 309Q155 309 140 289T119 235H43Q49 309 81 346T174 384Q207 384 232 373T277 347T316 321T359 310Q385 310 400 330T421 384H497Z" />
<glyph unicode="&#xa0;" horiz-adv-x="341" />
<glyph unicode="&#xa1;" horiz-adv-x="264" d="M90 -160V126L102 292H162L174 126V-160H90ZM132 380Q103 380 85 398T67 445Q67 474 85 492T132 510Q161 510 179 492T197 445Q197 416 179 398T132 380Z" />
<glyph unicode="&#xa2;" horiz-adv-x="567" d="M310 -10Q239 -10 184 21T98 110T66 250Q66 331 97 389T184 479T310 510Q362 510 401 494T469 448T515 377L439 341Q423 392 390 418T308 445Q236 445 189 394T141 250Q141 188 163 145T222 78T308 55Q345 55 372
67T419 103T448 163L520 138Q504 92 475 59T405 8T310 -10ZM270 -100V600H337V-100H270Z" />
<glyph unicode="&#xa3;" horiz-adv-x="620" d="M80 278V343H467V278H80ZM154 -10Q103 -10 74 14T44 76Q44 100 58 120T99 152T166 165Q206 165 235 154T289 127T335 93T381 65T436 54Q479 54 498 77T518 153H583Q583 100 567 64T521 9T447 -10Q410 -10 380 1T322
30T269 64T217 93T163 105Q139 105 128 98T117 76Q117 60 130 52T164 44Q205 44 224 61T248 106T254 163Q254 204 240 237T197 319Q178 352 166 378T149 427T144 475Q144 535 172 579T247 646T353 670Q432 670 481 632T552 514L483 476Q469 533 440 565T351 597Q290
597 254 566T218 475Q218 454 221 437T232 399T256 349Q284 297 300 252T316 167Q316 137 309 106T283 49T233 6T154 -10Z" />
<glyph unicode="&#xa4;" horiz-adv-x="665" d="M333 539Q394 539 441 512T516 438T543 329Q543 268 516 221T442 146T333 118Q272 118 225 145T150 220T122 329Q122 390 149 437T224 512T333 539ZM333 467Q276 467 239 428T202 329Q202 268 239 229T333 190Q389
190 426 229T463 329Q463 389 426 428T333 467ZM121 591L240 474L189 424L70 540L121 591ZM187 236L237 185L121 66L70 117L187 236ZM476 233L595 117L544 66L425 182L476 233ZM544 591L595 540L479 421L428 472L544 591Z" />
<glyph unicode="&#xa5;" horiz-adv-x="620" d="M275 0V107H83V162H275V237H83V297H212L256 293L34 660H127L261 417L309 318H311L359 418L493 660H586L364 293L408 297H538V237H345V162H538V107H345V0H275Z" />
<glyph unicode="&#xa6;" horiz-adv-x="243" d="M156 730V367H87V730H156ZM156 195V-168H87V195H156Z" />
<glyph unicode="&#xa7;" horiz-adv-x="598" d="M417 138L368 168Q408 169 435 179T477 209T492 253Q492 282 472 305T388 340L244 365Q191 375 158 395T111 444T96 509Q96 556 122 592T197 649T309 670Q379 670 433 645T521 571L459 523Q431 565 394 583T306 601Q242
601 207 577T171 515Q171 496 178 480T204 453T259 435L400 411Q466 400 502 380T553 333T568 272Q568 240 553 211T505 162T417 138ZM284 -110Q196 -110 141 -81T58 -8L120 43Q141 5 181 -19T289 -43Q356 -43 393 -18T430 50Q430 75 413 93T358 118L189 151Q134
162 99 181T48 229T31 295Q31 327 47 353T91 396T160 417L195 392Q168 385 148 374T117 347T106 309Q106 280 129 256T212 220L369 192Q442 179 473 142T504 56Q504 9 478 -29T402 -88T284 -110Z" />
<glyph unicode="&#xa8;" horiz-adv-x="500" d="M153 696Q179 696 194 681T210 639Q210 614 195 598T153 582Q128 582 112 598T96 639Q96 665 112 680T153 696ZM347 696Q373 696 388 681T404 639Q404 614 389 598T347 582Q322 582 306 598T290 639Q290 665 306
680T347 696Z" />
<glyph unicode="&#xa9;" horiz-adv-x="820" d="M410 -10Q308 -10 231 35T111 157T68 330Q68 427 111 503T231 625T410 670Q512 670 589 625T709 504T752 330Q752 234 709 157T589 35T410 -10ZM410 55Q491 55 552 91T647 190T681 330Q681 407 647 469T552 568T410
605Q330 605 269 569T173 470T139 330Q139 253 173 191T268 92T410 55ZM417 143Q332 143 284 192T235 328Q235 414 283 463T417 513Q476 513 515 488T573 418L515 389Q502 421 478 437T416 453Q363 453 333 420T302 328Q302 269 332 236T416 203Q456 203 482 219T522
270L577 248Q558 199 518 171T417 143Z" />
<glyph unicode="&#xaa;" horiz-adv-x="382" d="M139 327Q87 327 57 351T27 416Q27 455 51 478T137 512L253 533V488L159 469Q123 462 110 452T97 421Q97 402 111 392T150 381Q170 381 191 387T227 411T242 460V545Q242 576 224 593T175 611Q144 611 118 597T76
547L27 576Q41 614 78 639T172 665Q237 665 273 636T310 547V407Q310 389 319 383T341 376Q357 376 365 380L360 336Q352 332 342 330T321 327Q289 327 271 345T252 399V414L262 403Q253 382 236 365T194 337T139 327ZM26 201V254H346V201H26Z" />
<glyph unicode="&#xab;" horiz-adv-x="493" d="M264 461L136 265L264 69H177L51 265L177 461H264ZM441 461L313 265L441 69H354L228 265L354 461H441Z" />
<glyph unicode="&#xac;" horiz-adv-x="604" d="M545 319V131H465V319H545ZM545 354V279H59V354H545Z" />
<glyph unicode="&#xad;" horiz-adv-x="510" d="M420 303V220H90V303H420Z" />
<glyph unicode="&#xae;" horiz-adv-x="820" d="M410 -10Q308 -10 231 35T111 157T68 330Q68 427 111 503T231 625T410 670Q512 670 589 626T709 504T752 330Q752 234 709 157T589 35T410 -10ZM493 143L393 293L448 316L569 143H493ZM410 55Q491 55 552 91T647
190T681 330Q681 407 647 469T552 568T410 605Q330 605 269 569T173 470T139 330Q139 253 173 191T268 92T410 55ZM269 143V513H421Q463 513 494 499T543 458T561 395Q561 340 522 309T421 277H336V143H269ZM336 328H420Q456 328 475 344T494 395Q494 429 475 445T420
462H336V328Z" />
<glyph unicode="&#xaf;" horiz-adv-x="500" d="M414 663V596H86V663H414Z" />
<glyph unicode="&#xb0;" horiz-adv-x="460" d="M230 340Q181 340 143 361T82 420T60 505Q60 553 82 590T142 649T230 670Q280 670 318 649T378 591T400 505Q400 457 378 420T318 362T230 340ZM230 405Q274 405 302 433T330 505Q330 549 302 577T230 605Q187 605
159 577T130 505Q130 462 158 434T230 405Z" />
<glyph unicode="&#xb1;" horiz-adv-x="604" d="M340 640V154H265V640H340ZM545 434V359H59V434H545ZM545 75V0H59V75H545Z" />
<glyph unicode="&#xb2;" horiz-adv-x="365" d="M39 333V381Q62 398 85 414T131 448Q179 486 206 512T243 560T254 604Q254 636 235 656T177 677Q138 677 116 653T91 584L28 606Q32 667 73 701T180 735Q229 735 261 717T310 670T327 608Q327 579 312 550T264 489T182
423Q169 414 157 406T130 388V387Q139 388 161 389T194 390H336V333H39Z" />
<glyph unicode="&#xb3;" horiz-adv-x="362" d="M181 735Q247 735 283 705T319 627Q319 597 307 576T276 545T240 533V532Q260 532 280 522T314 491T328 440Q328 406 309 381T256 341T178 327Q117 327 79 350T24 423L91 453Q97 419 118 402T177 385Q212 385 233
402T255 450Q255 482 233 494T170 506Q166 506 162 506T153 505V557Q157 556 160 556T167 556Q205 556 225 571T245 616Q245 646 227 661T177 677Q146 677 127 662T101 617L36 640Q49 689 88 712T181 735Z" />
<glyph unicode="&#xb4;" horiz-adv-x="600" d="M295 750H382L284 583H219L295 750Z" />
<glyph unicode="&#xb5;" horiz-adv-x="622" d="M93 -210V500H173V194Q173 124 206 92T299 60Q339 60 373 77T428 134T449 237V500H529V0H464L457 81Q432 36 389 13T295 -10Q257 -10 225 2T173 41V41V-210H93Z" />
<glyph unicode="&#xb6;" horiz-adv-x="657" d="M294 -100V191Q218 191 161 220T73 303T41 425Q41 496 75 549T171 631T315 660H566V-100H496V593H367V-100H294ZM294 258V593Q237 593 198 573T138 514T117 425Q117 373 137 336T197 278T294 258Z" />
<glyph unicode="&#xb7;" horiz-adv-x="226" d="M113 420Q142 420 160 402T178 355Q178 326 160 308T113 290Q84 290 66 308T48 355Q48 384 66 402T113 420Z" />
<glyph unicode="&#xb8;" horiz-adv-x="500" d="M207 4L249 29Q308 10 333 -22T358 -99Q358 -147 324 -181T237 -215Q206 -215 183 -207T142 -186L161 -128Q175 -137 190 -144T228 -151Q256 -151 274 -133T292 -81Q292 -55 273 -36T207 4Z" />
<glyph unicode="&#xb9;" horiz-adv-x="242" d="M127 730H189V333H119V584Q119 598 119 617T121 656Q99 635 70 619T10 598V658Q28 662 51 673T96 699T127 730Z" />
<glyph unicode="&#xba;" horiz-adv-x="360" d="M180 327Q110 327 67 372T23 496Q23 576 66 620T180 665Q250 665 293 621T337 496Q337 417 294 372T180 327ZM36 201V254H324V201H36ZM180 382Q224 382 245 412T267 496Q267 550 246 580T180 611Q136 611 115 581T93
496Q93 442 114 412T180 382Z" />
<glyph unicode="&#xbb;" horiz-adv-x="493" d="M229 69L357 265L229 461H316L442 265L316 69H229ZM52 69L180 265L52 461H139L265 265L139 69H52Z" />
<glyph unicode="&#xbc;" horiz-adv-x="788" d="M127 921H189V524H119V775Q119 789 119 808T121 847Q99 826 70 810T10 789V849Q28 853 51 864T96 890T127 921ZM88 0L565 660H644L167 0H88ZM768 145V95H697V-4H638V95H439V132L621 393H697V145H768ZM507 145H638V259Q638
278 639 297T641 335H638Q632 324 623 309T606 281L507 145Z" />
<glyph unicode="&#xbd;" horiz-adv-x="855" d="M127 921H189V524H119V775Q119 789 119 808T121 847Q99 826 70 810T10 789V849Q28 853 51 864T96 890T127 921ZM88 0L565 660H644L167 0H88ZM529 -4V44Q552 61 575 77T621 111Q669 149 696 175T733 223T744 267Q744
299 725 319T667 340Q628 340 606 316T581 247L518 269Q522 330 563 364T670 398Q719 398 751 380T800 333T817 271Q817 242 802 213T754 152T672 86Q659 77 647 69T620 51V50Q629 51 651 52T684 53H826V-4H529Z" />
<glyph unicode="&#xbe;" horiz-adv-x="908" d="M181 926Q247 926 283 896T319 818Q319 788 307 767T276 736T240 724V723Q260 723 280 713T314 682T328 631Q328 597 309 572T256 532T178 518Q117 518 79 541T24 614L91 644Q97 610 118 593T177 576Q212 576 233
593T255 641Q255 673 233 685T170 697Q166 697 162 697T153 696V748Q157 747 160 747T167 747Q205 747 225 762T245 807Q245 837 227 852T177 868Q146 868 127 853T101 808L36 831Q49 880 88 903T181 926ZM208 0L685 660H764L287 0H208ZM888 145V95H817V-4H758V95H559V132L741
393H817V145H888ZM627 145H758V259Q758 278 759 297T761 335H758Q752 324 743 309T726 281L627 145Z" />
<glyph unicode="&#xbf;" horiz-adv-x="537" d="M266 -170Q202 -170 153 -150T75 -91T47 0Q47 58 72 97T140 158T235 185V292H318V142Q251 132 210 116T150 74T131 10Q131 -37 166 -66T272 -95Q338 -95 379 -59T429 41L500 0Q489 -51 458 -89T378 -149T266 -170ZM278
380Q249 380 231 398T213 445Q213 474 231 492T278 510Q307 510 325 492T343 445Q343 416 325 398T278 380Z" />
<glyph unicode="&#xc0;" horiz-adv-x="660" d="M26 0L283 660H378L634 0H549L361 492L330 584H328L299 495L110 0H26ZM152 183V258H505V183H152ZM302 902L368 743H304L218 902H302Z" />
<glyph unicode="&#xc1;" horiz-adv-x="660" d="M26 0L283 660H378L634 0H549L361 492L330 584H328L299 495L110 0H26ZM152 183V258H505V183H152ZM353 902H437L351 743H287L353 902Z" />
<glyph unicode="&#xc2;" horiz-adv-x="660" d="M26 0L283 660H378L634 0H549L361 492L330 584H328L299 495L110 0H26ZM152 183V258H505V183H152ZM484 743H410L330 850L250 743H176L286 902H374L484 743Z" />
<glyph unicode="&#xc3;" horiz-adv-x="660" d="M26 0L283 660H378L634 0H549L361 492L330 584H328L299 495L110 0H26ZM152 183V258H505V183H152ZM510 877Q507 833 494 803T457 758T398 743Q370 743 351 753T317 777T290 800T260 811Q238 811 227 793T211 742H148Q153
808 180 842T261 876Q288 876 307 866T341 842T369 819T397 808Q420 808 431 826T447 877H510Z" />
<glyph unicode="&#xc4;" horiz-adv-x="660" d="M26 0L283 660H378L634 0H549L361 492L330 584H328L299 495L110 0H26ZM152 183V258H505V183H152ZM233 856Q259 856 274 841T290 799Q290 774 275 758T233 742Q208 742 192 758T176 799Q176 825 192 840T233 856ZM427
856Q453 856 468 841T484 799Q484 774 469 758T427 742Q402 742 386 758T370 799Q370 825 386 840T427 856Z" />
<glyph unicode="&#xc5;" horiz-adv-x="660" d="M26 0L283 660H378L634 0H549L361 492L330 584H328L299 495L110 0H26ZM152 183V258H505V183H152ZM328 847Q384 847 418 815T453 729Q453 676 419 643T328 610Q272 610 237 643T202 729Q202 782 237 814T328 847ZM328
798Q297 798 277 779T257 729Q257 699 277 680T328 660Q359 660 379 679T399 729Q399 759 379 778T328 798Z" />
<glyph unicode="&#xc6;" horiz-adv-x="954" d="M531 75H902V0H451V213H215L92 0H6L392 660H887V585H531V372H802V297H531V75ZM259 288H451V585H431L259 288Z" />
<glyph unicode="&#xc7;" horiz-adv-x="686" d="M640 169Q619 113 580 73T489 11T374 -10Q280 -10 212 31T106 149T68 330Q68 435 105 511T211 628T372 670Q436 670 486 653T571 601T628 516L549 479Q527 536 486 565T378 595Q311 595 260 564T181 473T152 330Q152
247 179 188T256 97T374 65Q440 65 489 98T560 199L640 169ZM317 4L359 29Q418 10 443 -22T468 -99Q468 -147 434 -181T347 -215Q316 -215 293 -207T252 -186L271 -128Q285 -137 300 -144T338 -151Q366 -151 384 -133T402 -81Q402 -55 383 -36T317 4Z" />
<glyph unicode="&#xc8;" horiz-adv-x="638" d="M108 0V660H571V585H188V372H486V297H188V75H586V0H108ZM317 902L383 743H319L233 902H317Z" />
<glyph unicode="&#xc9;" horiz-adv-x="638" d="M108 0V660H571V585H188V372H486V297H188V75H586V0H108ZM363 902H447L361 743H297L363 902Z" />
<glyph unicode="&#xca;" horiz-adv-x="638" d="M108 0V660H571V585H188V372H486V297H188V75H586V0H108ZM494 743H420L340 850L260 743H186L296 902H384L494 743Z" />
<glyph unicode="&#xcb;" horiz-adv-x="638" d="M108 0V660H571V585H188V372H486V297H188V75H586V0H108ZM243 856Q269 856 284 841T300 799Q300 774 285 758T243 742Q218 742 202 758T186 799Q186 825 202 840T243 856ZM437 856Q463 856 478 841T494 799Q494 774
479 758T437 742Q412 742 396 758T380 799Q380 825 396 840T437 856Z" />
<glyph unicode="&#xcc;" horiz-adv-x="296" d="M188 660V0H108V660H188ZM115 902L181 743H117L31 902H115Z" />
<glyph unicode="&#xcd;" horiz-adv-x="296" d="M188 660V0H108V660H188ZM181 902H265L179 743H115L181 902Z" />
<glyph unicode="&#xce;" horiz-adv-x="296" d="M188 660V0H108V660H188ZM302 743H228L148 850L68 743H-6L104 902H192L302 743Z" />
<glyph unicode="&#xcf;" horiz-adv-x="296" d="M62 856Q88 856 103 841T119 799Q119 774 104 758T62 742Q37 742 21 758T5 799Q5 825 21 840T62 856ZM234 856Q260 856 275 841T291 799Q291 774 276 758T234 742Q209 742 193 758T177 799Q177 825 193 840T234 856ZM188
660V0H108V660H188Z" />
<glyph unicode="&#xd0;" horiz-adv-x="737" d="M26 296V371H401V296H26ZM337 660Q492 660 580 575T669 330Q669 171 581 86T337 0H124V660H337ZM345 75Q458 75 521 142T585 330Q585 450 522 517T345 585H204V75H345Z" />
<glyph unicode="&#xd1;" horiz-adv-x="734" d="M626 660V0H527L251 442L181 566H180L184 466V0H108V660H207L482 220L553 93H554L550 194V660H626ZM551 877Q548 833 535 803T498 758T439 743Q411 743 392 753T358 777T331 800T301 811Q279 811 268 793T252 742H189Q194
808 221 842T302 876Q329 876 348 866T382 842T410 819T438 808Q461 808 472 826T488 877H551Z" />
<glyph unicode="&#xd2;" horiz-adv-x="748" d="M374 670Q468 670 536 629T642 511T680 330Q680 225 643 149T537 32T374 -10Q280 -10 212 31T106 149T68 330Q68 435 105 511T211 628T374 670ZM374 595Q306 595 256 564T179 473T152 330Q152 247 179 188T256 97T374
65Q443 65 492 96T569 187T596 330Q596 413 569 472T493 563T374 595ZM341 902L407 743H343L257 902H341Z" />
<glyph unicode="&#xd3;" horiz-adv-x="748" d="M374 670Q468 670 536 629T642 511T680 330Q680 225 643 149T537 32T374 -10Q280 -10 212 31T106 149T68 330Q68 435 105 511T211 628T374 670ZM374 595Q306 595 256 564T179 473T152 330Q152 247 179 188T256 97T374
65Q443 65 492 96T569 187T596 330Q596 413 569 472T493 563T374 595ZM397 902H481L395 743H331L397 902Z" />
<glyph unicode="&#xd4;" horiz-adv-x="748" d="M374 670Q468 670 536 629T642 511T680 330Q680 225 643 149T537 32T374 -10Q280 -10 212 31T106 149T68 330Q68 435 105 511T211 628T374 670ZM374 595Q306 595 256 564T179 473T152 330Q152 247 179 188T256 97T374
65Q443 65 492 96T569 187T596 330Q596 413 569 472T493 563T374 595ZM528 743H454L374 850L294 743H220L330 902H418L528 743Z" />
<glyph unicode="&#xd5;" horiz-adv-x="748" d="M374 670Q468 670 536 629T642 511T680 330Q680 225 643 149T537 32T374 -10Q280 -10 212 31T106 149T68 330Q68 435 105 511T211 628T374 670ZM374 595Q306 595 256 564T179 473T152 330Q152 247 179 188T256 97T374
65Q443 65 492 96T569 187T596 330Q596 413 569 472T493 563T374 595ZM554 877Q551 833 538 803T501 758T442 743Q414 743 395 753T361 777T334 800T304 811Q282 811 271 793T255 742H192Q197 808 224 842T305 876Q332 876 351 866T385 842T413 819T441 808Q464
808 475 826T491 877H554Z" />
<glyph unicode="&#xd6;" horiz-adv-x="748" d="M374 670Q468 670 536 629T642 511T680 330Q680 225 643 149T537 32T374 -10Q280 -10 212 31T106 149T68 330Q68 435 105 511T211 628T374 670ZM374 595Q306 595 256 564T179 473T152 330Q152 247 179 188T256 97T374
65Q443 65 492 96T569 187T596 330Q596 413 569 472T493 563T374 595ZM277 856Q303 856 318 841T334 799Q334 774 319 758T277 742Q252 742 236 758T220 799Q220 825 236 840T277 856ZM471 856Q497 856 512 841T528 799Q528 774 513 758T471 742Q446 742 430 758T414
799Q414 825 430 840T471 856Z" />
<glyph unicode="&#xd7;" horiz-adv-x="604" d="M469 97L522 150L134 538L81 485L469 97ZM134 97L522 485L469 538L81 150L134 97Z" />
<glyph unicode="&#xd8;" horiz-adv-x="748" d="M229 63L183 100L518 580L564 544L229 63ZM88 -37L183 100L229 63L159 -37H88ZM564 544L518 580L590 683H661L564 544ZM374 670Q468 670 536 629T642 511T680 330Q680 225 643 149T537 32T374 -10Q280 -10 212 31T106
149T68 330Q68 435 105 511T211 628T374 670ZM374 595Q306 595 256 564T179 473T152 330Q152 247 179 188T256 97T374 65Q443 65 492 96T569 187T596 330Q596 413 569 472T493 563T374 595Z" />
<glyph unicode="&#xd9;" horiz-adv-x="708" d="M613 660V246Q613 119 546 55T354 -10Q230 -10 163 54T95 246V660H175V266Q175 163 218 114T354 65Q446 65 489 114T533 266V660H613ZM331 877L397 718H333L247 877H331Z" />
<glyph unicode="&#xda;" horiz-adv-x="708" d="M613 660V246Q613 119 546 55T354 -10Q230 -10 163 54T95 246V660H175V266Q175 163 218 114T354 65Q446 65 489 114T533 266V660H613ZM377 877H461L375 718H311L377 877Z" />
<glyph unicode="&#xdb;" horiz-adv-x="708" d="M613 660V246Q613 119 546 55T354 -10Q230 -10 163 54T95 246V660H175V266Q175 163 218 114T354 65Q446 65 489 114T533 266V660H613ZM508 718H434L354 825L274 718H200L310 877H398L508 718Z" />
<glyph unicode="&#xdc;" horiz-adv-x="708" d="M613 660V246Q613 119 546 55T354 -10Q230 -10 163 54T95 246V660H175V266Q175 163 218 114T354 65Q446 65 489 114T533 266V660H613ZM257 831Q283 831 298 816T314 774Q314 749 299 733T257 717Q232 717 216 733T200
774Q200 800 216 815T257 831ZM451 831Q477 831 492 816T508 774Q508 749 493 733T451 717Q426 717 410 733T394 774Q394 800 410 815T451 831Z" />
<glyph unicode="&#xdd;" horiz-adv-x="572" d="M562 660L326 258V0H246V258L10 660H105L233 434L286 340L339 434L467 660H562ZM309 882H393L307 723H243L309 882Z" />
<glyph unicode="&#xde;" horiz-adv-x="627" d="M327 542Q450 542 511 489T573 337Q573 239 512 186T327 132H148V207H335Q489 207 489 337Q489 403 451 435T335 467H148V542H327ZM188 660V0H108V660H188Z" />
<glyph unicode="&#xdf;" horiz-adv-x="617" d="M383 387Q448 387 486 360T542 291T560 204Q560 146 539 98T474 20T363 -10Q315 -10 282 1T234 23L257 91Q275 80 298 72T361 63Q418 63 450 103T483 206Q483 276 445 312T329 349H270V420H319Q384 420 418 457T452
546Q452 605 415 632T320 660Q236 660 205 613T173 473V0H93V497Q93 566 114 619T187 704T328 735Q398 735 443 710T511 646T534 562Q534 523 518 485T468 420T383 389V387Z" />
<glyph unicode="&#xe0;" horiz-adv-x="566" d="M385 323Q385 379 355 409T270 440Q218 440 182 418T129 345L64 385Q84 441 138 475T272 510Q326 510 370 492T439 436T465 339V97Q465 61 503 61Q522 61 540 66L536 3Q516 -7 484 -7Q455 -7 432 4T396 37T383 94V104L403
101Q391 62 362 38T297 2T226 -10Q182 -10 144 5T84 50T61 126Q61 182 98 218T203 268L401 307V241L240 208Q191 198 167 180T143 130Q143 99 167 80T237 60Q266 60 292 67T340 90T373 129T385 185V323ZM242 750L318 583H253L155 750H242Z" />
<glyph unicode="&#xe1;" horiz-adv-x="566" d="M385 323Q385 379 355 409T270 440Q218 440 182 418T129 345L64 385Q84 441 138 475T272 510Q326 510 370 492T439 436T465 339V97Q465 61 503 61Q522 61 540 66L536 3Q516 -7 484 -7Q455 -7 432 4T396 37T383 94V104L403
101Q391 62 362 38T297 2T226 -10Q182 -10 144 5T84 50T61 126Q61 182 98 218T203 268L401 307V241L240 208Q191 198 167 180T143 130Q143 99 167 80T237 60Q266 60 292 67T340 90T373 129T385 185V323ZM303 750H390L292 583H227L303 750Z" />
<glyph unicode="&#xe2;" horiz-adv-x="566" d="M385 323Q385 379 355 409T270 440Q218 440 182 418T129 345L64 385Q84 441 138 475T272 510Q326 510 370 492T439 436T465 339V97Q465 61 503 61Q522 61 540 66L536 3Q516 -7 484 -7Q455 -7 432 4T396 37T383 94V104L403
101Q391 62 362 38T297 2T226 -10Q182 -10 144 5T84 50T61 126Q61 182 98 218T203 268L401 307V241L240 208Q191 198 167 180T143 130Q143 99 167 80T237 60Q266 60 292 67T340 90T373 129T385 185V323ZM435 576H362L276 691L190 576H117L231 743H321L435 576Z"
/>
<glyph unicode="&#xe3;" horiz-adv-x="566" d="M385 323Q385 379 355 409T270 440Q218 440 182 418T129 345L64 385Q84 441 138 475T272 510Q326 510 370 492T439 436T465 339V97Q465 61 503 61Q522 61 540 66L536 3Q516 -7 484 -7Q455 -7 432 4T396 37T383 94V104L403
101Q391 62 362 38T297 2T226 -10Q182 -10 144 5T84 50T61 126Q61 182 98 218T203 268L401 307V241L240 208Q191 198 167 180T143 130Q143 99 167 80T237 60Q266 60 292 67T340 90T373 129T385 185V323ZM456 717Q453 673 440 643T403 598T344 583Q316 583 297 593T263
617T236 640T206 651Q184 651 173 633T157 582H94Q99 648 126 682T207 716Q234 716 253 706T287 682T315 659T343 648Q366 648 377 666T393 717H456Z" />
<glyph unicode="&#xe4;" horiz-adv-x="566" d="M385 323Q385 379 355 409T270 440Q218 440 182 418T129 345L64 385Q84 441 138 475T272 510Q326 510 370 492T439 436T465 339V97Q465 61 503 61Q522 61 540 66L536 3Q516 -7 484 -7Q455 -7 432 4T396 37T383 94V104L403
101Q391 62 362 38T297 2T226 -10Q182 -10 144 5T84 50T61 126Q61 182 98 218T203 268L401 307V241L240 208Q191 198 167 180T143 130Q143 99 167 80T237 60Q266 60 292 67T340 90T373 129T385 185V323ZM179 696Q205 696 220 681T236 639Q236 614 221 598T179 582Q154
582 138 598T122 639Q122 665 138 680T179 696ZM373 696Q399 696 414 681T430 639Q430 614 415 598T373 582Q348 582 332 598T316 639Q316 665 332 680T373 696Z" />
<glyph unicode="&#xe5;" horiz-adv-x="566" d="M385 323Q385 379 355 409T270 440Q218 440 182 418T129 345L64 385Q84 441 138 475T272 510Q326 510 370 492T439 436T465 339V97Q465 61 503 61Q522 61 540 66L536 3Q516 -7 484 -7Q455 -7 432 4T396 37T383 94V104L403
101Q391 62 362 38T297 2T226 -10Q182 -10 144 5T84 50T61 126Q61 182 98 218T203 268L401 307V241L240 208Q191 198 167 180T143 130Q143 99 167 80T237 60Q266 60 292 67T340 90T373 129T385 185V323ZM273 812Q329 812 363 780T398 694Q398 641 364 608T273 575Q217
575 182 608T147 694Q147 747 182 779T273 812ZM273 763Q242 763 222 744T202 694Q202 664 222 645T273 625Q304 625 324 644T344 694Q344 724 324 743T273 763Z" />
<glyph unicode="&#xe6;" horiz-adv-x="895" d="M230 -10Q184 -10 146 5T84 50T61 126Q61 182 97 218T199 267L385 304V323Q385 379 353 409T269 440Q222 440 186 418T129 345L64 385Q80 423 108 451T177 494T267 510Q333 510 382 483T449 394L425 397Q444 433
473 458T541 496T622 510Q689 510 736 480T810 399T836 283Q836 266 835 252T832 227H466V227Q471 148 515 104T625 60Q675 60 708 81T763 138L826 101Q807 67 778 42T710 4T627 -10Q552 -10 496 25T413 130L438 137Q434 103 415 76T366 30T301 0T230 -10ZM237
60Q266 60 292 67T340 90T373 129T385 185V237L240 208Q191 198 167 180T143 130Q143 99 167 80T237 60ZM469 298H756Q755 344 737 375T689 423T620 440Q559 440 520 403T469 298Z" />
<glyph unicode="&#xe7;" horiz-adv-x="560" d="M300 510Q352 510 391 494T460 448T507 377L431 341Q415 389 383 414T298 440Q248 440 212 418T157 353T138 250Q138 191 157 148T212 83T298 60Q337 60 365 72T412 107T438 163L512 137Q495 91 466 58T395 8T300
-10Q230 -10 175 21T89 110T58 250Q58 331 89 389T175 479T300 510ZM244 4L286 29Q345 10 370 -22T395 -99Q395 -147 361 -181T274 -215Q243 -215 220 -207T179 -186L198 -128Q212 -137 227 -144T265 -151Q293 -151 311 -133T329 -81Q329 -55 310 -36T244 4Z" />
<glyph unicode="&#xe8;" horiz-adv-x="577" d="M302 -10Q231 -10 176 21T89 110T58 250Q58 331 89 389T174 479T297 510Q367 510 416 480T492 399T518 283Q518 266 517 252T514 227H110V298H479L438 290Q438 362 399 401T295 440Q246 440 211 418T156 353T136
250Q136 191 156 148T212 83T300 60Q355 60 389 81T445 138L508 101Q489 67 460 42T391 4T302 -10ZM257 750L333 583H268L170 750H257Z" />
<glyph unicode="&#xe9;" horiz-adv-x="577" d="M302 -10Q231 -10 176 21T89 110T58 250Q58 331 89 389T174 479T297 510Q367 510 416 480T492 399T518 283Q518 266 517 252T514 227H110V298H479L438 290Q438 362 399 401T295 440Q246 440 211 418T156 353T136
250Q136 191 156 148T212 83T300 60Q355 60 389 81T445 138L508 101Q489 67 460 42T391 4T302 -10ZM318 750H405L307 583H242L318 750Z" />
<glyph unicode="&#xea;" horiz-adv-x="577" d="M302 -10Q231 -10 176 21T89 110T58 250Q58 331 89 389T174 479T297 510Q367 510 416 480T492 399T518 283Q518 266 517 252T514 227H110V298H479L438 290Q438 362 399 401T295 440Q246 440 211 418T156 353T136
250Q136 191 156 148T212 83T300 60Q355 60 389 81T445 138L508 101Q489 67 460 42T391 4T302 -10ZM450 576H377L291 691L205 576H132L246 743H336L450 576Z" />
<glyph unicode="&#xeb;" horiz-adv-x="577" d="M302 -10Q231 -10 176 21T89 110T58 250Q58 331 89 389T174 479T297 510Q367 510 416 480T492 399T518 283Q518 266 517 252T514 227H110V298H479L438 290Q438 362 399 401T295 440Q246 440 211 418T156 353T136
250Q136 191 156 148T212 83T300 60Q355 60 389 81T445 138L508 101Q489 67 460 42T391 4T302 -10ZM194 696Q220 696 235 681T251 639Q251 614 236 598T194 582Q169 582 153 598T137 639Q137 665 153 680T194 696ZM388 696Q414 696 429 681T445 639Q445 614 430
598T388 582Q363 582 347 598T331 639Q331 665 347 680T388 696Z" />
<glyph unicode="&#xec;" horiz-adv-x="266" d="M173 500V0H93V500H173ZM99 750L175 583H110L12 750H99Z" />
<glyph unicode="&#xed;" horiz-adv-x="266" d="M173 500V0H93V500H173ZM160 750H247L149 583H84L160 750Z" />
<glyph unicode="&#xee;" horiz-adv-x="266" d="M173 500V0H93V500H173ZM292 576H219L133 691L47 576H-26L88 743H178L292 576Z" />
<glyph unicode="&#xef;" horiz-adv-x="266" d="M213 582Q187 582 171 598T155 639Q155 665 171 680T213 696Q239 696 254 681T270 639Q270 614 255 598T213 582ZM53 582Q28 582 12 598T-4 639Q-4 665 12 680T53 696Q79 696 95 681T111 639Q111 614 95 598T53 582ZM173
500V0H93V500H173Z" />
<glyph unicode="&#xf0;" horiz-adv-x="620" d="M298 -10Q226 -10 173 19T91 105T62 238Q62 315 93 370T177 455T296 485Q358 485 402 464T473 405L465 398Q453 453 432 500T380 587T306 663T205 730H316Q375 696 418 651T489 551T532 430T546 288Q546 201 519
134T438 28T298 -10ZM302 60Q355 60 392 85T448 150T468 238Q468 293 449 332T393 393T307 415Q257 415 221 394T165 333T145 238Q145 154 187 107T302 60ZM207 533L192 594L392 638L428 590L207 533ZM428 590L392 638L535 678L552 619L428 590Z" />
<glyph unicode="&#xf1;" horiz-adv-x="619" d="M93 0V500H163L170 388L157 399Q173 439 200 463T262 499T336 510Q390 510 434 490T504 427T531 320V0H451V292Q451 375 416 407T328 440Q292 440 256 423T197 368T173 266V0H93ZM498 717Q495 673 482 643T445 598T386
583Q358 583 339 593T305 617T278 640T248 651Q226 651 215 633T199 582H136Q141 648 168 682T249 716Q276 716 295 706T329 682T357 659T385 648Q408 648 419 666T435 717H498Z" />
<glyph unicode="&#xf2;" horiz-adv-x="600" d="M300 510Q371 510 425 479T511 390T542 250Q542 169 511 111T426 21T300 -10Q230 -10 175 21T89 110T58 250Q58 331 89 389T175 479T300 510ZM300 441Q249 441 213 418T158 353T138 250Q138 191 157 148T213 82T300
59Q351 59 387 82T442 148T462 250Q462 310 443 352T387 418T300 441ZM266 750L342 583H277L179 750H266Z" />
<glyph unicode="&#xf3;" horiz-adv-x="600" d="M300 510Q371 510 425 479T511 390T542 250Q542 169 511 111T426 21T300 -10Q230 -10 175 21T89 110T58 250Q58 331 89 389T175 479T300 510ZM300 441Q249 441 213 418T158 353T138 250Q138 191 157 148T213 82T300
59Q351 59 387 82T442 148T462 250Q462 310 443 352T387 418T300 441ZM327 750H414L316 583H251L327 750Z" />
<glyph unicode="&#xf4;" horiz-adv-x="600" d="M300 510Q371 510 425 479T511 390T542 250Q542 169 511 111T426 21T300 -10Q230 -10 175 21T89 110T58 250Q58 331 89 389T175 479T300 510ZM300 441Q249 441 213 418T158 353T138 250Q138 191 157 148T213 82T300
59Q351 59 387 82T442 148T462 250Q462 310 443 352T387 418T300 441ZM459 576H386L300 691L214 576H141L255 743H345L459 576Z" />
<glyph unicode="&#xf5;" horiz-adv-x="600" d="M300 510Q371 510 425 479T511 390T542 250Q542 169 511 111T426 21T300 -10Q230 -10 175 21T89 110T58 250Q58 331 89 389T175 479T300 510ZM300 441Q249 441 213 418T158 353T138 250Q138 191 157 148T213 82T300
59Q351 59 387 82T442 148T462 250Q462 310 443 352T387 418T300 441ZM480 717Q477 673 464 643T427 598T368 583Q340 583 321 593T287 617T260 640T230 651Q208 651 197 633T181 582H118Q123 648 150 682T231 716Q258 716 277 706T311 682T339 659T367 648Q390
648 401 666T417 717H480Z" />
<glyph unicode="&#xf6;" horiz-adv-x="600" d="M300 510Q371 510 425 479T511 390T542 250Q542 169 511 111T426 21T300 -10Q230 -10 175 21T89 110T58 250Q58 331 89 389T175 479T300 510ZM300 441Q249 441 213 418T158 353T138 250Q138 191 157 148T213 82T300
59Q351 59 387 82T442 148T462 250Q462 310 443 352T387 418T300 441ZM203 696Q229 696 244 681T260 639Q260 614 245 598T203 582Q178 582 162 598T146 639Q146 665 162 680T203 696ZM397 696Q423 696 438 681T454 639Q454 614 439 598T397 582Q372 582 356 598T340
639Q340 665 356 680T397 696Z" />
<glyph unicode="&#xf7;" horiz-adv-x="604" d="M545 354V279H59V354H545ZM302 185Q331 185 349 167T367 120Q367 91 349 73T302 55Q273 55 255 73T237 120Q237 149 255 167T302 185ZM302 576Q331 576 349 558T367 511Q367 482 349 464T302 446Q273 446 255 464T237
511Q237 540 255 558T302 576Z" />
<glyph unicode="&#xf8;" horiz-adv-x="600" d="M300 510Q371 510 425 479T511 390T542 250Q542 169 511 111T426 21T300 -10Q230 -10 175 21T89 110T58 250Q58 331 89 389T175 479T300 510ZM300 441Q249 441 213 418T158 353T138 250Q138 191 157 148T213 82T300
59Q351 59 387 82T442 148T462 250Q462 310 443 352T387 418T300 441ZM311 -30L734 530H801L378 -30H311Z" />
<glyph unicode="&#xf9;" horiz-adv-x="617" d="M274 -10Q226 -10 184 8T115 66T88 172V500H168V193Q168 117 201 89T294 60Q322 60 349 69T397 99T431 152T444 228V500H524V0H454L449 76Q423 31 379 11T274 -10ZM272 740L348 573H283L185 740H272Z" />
<glyph unicode="&#xfa;" horiz-adv-x="617" d="M274 -10Q226 -10 184 8T115 66T88 172V500H168V193Q168 117 201 89T294 60Q322 60 349 69T397 99T431 152T444 228V500H524V0H454L449 76Q423 31 379 11T274 -10ZM333 740H420L322 573H257L333 740Z" />
<glyph unicode="&#xfb;" horiz-adv-x="617" d="M274 -10Q226 -10 184 8T115 66T88 172V500H168V193Q168 117 201 89T294 60Q322 60 349 69T397 99T431 152T444 228V500H524V0H454L449 76Q423 31 379 11T274 -10ZM465 566H392L306 681L220 566H147L261 733H351L465 566Z" />
<glyph unicode="&#xfc;" horiz-adv-x="617" d="M274 -10Q226 -10 184 8T115 66T88 172V500H168V193Q168 117 201 89T294 60Q322 60 349 69T397 99T431 152T444 228V500H524V0H454L449 76Q423 31 379 11T274 -10ZM209 686Q235 686 250 671T266 629Q266 604 251
588T209 572Q184 572 168 588T152 629Q152 655 168 670T209 686ZM403 686Q429 686 444 671T460 629Q460 604 445 588T403 572Q378 572 362 588T346 629Q346 655 362 670T403 686Z" />
<glyph unicode="&#xfd;" horiz-adv-x="516" d="M504 500L269 -84Q250 -133 228 -161T178 -202T114 -215Q80 -215 52 -206T1 -180L23 -110Q43 -128 65 -136T110 -145Q136 -145 159 -129T201 -64L227 1L177 120L18 500H109L234 174L265 85L301 184L418 500H504ZM286
740H373L275 573H210L286 740Z" />
<glyph unicode="&#xfe;" horiz-adv-x="627" d="M93 -210V730H173V378L163 402Q183 449 230 479T339 510Q401 510 453 479T536 390T567 250Q567 169 536 111T452 21T338 -10Q276 -10 230 20T163 98L173 113V-210H93ZM330 60Q404 60 445 112T487 250Q487 336 447
388T333 440Q285 440 249 417T193 351T173 250Q173 193 192 150T247 84T330 60Z" />
<glyph unicode="&#xff;" horiz-adv-x="516" d="M504 500L269 -84Q250 -133 228 -161T178 -202T114 -215Q80 -215 52 -206T1 -180L23 -110Q43 -128 65 -136T110 -145Q136 -145 159 -129T201 -64L227 1L177 120L18 500H109L234 174L265 85L301 184L418 500H504ZM162
686Q188 686 203 671T219 629Q219 604 204 588T162 572Q137 572 121 588T105 629Q105 655 121 670T162 686ZM356 686Q382 686 397 671T413 629Q413 604 398 588T356 572Q331 572 315 588T299 629Q299 655 315 670T356 686Z" />
<glyph unicode="&#x2013;" horiz-adv-x="664" d="M582 299V224H82V299H582Z" />
<glyph unicode="&#x2014;" horiz-adv-x="1014" d="M932 299V224H82V299H932Z" />
<glyph unicode="&#x2018;" horiz-adv-x="255" d="M128 434Q104 434 88 446T62 480T53 531Q53 564 64 596T100 655T162 700L204 661Q177 652 157 636T123 600T106 559L110 557Q114 560 120 562T138 564Q150 564 162 557T184 537T193 501Q193 483 184 468T161 443T128 434Z" />
<glyph unicode="&#x2019;" horiz-adv-x="255" d="M131 700Q155 700 171 688T197 654T206 603Q206 570 195 538T159 479T97 434L55 473Q82 482 102 498T136 534T153 575L149 577Q145 574 139 572T121 570Q109 570 97 577T75 597T66 633Q66 651 75 666T98 691T131 700Z" />
<glyph unicode="&#x201a;" horiz-adv-x="255" d="M387 120Q411 120 427 108T453 74T462 23Q462 -10 451 -42T415 -101T353 -146L311 -107Q338 -98 358 -82T392 -46T409 -5L405 -3Q401 -6 395 -8T377 -10Q365 -10 353 -3T331 17T322 53Q322 71 331 86T354 111T387 120Z" />
<glyph unicode="&#x201c;" horiz-adv-x="443" d="M128 434Q104 434 88 446T62 480T53 531Q53 564 64 596T100 655T162 700L204 661Q177 652 157 636T123 600T106 559L110 557Q114 560 120 562T138 564Q150 564 162 557T184 537T193 501Q193 483 184 468T161 443T128
434ZM316 434Q292 434 276 446T250 480T241 531Q241 564 252 596T288 655T350 700L392 661Q365 652 345 636T311 600T294 559L298 557Q302 560 308 562T326 564Q338 564 350 557T372 537T381 501Q381 483 372 468T349 443T316 434Z" />
<glyph unicode="&#x201d;" horiz-adv-x="443" d="M131 700Q155 700 171 688T197 654T206 603Q206 570 195 538T159 479T97 434L55 473Q82 482 102 498T136 534T153 575L149 577Q145 574 139 572T121 570Q109 570 97 577T75 597T66 633Q66 651 75 666T98 691T131
700ZM319 700Q343 700 359 688T385 654T394 603Q394 570 383 538T347 479T285 434L243 473Q270 482 290 498T324 534T341 575L337 577Q333 574 327 572T309 570Q297 570 285 577T263 597T254 633Q254 651 263 666T286 691T319 700Z" />
<glyph unicode="&#x201e;" horiz-adv-x="443" d="M387 120Q411 120 427 108T453 74T462 23Q462 -10 451 -42T415 -101T353 -146L311 -107Q338 -98 358 -82T392 -46T409 -5L405 -3Q401 -6 395 -8T377 -10Q365 -10 353 -3T331 17T322 53Q322 71 331 86T354 111T387
120ZM319 120Q343 120 359 108T385 74T394 23Q394 -10 383 -42T347 -101T285 -146L243 -107Q270 -98 290 -82T324 -46T341 -5L337 -3Q333 -6 327 -8T309 -10Q297 -10 285 -3T263 17T254 53Q254 71 263 86T286 111T319 120Z" />
<glyph unicode="&#x2022;" horiz-adv-x="430" d="M215 216Q161 216 126 250T90 337Q90 390 125 424T215 458Q270 458 305 424T340 337Q340 285 305 251T215 216Z" />
<glyph unicode="&#x2039;" horiz-adv-x="316" d="M264 461L136 265L264 69H177L51 265L177 461H264Z" />
<glyph unicode="&#x203a;" horiz-adv-x="316" d="M52 69L180 265L52 461H139L265 265L139 69H52Z" />
</font>
</defs>
</svg>
