<?xml version="1.0" standalone="no"?>
<!DOCTYPE svg PUBLIC "-//W3C//DTD SVG 1.1//EN" "http://www.w3.org/Graphics/SVG/1.1/DTD/svg11.dtd" >
<!--
2013-9-13: Created.
-->
<svg xmlns="http://www.w3.org/2000/svg" xmlns:xlink="http://www.w3.org/1999/xlink" version="1.1">
<metadata>
Created by FontForge 20170921 at Sun Jan  7 19:01:08 2018
 By Jany Belluz
Created by Jany Belluz with FontForge 2.0 (http://fontforge.sf.net)
</metadata>
<defs>
<font id="FantasqueSansMono-Bold" horiz-adv-x="1060" >
  <font-face 
    font-family="Fantasque Sans Mono"
    font-weight="700"
    font-stretch="normal"
    units-per-em="2048"
    panose-1="2 11 8 9 2 2 4 3 2 4"
    ascent="1650"
    descent="-398"
    x-height="1013"
    cap-height="1319"
    bbox="-167 -662 1170 2094"
    underline-thickness="213"
    underline-position="-77"
    unicode-range="U+0020-FF63"
  />
    <missing-glyph />
    <glyph glyph-name="a" unicode="a" 
d="M318 317c0 -98 69 -128 133 -128c110 0 192 102 210 158v47c-36 42 -104 76 -168 76c-66 0 -175 -43 -175 -153zM917 316c0 -92 19 -144 76 -189l-125 -149c-52 40 -86 51 -128 123c-76 -78 -158 -112 -340 -112c-171 0 -344 131 -344 313c0 90 30 177 89 238
c95 97 206 130 348 130c64 0 130 -21 168 -47c0 166 -116 197 -176 197c-115 0 -209 -33 -283 -111l-122 208c174 110 235 108 413 111c225 0 424 -135 424 -373v-339z" />
    <glyph glyph-name="b" unicode="b" 
d="M688 478c0 263 -73 335 -165 335c-72 0 -133 -75 -166 -130v-334c51 -102 122 -176 183 -176c108 0 148 115 148 305zM943 459c0 -307 -118 -466 -369 -466c-124 0 -203 47 -241 100c0 -42 -44 -106 -44 -106l-196 20c10 66 19 153 19 236v24c0 249 -1 610 -1 890
c0 94 -8 178 -15 246l247 9c9 -73 14 -169 14 -260c0 -90 -6 -145 -24 -222c37 28 111 83 225 83c272 0 385 -182 385 -554z" />
    <glyph glyph-name="c" unicode="c" 
d="M332 528c0 -319 163 -325 210 -325h12c100 0 154 66 202 147l226 -134c-68 -150 -200 -223 -418 -223c-104 0 -227 8 -323 80c-130 101 -170 255 -170 454c0 340 178 491 493 491c95 0 192 -19 255 -61c60 -40 106 -99 128 -151l-220 -102c-10 38 -41 103 -181 103
c-147 0 -214 -136 -214 -279z" />
    <glyph glyph-name="d" unicode="d" 
d="M329 478c0 -190 59 -276 167 -276c61 0 131 45 182 147v334c-33 55 -94 130 -166 130c-92 0 -183 -72 -183 -335zM74 459c0 381 141 563 404 563c114 0 187 -64 224 -92c-18 77 -24 132 -24 222c0 91 5 187 14 260l248 -9c-7 -68 -15 -152 -15 -246
c0 -280 -2 -641 -2 -890v-24c0 -83 10 -170 20 -236l-196 -20s-45 64 -45 106c-38 -53 -117 -100 -241 -100c-251 0 -387 159 -387 466z" />
    <glyph glyph-name="e" unicode="e" 
d="M336 606c113 20 207 24 340 24c-5 131 -77 188 -165 188c-102 0 -169 -96 -175 -212zM509 1021c319 0 428 -208 428 -544c0 -20 -1 -43 -1 -43c-285 -4 -498 -18 -600 -38c16 -111 104 -200 196 -200c106 0 154 36 222 110l178 -156c-101 -112 -167 -160 -406 -160
c-286 0 -448 213 -448 526c0 286 148 505 431 505z" />
    <glyph glyph-name="f" unicode="f" 
d="M641 1217c-132 0 -143 -74 -143 -134c0 -27 1 -71 1 -71h184c105 0 146 -12 176 -21l-44 -197c-21 7 -42 13 -98 13h-219l1 -807h-257v807h-143v205h143v52c0 130 66 354 382 354c196 0 325 -42 403 -197l-212 -97c-26 82 -84 93 -174 93z" />
    <glyph glyph-name="g" unicode="g" 
d="M541 -184c62 0 193 70 193 168c0 41 -22 74 -136 74l-267 -1c-23 -30 -23 -86 -23 -130c0 -62 74 -111 143 -111h90zM645 726c0 86 -75 96 -161 96c-88 0 -157 -30 -157 -105c0 -90 68 -118 158 -118c118 0 160 52 160 127zM870 819c0 0 21 -22 21 -103
c0 -176 -104 -317 -384 -317h-3c-75 0 -133 7 -147 13c-19 -22 -30 -49 -30 -79c0 -35 23 -85 129 -85h179c153 0 349 -46 349 -247c0 -223 -216 -385 -389 -385h-155c-204 0 -360 91 -360 306c0 101 34 174 87 221c-47 35 -87 114 -87 200c0 101 39 149 76 190
c-39 50 -76 87 -76 161c0 235 161 332 415 332c100 0 196 -14 272 -61c49 46 104 61 220 61v-204c-12 2 -31 5 -41 5c-34 0 -52 -2 -76 -8z" />
    <glyph glyph-name="p" unicode="p" 
d="M681 531c0 193 -37 280 -125 280c-129 0 -173 -67 -218 -155l2 -345c38 -58 92 -118 167 -118c115 0 174 71 174 338zM94 739v26c0 83 -12 166 -22 231l228 26c9 -24 16 -62 20 -101c56 62 140 90 252 90c275 0 365 -192 365 -460c0 -336 -73 -559 -435 -559
c-100 0 -147 37 -176 68c4 -40 11 -77 14 -121v-91c0 -94 7 -178 14 -246l-248 -7c-9 73 -14 168 -14 259z" />
    <glyph glyph-name="h" unicode="h" 
d="M942 566v-348c0 -82 19 -142 44 -178l-226 -80c-23 32 -64 106 -64 216v315c0 309 -96 322 -188 322c-77 0 -142 -76 -175 -131v-682h-245v1156c0 94 -9 178 -16 246l248 9c9 -73 14 -169 14 -260c0 -90 -6 -145 -24 -222c37 28 113 84 232 84c250 0 400 -125 400 -447z
" />
    <glyph glyph-name="i" unicode="i" 
d="M354 1430h284l2 -246h-285zM354 1013h255c0 -273 1 -739 1 -739c0 -64 17 -92 109 -92c93 0 153 33 213 91l97 -190c-86 -71 -237 -101 -361 -101c-85 0 -177 14 -221 38c-85 47 -93 127 -93 186v607c-49 0 -139 -6 -234 -28l-29 186c94 28 183 42 263 42z" />
    <glyph glyph-name="j" unicode="j" 
d="M567 1426h284l2 -246h-285zM842 -78c0 -153 -81 -311 -367 -311c-123 0 -279 28 -405 233l164 148c86 -145 155 -180 218 -180h18c120 0 116 105 118 140v861c-49 0 -140 -6 -235 -28l-29 186c94 28 184 42 264 42h254v-1091z" />
    <glyph glyph-name="k" unicode="k" 
d="M982 823c-164 -56 -288 -144 -366 -227c182 -119 290 -255 418 -496l-226 -128c-112 233 -184 349 -352 476c-31 -35 -59 -76 -73 -104v-344h-249v1222c0 55 -6 110 -24 161l246 44c20 -51 27 -96 27 -169v-389c0 -78 -10 -146 -34 -222c125 156 291 306 528 401z" />
    <glyph glyph-name="l" unicode="l" 
d="M355 1401h254c0 -273 2 -1127 2 -1127c0 -64 16 -92 108 -92c93 0 153 33 213 91l97 -190c-86 -71 -237 -101 -361 -101c-85 0 -176 14 -220 38c-85 47 -93 127 -93 186c0 227 -1 468 -1 695c0 114 0 196 1 300h-40c-57 0 -142 -2 -217 -19l-29 186c94 28 206 33 286 33z
" />
    <glyph glyph-name="m" unicode="m" 
d="M952 -32c-71 14 -216 54 -216 260v2v529c-2 42 -8 54 -38 54c-22 0 -74 -157 -88 -213l-2 -600l-225 1v760c0 37 -2 52 -28 52c-24 0 -89 -98 -111 -204v-609h-224l-2 802c0 93 -14 127 -31 176l218 66c15 -32 19 -96 26 -133c29 38 92 109 181 109
c110 0 152 -103 161 -174c42 82 104 174 195 174h8c124 0 180 -139 180 -281v-513c0 -51 49 -80 90 -96z" />
    <glyph glyph-name="o" unicode="o" 
d="M625 247c47 52 60 156 60 283v16c-2 157 -37 284 -165 284c-151 0 -196 -140 -196 -348c0 -166 63 -285 184 -285c55 1 81 14 117 50zM507 -6c-310 0 -435 190 -435 470c0 371 141 568 433 568c197 0 307 -69 377 -201c41 -79 59 -192 59 -288c0 -285 -96 -549 -432 -549
h-2z" />
    <glyph glyph-name="n" unicode="n" 
d="M338 927c56 50 190 99 300 99c164 0 300 -66 300 -230v-518c0 -66 50 -88 106 -118l-116 -200c-95 30 -241 104 -241 262v477c0 74 -15 120 -82 120c-63 0 -169 -38 -254 -112v-707h-251v706c0 178 -8 204 -32 298l232 48c10 -24 31 -76 38 -125z" />
    <glyph glyph-name="q" unicode="q" 
d="M328 531c0 -267 59 -338 174 -338c75 0 130 60 168 118l1 345c-45 88 -88 155 -217 155c-88 0 -126 -87 -126 -280zM916 739l1 -885v-29c0 -85 1 -183 16 -218l-236 -30c-19 52 -27 177 -27 271v91c3 44 9 81 13 121c-29 -31 -76 -68 -176 -68c-362 0 -435 223 -435 559
c0 268 91 460 366 460c112 0 196 -28 252 -90c4 39 10 77 19 101l228 -26c-10 -65 -21 -148 -21 -231v-26z" />
    <glyph glyph-name="r" unicode="r" 
d="M404 864c75 98 179 156 340 156c167 0 272 -102 272 -292v-30l-252 -2c1 11 2 27 2 44c0 37 -10 78 -66 78s-136 -73 -232 -258v-560h-252v704c0 57 -48 99 -110 154l148 186c61 -49 116 -77 150 -180z" />
    <glyph glyph-name="s" unicode="s" 
d="M279 549c-82 40 -137 121 -137 232c0 186 190 248 365 248c139 0 292 -15 403 -136l-177 -163c-54 58 -127 99 -223 99c-82 0 -114 -22 -114 -61c0 -29 6 -49 34 -67c256 -104 500 -139 500 -423c0 -162 -144 -250 -251 -278c-56 -13 -116 -20 -173 -20
c-256 0 -412 135 -412 350h253c0 -108 48 -148 157 -148c59 0 172 20 172 108c0 59 -21 92 -70 125c-69 44 -234 89 -327 134z" />
    <glyph glyph-name="t" unicode="t" 
d="M430 436v-40c0 -134 39 -182 123 -196c18 -2 52 -4 65 -4c65 0 95 14 120 28c52 28 63 96 70 116l208 -100c-10 -28 -64 -140 -176 -204c-58 -34 -135 -42 -220 -42c-184 0 -332 22 -403 170c-35 72 -39 148 -39 234v42c2 90 4 201 9 365h-14c-28 0 -56 -4 -82 -12
l-17 204c24 8 69 12 102 12h15c0 70 1 171 1 241l251 -6c0 -66 -1 -163 -2 -231c109 0 421 -4 429 -4l-3 -204c-137 0 -295 2 -428 2c-6 -166 -5 -271 -9 -371z" />
    <glyph glyph-name="u" unicode="u" 
d="M893 -17c-64 29 -106 75 -127 125c-75 -77 -190 -103 -340 -106h-9c-152 0 -338 51 -338 227c0 82 1 179 1 275c0 216 -3 431 -22 488l254 28c22 -92 16 -356 18 -722c12 -67 31 -92 116 -92c152 7 221 85 221 212v595h251v-707c2 -52 67 -119 118 -140z" />
    <glyph glyph-name="v" unicode="v" 
d="M216 1076c170 -283 254 -568 322 -825c124 143 145 358 151 565c1 19 1 44 1 69c0 46 -1 94 -3 128h251c3 -16 6 -133 6 -191c0 -317 -104 -610 -286 -756c-71 -57 -108 -74 -316 -74c0 258 -212 771 -338 954z" />
    <glyph glyph-name="w" unicode="w" 
d="M17 984l249 72c70 -208 68 -396 69 -568v-31c0 -94 -17 -216 -28 -248c88 0 136 143 136 254v372l210 1s5 -78 5 -243c0 -96 -2 -222 -7 -379h5c78 0 115 147 115 399c0 174 -4 291 -14 400h246c2 -32 2 -53 2 -97v-87c0 -153 -1 -361 -42 -550
c-36 -164 -164 -279 -383 -279h-34s-18 66 -24 153c-34 -72 -130 -165 -327 -165h-6c-46 1 -52 6 -66 12c-10 82 3 521 -60 835c-11 54 -23 108 -46 149z" />
    <glyph glyph-name="x" unicode="x" 
d="M934 839c-40 -88 -186 -249 -276 -335c80 -103 204 -248 226 -261c4 -3 12 -18 46 -18c18 0 36 3 52 6l-2 -229c-18 -3 -42 -6 -60 -6c-42 0 -100 10 -140 38c-72 47 -178 179 -264 297l-332 -373l-170 161l364 394l-326 391l182 141l290 -372c60 68 108 104 178 227
c20 35 30 97 34 114l238 -1c-6 -49 -16 -120 -40 -174z" />
    <glyph glyph-name="y" unicode="y" 
d="M352 -164c52 0 166 140 186 234c-271 611 -340 681 -437 681c-20 0 -34 0 -44 -1l-1 261s42 2 76 2c192 0 256 -114 525 -688c51 287 59 410 59 688h256c0 -60 -1 -145 -15 -266c-37 -323 -165 -747 -295 -921c-121 -161 -203 -202 -350 -202c-214 0 -266 203 -270 376
h236c0 -114 26 -164 74 -164z" />
    <glyph glyph-name="z" unicode="z" 
d="M93 815l31 202c46 -5 157 -6 281 -6c186 0 402 3 472 5l77 -190c-33 -33 -500 -442 -552 -629l400 6h6c54 0 103 -13 162 -32l-44 -193c-45 13 -61 22 -126 22h-729v20c0 73 5 123 22 169c79 214 307 453 507 617c-68 -1 -101 -3 -202 -3c-125 0 -248 3 -305 12z" />
    <glyph glyph-name="A" unicode="A" 
d="M651 504c-26 143 -125 340 -126 494c-6 -168 -99 -373 -137 -512c60 13 180 13 263 18zM418 1325h224l334 -1081c24 -81 50 -165 50 -244h-276c0 59 -10 114 -25 167l-32 114c-152 -3 -237 1 -357 -29l-30 -90c-20 -61 -37 -119 -40 -162h-260c4 61 28 143 54 223z" />
    <glyph glyph-name="B" unicode="B" 
d="M66 837c0 177 -3 341 -12 471c81 6 223 17 336 17h18c222 0 381 -91 381 -311c0 -144 -52 -190 -127 -231c163 -45 307 -149 307 -375c0 -302 -176 -385 -343 -405c-39 -5 -80 -8 -119 -8c-74 0 -132 5 -217 5h-38h-194c0 198 8 413 8 837zM531 1012
c0 108 -86 111 -109 111h-4h-16c-39 0 -56 -2 -86 -5c3 -35 3 -73 3 -114c0 -54 -1 -112 -1 -170h38c73 0 175 12 175 170v8zM479 638c-49 0 -46 -2 -119 -2h-44c-2 -242 -3 -360 -4 -438c49 -3 88 -6 126 -6c30 0 60 2 95 6c32 4 178 40 178 222c0 172 -112 218 -232 218z
" />
    <glyph glyph-name="C" unicode="C" 
d="M566 1128c-115 0 -248 -136 -248 -500c0 -274 116 -430 222 -430h14c124 0 162 64 210 194l246 -137c-74 -158 -245 -258 -435 -258h-3c-111 0 -243 25 -337 119c-120 125 -179 292 -179 520c0 259 81 418 133 496c72 108 208 200 383 200c140 0 314 -63 402 -225
l-232 -125c-50 124 -90 146 -176 146z" />
    <glyph glyph-name="D" unicode="D" 
d="M403 1127h-30c-16 0 -28 0 -45 -3c1 -26 1 -56 1 -87c0 -63 -1 -84 -1 -153c0 -306 -3 -588 -4 -686c88 -3 39 -3 99 -3h3c40 0 183 2 249 158c19 45 27 136 27 191c0 381 -143 583 -299 583zM70 128c0 55 6 452 6 773v76c0 129 -4 252 -13 340c81 8 126 14 225 14
c295 0 417 -71 550 -265c84 -127 131 -305 131 -486c0 -331 -169 -560 -410 -583c-55 -5 -106 -7 -161 -7c-84 0 -217 7 -331 7c0 34 0 33 3 131z" />
    <glyph glyph-name="E" unicode="E" 
d="M102 1319c56 4 126 4 204 4h98h110c149 0 285 -3 359 -3h16v-202h-529v-269h338v-203h-338v-31c0 -207 -2 -332 -2 -411l416 2c56 0 125 27 125 27l72 -199c-48 -13 -89 -34 -187 -34h-682v1319z" />
    <glyph glyph-name="F" unicode="F" 
d="M382 0l-266 3v1321h685c102 0 147 -17 181 -34l-78 -203c-26 14 -48 27 -146 28h-70c-104 0 -128 0 -311 -1v-258c120 0 82 2 204 2c90 0 157 -18 197 -36l-68 -202c-37 17 -87 22 -132 22h-85c-30 0 -51 0 -116 -2c0 -123 5 -545 5 -640z" />
    <glyph glyph-name="G" unicode="G" 
d="M861 772c46 0 89 3 131 7v-193c0 -444 -123 -536 -301 -583c-45 -10 -109 -11 -151 -11c-364 0 -520 294 -520 649c0 242 53 439 184 569c100 90 214 118 329 118h20c214 -5 362 -91 437 -257l-234 -116c-36 118 -84 166 -216 166c-168 0 -259 -202 -259 -491
c0 -264 77 -432 249 -432s198 176 198 370l-64 -1c-71 0 -140 -5 -230 -39l-40 203c96 37 200 43 301 43c56 0 112 -2 166 -2z" />
    <glyph glyph-name="H" unicode="H" 
d="M317 1322l-1 -537c92 21 152 29 272 29h87c0 280 -1 338 -1 503h256v-1317h-255v599h-32c-146 0 -209 -3 -327 -29c0 -350 2 -385 2 -570h-258v1320z" />
    <glyph glyph-name="K" unicode="K" 
d="M588 782c120 -119 407 -550 458 -688l-236 -126c-46 111 -252 477 -382 606c0 0 -56 -62 -86 -134v-440h-258v1335h258v-464c103 145 427 468 464 505l196 -177c-182 -135 -354 -343 -414 -417z" />
    <glyph glyph-name="L" unicode="L" 
d="M157 -3v1328h256v-1118h426c59 3 70 6 114 21l72 -197c-47 -16 -109 -34 -184 -34h-684z" />
    <glyph glyph-name="M" unicode="M" 
d="M62 1323h204c76 -114 174 -303 236 -489c54 182 147 356 228 489h216c0 -398 2 -1323 2 -1323h-247l-2 596c0 104 25 302 25 302c-63 -123 -133 -310 -144 -347l-150 -2s-102 268 -150 349c0 0 32 -189 32 -302v-596h-250v1323z" />
    <glyph glyph-name="N" unicode="N" 
d="M691 0c-90 259 -237 559 -371 778v-208c0 -299 1 -418 1 -573h-246v1328l211 -7c126 -188 360 -580 410 -814l-7 274c0 190 3 377 12 551l244 -1c-6 -115 -8 -267 -8 -433c0 -231 4 -490 4 -725c0 -58 -1 -116 -1 -170h-249z" />
    <glyph glyph-name="O" unicode="O" 
d="M522 1350c161 0 452 -73 457 -703v-11c0 -167 -31 -324 -79 -419c-75 -147 -225 -233 -390 -233c-122 0 -271 41 -352 143c-90 112 -122 268 -122 452c0 352 60 511 130 608c66 92 200 160 356 163zM351 277c47 -74 85 -90 159 -90c79 0 128 62 159 139
c27 59 48 215 49 314v17c0 107 -9 256 -45 352c-40 106 -92 138 -152 138c-65 0 -103 -25 -143 -96c-47 -83 -81 -216 -81 -459c0 -97 13 -250 54 -315z" />
    <glyph glyph-name="P" unicode="P" 
d="M714 909c0 204 -117 208 -199 208h-9c-61 0 -105 -4 -150 -5v-71c0 -187 -2 -392 -2 -392c36 -1 71 -2 104 -2c116 0 256 29 256 262zM354 0h-250v1320c118 0 156 8 289 8c225 0 396 -13 511 -154c54 -66 72 -158 72 -250c0 -324 -124 -485 -468 -485
c-48 0 -100 1 -154 3v-442z" />
    <glyph glyph-name="Q" unicode="Q" 
d="M890 -183c-115 0 -274 61 -300 191c-29 -8 -49 -11 -89 -11c-116 0 -224 43 -303 126c-100 106 -148 293 -148 519c0 211 29 406 124 531c93 122 192 158 315 158c167 0 283 -66 362 -210c86 -156 91 -315 91 -428c0 -220 -38 -477 -172 -577c11 -74 28 -82 108 -83h11
c37 0 60 5 84 11l1 -221c-22 -5 -39 -6 -84 -6zM487 536c115 0 171 -59 203 -132c12 40 13 134 13 279v23c0 93 -2 196 -49 295c-33 69 -90 114 -162 114c-129 0 -198 -150 -198 -409v-66c0 -50 1 -158 23 -212c39 67 98 108 170 108zM566 211v4c0 34 -23 104 -93 104
c-32 0 -72 -11 -99 -49c15 -52 78 -72 116 -72h17c19 0 42 4 59 13z" />
    <glyph glyph-name="R" unicode="R" 
d="M699 552c78 -124 181 -275 237 -341c18 -16 66 -52 108 -63l-122 -192c-58 9 -118 59 -152 102c-97 109 -264 376 -320 472c-36 3 -73 10 -117 28v-558h-243v1136c0 68 -1 116 -5 178c42 4 157 15 218 15c250 0 469 -8 591 -161c48 -60 74 -154 74 -240
c0 -224 -125 -355 -269 -376zM706 906c0 170 -116 218 -310 218c-26 0 -34 0 -63 -1v-355c64 -27 123 -42 166 -42h8c170 0 199 78 199 180z" />
    <glyph glyph-name="S" unicode="S" 
d="M231 702c-110 50 -180 142 -180 304c0 220 164 322 419 322h9c240 0 436 -82 481 -250l-273 -102c-46 101 -132 142 -202 142c-86 0 -166 -36 -166 -104c0 -98 56 -122 114 -144c123 -48 194 -57 326 -118c108 -53 216 -158 216 -356c0 -300 -214 -405 -454 -405h-19
c-353 9 -475 203 -475 431l266 -2c0 -143 62 -220 214 -220c108 0 210 36 210 182c0 109 -71 165 -150 200c-116 51 -203 59 -336 120z" />
    <glyph glyph-name="T" unicode="T" 
d="M355 0v1118c-198 0 -240 -1 -316 -1v207c122 0 576 1 764 1c73 0 143 -9 167 -16l-60 -203s-52 12 -112 12h-183v-1118h-260z" />
    <glyph glyph-name="U" unicode="U" 
d="M701 1350l253 -28c-7 -50 -8 -85 -8 -127v-29c0 -148 3 -278 3 -391v-59c0 -237 -5 -463 -117 -595c-82 -97 -211 -126 -340 -131c-308 0 -406 169 -424 466c-5 77 -7 201 -7 339c0 175 3 373 9 534h258c-4 -168 -8 -397 -8 -586v-141c0 -64 1 -117 6 -154
c14 -94 24 -244 164 -248c200 9 203 231 203 518c0 126 -5 275 -5 448c0 72 3 121 13 184z" />
    <glyph glyph-name="V" unicode="V" 
d="M368 0c-24 196 -270 1038 -364 1266l236 89c101 -257 186 -648 284 -1024c74 320 168 764 269 1017l227 -79c-98 -236 -333 -1065 -351 -1269h-301z" />
    <glyph glyph-name="W" unicode="W" 
d="M395 0h-241c-43 173 -96 1056 -142 1312l236 29c26 -193 28 -291 31 -355c11 -246 9 -574 19 -670c0 0 119 600 125 672c21 0 53 -3 86 -3c39 0 81 4 110 19c29 -218 120 -685 120 -685c17 139 12 407 27 643c4 65 1 192 38 381l224 -38c-52 -256 -127 -1123 -160 -1305
h-246s-70 397 -102 585c-47 -230 -120 -573 -125 -585z" />
    <glyph glyph-name="X" unicode="X" 
d="M789 1371l208 -117l-346 -566c171 -272 214 -436 356 -576l-166 -157c-152 150 -176 252 -328 499l-284 -508l-210 132l346 592c-120 208 -226 389 -366 548l191 155c130 -149 214 -303 317 -478z" />
    <glyph glyph-name="Y" unicode="Y" 
d="M368 0v138c0 92 7 354 7 475c-79 113 -310 501 -361 609l219 141c40 -79 191 -371 278 -511c98 142 215 435 253 524l228 -136c-47 -96 -297 -538 -367 -638c0 -48 -2 -97 -2 -152c-3 -135 -5 -279 -5 -322v-128h-250z" />
    <glyph glyph-name="Z" unicode="Z" 
d="M123 0l-95 136l644 983c-214 0 -469 -5 -583 -5l-1 210c120 0 542 4 730 4c75 0 121 -13 140 -16v-7c0 -39 16 -145 16 -179v-8l-578 -901l354 -1c85 0 112 5 177 26l71 -215c-45 -16 -114 -27 -189 -27h-679h-7z" />
    <glyph glyph-name="I" unicode="I" 
d="M132 1324c156 4 257 5 353 5c105 0 205 -1 368 -3l-1 -211c-123 0 -135 5 -230 5v-901c46 0 31 1 82 1c45 0 92 -1 144 -4l1 -217c-85 5 -147 6 -210 6c-47 0 -96 -1 -155 -1c-74 0 -195 -7 -350 -7v216c85 4 123 5 180 5h52v901c-66 -1 -122 -1 -228 -7z" />
    <glyph glyph-name="J" unicode="J" 
d="M414 -8c-275 0 -390 223 -392 443l260 -1c6 -153 60 -230 126 -230c118 0 164 129 164 468c0 97 -17 294 -29 434c-49 0 -67 2 -104 2c-104 -3 -116 -12 -143 -18l-37 212c30 7 61 19 179 22c145 0 362 -1 518 -1l-3 -217c-48 0 -94 4 -144 4c16 -182 23 -326 23 -452
c0 -361 -88 -666 -418 -666z" />
    <glyph glyph-name="zero" unicode="0" 
d="M348 581l281 389c-31 100 -45 135 -116 135c-154 0 -167 -291 -167 -474c0 -23 2 -50 2 -50zM665 726l-288 -394c26 -95 54 -141 122 -141c157 0 167 251 167 486c0 28 -1 49 -1 49zM515 1312c327 0 405 -336 405 -652c0 -324 -72 -677 -408 -677
c-345 0 -421 303 -421 633c0 335 67 696 424 696z" />
    <glyph glyph-name="period" unicode="." 
d="M344 313h315v-313h-315v313z" />
    <glyph glyph-name="comma" unicode="," 
d="M332 309l326 2l1 -300v-3c0 -197 -87 -366 -254 -442l-98 181c92 51 142 121 142 259l-113 -1z" />
    <glyph glyph-name="eacute" unicode="&#xe9;" 
d="M225 1294c143 48 317 160 432 268l134 -172c-111 -112 -333 -223 -476 -270zM336 606c113 20 207 24 340 24c-5 131 -77 188 -165 188c-102 0 -169 -96 -175 -212zM509 1021c319 0 428 -208 428 -544c0 -20 -1 -43 -1 -43c-285 -4 -498 -18 -600 -38
c16 -111 104 -200 196 -200c106 0 154 36 222 110l178 -156c-101 -112 -167 -160 -406 -160c-286 0 -448 213 -448 526c0 286 148 505 431 505z" />
    <glyph glyph-name="egrave" unicode="&#xe8;" 
d="M837 1294l-90 -174c-143 47 -365 158 -476 270l134 172c115 -108 289 -220 432 -268zM336 606c113 20 207 24 340 24c-5 131 -77 188 -165 188c-102 0 -169 -96 -175 -212zM509 1021c319 0 428 -208 428 -544c0 -20 -1 -43 -1 -43c-285 -4 -498 -18 -600 -38
c16 -111 104 -200 196 -200c106 0 154 36 222 110l178 -156c-101 -112 -167 -160 -406 -160c-286 0 -448 213 -448 526c0 286 148 505 431 505z" />
    <glyph glyph-name="ecircumflex" unicode="&#xea;" 
d="M529 1579l378 -291l-138 -156l-240 201l-229 -197l-140 146zM336 606c113 20 207 24 340 24c-5 131 -77 188 -165 188c-102 0 -169 -96 -175 -212zM509 1021c319 0 428 -208 428 -544c0 -20 -1 -43 -1 -43c-285 -4 -498 -18 -600 -38c16 -111 104 -200 196 -200
c106 0 154 36 222 110l178 -156c-101 -112 -167 -160 -406 -160c-286 0 -448 213 -448 526c0 286 148 505 431 505z" />
    <glyph glyph-name="edieresis" unicode="&#xeb;" 
d="M609 1423l282 -3v-238l-282 1v240zM189 1423h279v-240h-279v240zM336 606c113 20 207 24 340 24c-5 131 -77 188 -165 188c-102 0 -169 -96 -175 -212zM509 1021c319 0 428 -208 428 -544c0 -20 -1 -43 -1 -43c-285 -4 -498 -18 -600 -38c16 -111 104 -200 196 -200
c106 0 154 36 222 110l178 -156c-101 -112 -167 -160 -406 -160c-286 0 -448 213 -448 526c0 286 148 505 431 505z" />
    <glyph glyph-name="agrave" unicode="&#xe0;" 
d="M804 1294l-90 -174c-143 47 -365 158 -476 270l134 172c115 -108 289 -220 432 -268zM318 317c0 -98 69 -128 133 -128c110 0 192 102 210 158v47c-36 42 -104 76 -168 76c-66 0 -175 -43 -175 -153zM917 316c0 -92 19 -144 76 -189l-125 -149c-52 40 -86 51 -128 123
c-76 -78 -158 -112 -340 -112c-171 0 -344 131 -344 313c0 90 30 177 89 238c95 97 206 130 348 130c64 0 130 -21 168 -47c0 166 -116 197 -176 197c-115 0 -209 -33 -283 -111l-122 208c174 110 235 108 413 111c225 0 424 -135 424 -373v-339z" />
    <glyph glyph-name="aacute" unicode="&#xe1;" 
d="M192 1294c143 48 317 160 432 268l134 -172c-111 -112 -333 -223 -476 -270zM318 317c0 -98 69 -128 133 -128c110 0 192 102 210 158v47c-36 42 -104 76 -168 76c-66 0 -175 -43 -175 -153zM917 316c0 -92 19 -144 76 -189l-125 -149c-52 40 -86 51 -128 123
c-76 -78 -158 -112 -340 -112c-171 0 -344 131 -344 313c0 90 30 177 89 238c95 97 206 130 348 130c64 0 130 -21 168 -47c0 166 -116 197 -176 197c-115 0 -209 -33 -283 -111l-122 208c174 110 235 108 413 111c225 0 424 -135 424 -373v-339z" />
    <glyph glyph-name="acircumflex" unicode="&#xe2;" 
d="M496 1579l378 -291l-138 -156l-240 201l-229 -197l-140 146zM318 317c0 -98 69 -128 133 -128c110 0 192 102 210 158v47c-36 42 -104 76 -168 76c-66 0 -175 -43 -175 -153zM917 316c0 -92 19 -144 76 -189l-125 -149c-52 40 -86 51 -128 123
c-76 -78 -158 -112 -340 -112c-171 0 -344 131 -344 313c0 90 30 177 89 238c95 97 206 130 348 130c64 0 130 -21 168 -47c0 166 -116 197 -176 197c-115 0 -209 -33 -283 -111l-122 208c174 110 235 108 413 111c225 0 424 -135 424 -373v-339z" />
    <glyph glyph-name="atilde" unicode="&#xe3;" 
d="M333 1462c216 0 235 -132 325 -132c50 0 80 31 86 100l177 -54c-21 -96 -79 -224 -241 -224c-198 0 -219 130 -320 130c-42 0 -79 -37 -88 -100l-184 78c33 93 104 202 245 202zM318 317c0 -98 69 -128 133 -128c110 0 192 102 210 158v47c-36 42 -104 76 -168 76
c-66 0 -175 -43 -175 -153zM917 316c0 -92 19 -144 76 -189l-125 -149c-52 40 -86 51 -128 123c-76 -78 -158 -112 -340 -112c-171 0 -344 131 -344 313c0 90 30 177 89 238c95 97 206 130 348 130c64 0 130 -21 168 -47c0 166 -116 197 -176 197c-115 0 -209 -33 -283 -111
l-122 208c174 110 235 108 413 111c225 0 424 -135 424 -373v-339z" />
    <glyph glyph-name="adieresis" unicode="&#xe4;" 
d="M576 1423l282 -3v-238l-282 1v240zM156 1423h279v-240h-279v240zM318 317c0 -98 69 -128 133 -128c110 0 192 102 210 158v47c-36 42 -104 76 -168 76c-66 0 -175 -43 -175 -153zM917 316c0 -92 19 -144 76 -189l-125 -149c-52 40 -86 51 -128 123
c-76 -78 -158 -112 -340 -112c-171 0 -344 131 -344 313c0 90 30 177 89 238c95 97 206 130 348 130c64 0 130 -21 168 -47c0 166 -116 197 -176 197c-115 0 -209 -33 -283 -111l-122 208c174 110 235 108 413 111c225 0 424 -135 424 -373v-339z" />
    <glyph glyph-name="aring" unicode="&#xe5;" 
d="M498 1385c-53 0 -86 -31 -86 -62s34 -63 86 -63s86 32 86 63s-33 62 -86 62zM223 1323c0 116 128 204 276 204s275 -88 275 -204c0 -115 -115 -195 -275 -195c-153 0 -276 81 -276 195zM318 317c0 -98 69 -128 133 -128c110 0 192 102 210 158v47c-36 42 -104 76 -168 76
c-66 0 -175 -43 -175 -153zM917 316c0 -92 19 -144 76 -189l-125 -149c-52 40 -86 51 -128 123c-76 -78 -158 -112 -340 -112c-171 0 -344 131 -344 313c0 90 30 177 89 238c95 97 206 130 348 130c64 0 130 -21 168 -47c0 166 -116 197 -176 197c-115 0 -209 -33 -283 -111
l-122 208c174 110 235 108 413 111c225 0 424 -135 424 -373v-339z" />
    <glyph glyph-name="ae" unicode="&#xe6;" 
d="M648 675v-21c38 0 100 0 144 6c-6 104 -31 148 -90 148c-40 0 -54 -48 -54 -133zM256 322c0 -108 28 -160 66 -160c90 0 85 137 96 165v147c-43 25 -50 34 -104 34c-33 0 -58 -85 -58 -186zM722 0c-158 0 -196 75 -217 97c-30 -34 -90 -93 -193 -93
c-63 0 -128 15 -182 53c-81 57 -107 154 -107 252c0 167 64 352 268 352c77 0 89 -16 127 -32c0 97 -5 179 -111 179h-9c-53 0 -71 -20 -100 -106l-198 82c70 186 182 234 300 234c56 0 102 -3 163 -50c19 -16 38 -40 50 -59c17 26 76 109 178 109c201 0 299 -222 307 -448
v-116c-98 -4 -236 -7 -318 -7h-32l-2 -173c16 -42 27 -66 66 -66c75 0 88 36 94 82l190 -72s-49 -218 -274 -218z" />
    <glyph glyph-name="colon" unicode=":" 
d="M341 1013h315v-313h-315v313zM341 315h315v-313h-315v313z" />
    <glyph glyph-name="semicolon" unicode=";" 
d="M334 1013h315v-313h-315v313zM324 309l326 2l1 -300v-3c0 -197 -87 -366 -254 -442l-98 181c92 51 142 121 142 259l-113 -1z" />
    <glyph glyph-name="exclam" unicode="!" 
d="M682 1341l-16 -910l-283 -2l-16 912h315zM350 270h350v-270h-350v270z" />
    <glyph glyph-name="space" unicode=" " 
 />
    <glyph glyph-name="quotesingle" unicode="'" 
d="M372 1464h279c0 -283 -9 -459 -43 -660l-222 17c10 55 20 159 20 227c0 87 -11 136 -34 182v234z" />
    <glyph glyph-name="Agrave" unicode="&#xc0;" 
d="M824 1509l-90 -174c-143 47 -365 158 -476 270l134 172c115 -108 289 -220 432 -268zM651 504c-26 143 -125 340 -126 494c-6 -168 -99 -373 -137 -512c60 13 180 13 263 18zM418 1325h224l334 -1081c24 -81 50 -165 50 -244h-276c0 59 -10 114 -25 167l-32 114
c-152 -3 -237 1 -357 -29l-30 -90c-20 -61 -37 -119 -40 -162h-260c4 61 28 143 54 223z" />
    <glyph glyph-name="Aacute" unicode="&#xc1;" 
d="M212 1509c143 48 317 160 432 268l134 -172c-111 -112 -333 -223 -476 -270zM651 504c-26 143 -125 340 -126 494c-6 -168 -99 -373 -137 -512c60 13 180 13 263 18zM418 1325h224l334 -1081c24 -81 50 -165 50 -244h-276c0 59 -10 114 -25 167l-32 114
c-152 -3 -237 1 -357 -29l-30 -90c-20 -61 -37 -119 -40 -162h-260c4 61 28 143 54 223z" />
    <glyph glyph-name="Acircumflex" unicode="&#xc2;" 
d="M516 1794l378 -291l-138 -156l-240 201l-229 -197l-140 146zM651 504c-26 143 -125 340 -126 494c-6 -168 -99 -373 -137 -512c60 13 180 13 263 18zM418 1325h224l334 -1081c24 -81 50 -165 50 -244h-276c0 59 -10 114 -25 167l-32 114c-152 -3 -237 1 -357 -29l-30 -90
c-20 -61 -37 -119 -40 -162h-260c4 61 28 143 54 223z" />
    <glyph glyph-name="Atilde" unicode="&#xc3;" 
d="M353 1677c216 0 235 -132 325 -132c50 0 80 31 86 100l177 -54c-21 -96 -79 -224 -241 -224c-198 0 -219 130 -320 130c-42 0 -79 -37 -88 -100l-184 78c33 93 104 202 245 202zM651 504c-26 143 -125 340 -126 494c-6 -168 -99 -373 -137 -512c60 13 180 13 263 18z
M418 1325h224l334 -1081c24 -81 50 -165 50 -244h-276c0 59 -10 114 -25 167l-32 114c-152 -3 -237 1 -357 -29l-30 -90c-20 -61 -37 -119 -40 -162h-260c4 61 28 143 54 223z" />
    <glyph glyph-name="Adieresis" unicode="&#xc4;" 
d="M596 1638l282 -3v-238l-282 1v240zM176 1638h279v-240h-279v240zM651 504c-26 143 -125 340 -126 494c-6 -168 -99 -373 -137 -512c60 13 180 13 263 18zM418 1325h224l334 -1081c24 -81 50 -165 50 -244h-276c0 59 -10 114 -25 167l-32 114c-152 -3 -237 1 -357 -29
l-30 -90c-20 -61 -37 -119 -40 -162h-260c4 61 28 143 54 223z" />
    <glyph glyph-name="Aring" unicode="&#xc5;" 
d="M521 1561c-53 0 -86 -31 -86 -62s34 -63 86 -63s86 32 86 63s-33 62 -86 62zM651 504c-26 143 -125 340 -126 494c-6 -168 -99 -373 -137 -512c60 13 180 13 263 18zM246 1499c0 116 128 204 276 204s275 -88 275 -204c0 -83 -60 -148 -154 -178l333 -1077
c24 -81 50 -165 50 -244h-276c0 59 -10 114 -25 167l-32 114c-152 -3 -237 1 -357 -29l-30 -90c-20 -61 -37 -119 -40 -162h-260c4 61 28 143 54 223l356 1095c-100 28 -170 95 -170 181z" />
    <glyph glyph-name="igrave" unicode="&#xec;" 
d="M798 1294l-90 -174c-143 47 -365 158 -476 270l134 172c115 -108 289 -220 432 -268zM354 1013h255c0 -273 1 -739 1 -739c0 -64 17 -92 109 -92c93 0 153 33 213 91l97 -190c-86 -71 -237 -101 -361 -101c-85 0 -177 14 -221 38c-85 47 -93 127 -93 186v607
c-49 0 -139 -6 -234 -28l-29 186c94 28 183 42 263 42z" />
    <glyph glyph-name="iacute" unicode="&#xed;" 
d="M186 1294c143 48 317 160 432 268l134 -172c-111 -112 -333 -223 -476 -270zM354 1013h255c0 -273 1 -739 1 -739c0 -64 17 -92 109 -92c93 0 153 33 213 91l97 -190c-86 -71 -237 -101 -361 -101c-85 0 -177 14 -221 38c-85 47 -93 127 -93 186v607
c-49 0 -139 -6 -234 -28l-29 186c94 28 183 42 263 42z" />
    <glyph glyph-name="icircumflex" unicode="&#xee;" 
d="M490 1579l378 -291l-138 -156l-240 201l-229 -197l-140 146zM354 1013h255c0 -273 1 -739 1 -739c0 -64 17 -92 109 -92c93 0 153 33 213 91l97 -190c-86 -71 -237 -101 -361 -101c-85 0 -177 14 -221 38c-85 47 -93 127 -93 186v607c-49 0 -139 -6 -234 -28l-29 186
c94 28 183 42 263 42z" />
    <glyph glyph-name="idieresis" unicode="&#xef;" 
d="M570 1423l282 -3v-238l-282 1v240zM150 1423h279v-240h-279v240zM354 1013h255c0 -273 1 -739 1 -739c0 -64 17 -92 109 -92c93 0 153 33 213 91l97 -190c-86 -71 -237 -101 -361 -101c-85 0 -177 14 -221 38c-85 47 -93 127 -93 186v607c-49 0 -139 -6 -234 -28l-29 186
c94 28 183 42 263 42z" />
    <glyph glyph-name="ccedilla" unicode="&#xe7;" 
d="M327 528c0 -319 168 -324 215 -324h12c100 0 154 65 202 146l226 -134c-58 -129 -164 -201 -331 -219c0 -21 -1 -48 -1 -50c97 -5 183 -62 183 -176c0 -130 -114 -202 -272 -202c-66 0 -158 18 -214 54l60 147c33 -18 78 -29 129 -29c36 0 70 11 73 49v2
c0 29 -23 56 -71 56s-81 -3 -109 -13v166c-66 9 -132 30 -188 72c-130 101 -170 255 -170 454c0 340 178 491 493 491c95 0 192 -19 255 -61c60 -40 106 -99 128 -151l-220 -102c-10 38 -41 103 -181 103c-147 0 -219 -136 -219 -279z" />
    <glyph glyph-name="AE" unicode="&#xc6;" 
d="M1008 32c-47 -25 -112 -37 -187 -37h-342c-11 155 -21 227 -21 227c-18 2 -33 3 -47 3c-28 0 -109 -2 -143 -10c-17 -71 -24 -144 -34 -215h-234c22 182 177 894 272 1323l145 -3c43 2 97 2 157 2h125h260v-206h-17c-83 0 -71 -2 -194 -2h-142l24 -268c51 1 40 4 125 4
h106v-208h-106c-82 0 -64 -3 -109 -4l48 -435h157c61 0 99 25 99 25zM441 434l-43 563c-43 -195 -79 -385 -106 -569c29 3 98 6 149 6z" />
    <glyph glyph-name="Ccedilla" unicode="&#xc7;" 
d="M566 1128c-115 0 -248 -136 -248 -500c0 -274 116 -430 222 -430h14c124 0 162 64 210 194l246 -137c-59 -127 -181 -217 -325 -247c-1 -15 -1 -69 -1 -72c97 -5 182 -62 182 -176c0 -130 -113 -202 -271 -202c-66 0 -158 18 -214 54l60 147c33 -18 78 -29 129 -29
c36 0 70 11 73 49v2c0 29 -24 56 -72 56s-81 -3 -109 -13v182c-81 14 -163 46 -227 110c-120 125 -179 292 -179 520c0 259 81 418 133 496c72 108 208 200 383 200c140 0 314 -63 402 -225l-232 -125c-50 124 -90 146 -176 146z" />
    <glyph glyph-name="Egrave" unicode="&#xc8;" 
d="M785 1509l-90 -174c-143 47 -365 158 -476 270l134 172c115 -108 289 -220 432 -268zM102 1319c56 4 126 4 204 4h98h110c149 0 285 -3 359 -3h16v-202h-529v-269h338v-203h-338v-31c0 -207 -2 -332 -2 -411l416 2c56 0 125 27 125 27l72 -199c-48 -13 -89 -34 -187 -34
h-682v1319z" />
    <glyph glyph-name="Eacute" unicode="&#xc9;" 
d="M173 1509c143 48 317 160 432 268l134 -172c-111 -112 -333 -223 -476 -270zM102 1319c56 4 126 4 204 4h98h110c149 0 285 -3 359 -3h16v-202h-529v-269h338v-203h-338v-31c0 -207 -2 -332 -2 -411l416 2c56 0 125 27 125 27l72 -199c-48 -13 -89 -34 -187 -34h-682
v1319z" />
    <glyph glyph-name="Ecircumflex" unicode="&#xca;" 
d="M477 1794l378 -291l-138 -156l-240 201l-229 -197l-140 146zM102 1319c56 4 126 4 204 4h98h110c149 0 285 -3 359 -3h16v-202h-529v-269h338v-203h-338v-31c0 -207 -2 -332 -2 -411l416 2c56 0 125 27 125 27l72 -199c-48 -13 -89 -34 -187 -34h-682v1319z" />
    <glyph glyph-name="Edieresis" unicode="&#xcb;" 
d="M557 1638l282 -3v-238l-282 1v240zM137 1638h279v-240h-279v240zM102 1319c56 4 126 4 204 4h98h110c149 0 285 -3 359 -3h16v-202h-529v-269h338v-203h-338v-31c0 -207 -2 -332 -2 -411l416 2c56 0 125 27 125 27l72 -199c-48 -13 -89 -34 -187 -34h-682v1319z" />
    <glyph glyph-name="Igrave" unicode="&#xcc;" 
d="M802 1509l-90 -174c-143 47 -365 158 -476 270l134 172c115 -108 289 -220 432 -268zM132 1324c156 4 257 5 353 5c105 0 205 -1 368 -3l-1 -211c-123 0 -135 5 -230 5v-901c46 0 31 1 82 1c45 0 92 -1 144 -4l1 -217c-85 5 -147 6 -210 6c-47 0 -96 -1 -155 -1
c-74 0 -195 -7 -350 -7v216c85 4 123 5 180 5h52v901c-66 -1 -122 -1 -228 -7z" />
    <glyph glyph-name="Iacute" unicode="&#xcd;" 
d="M190 1509c143 48 317 160 432 268l134 -172c-111 -112 -333 -223 -476 -270zM132 1324c156 4 257 5 353 5c105 0 205 -1 368 -3l-1 -211c-123 0 -135 5 -230 5v-901c46 0 31 1 82 1c45 0 92 -1 144 -4l1 -217c-85 5 -147 6 -210 6c-47 0 -96 -1 -155 -1
c-74 0 -195 -7 -350 -7v216c85 4 123 5 180 5h52v901c-66 -1 -122 -1 -228 -7z" />
    <glyph glyph-name="Icircumflex" unicode="&#xce;" 
d="M494 1794l378 -291l-138 -156l-240 201l-229 -197l-140 146zM132 1324c156 4 257 5 353 5c105 0 205 -1 368 -3l-1 -211c-123 0 -135 5 -230 5v-901c46 0 31 1 82 1c45 0 92 -1 144 -4l1 -217c-85 5 -147 6 -210 6c-47 0 -96 -1 -155 -1c-74 0 -195 -7 -350 -7v216
c85 4 123 5 180 5h52v901c-66 -1 -122 -1 -228 -7z" />
    <glyph glyph-name="Idieresis" unicode="&#xcf;" 
d="M574 1638l282 -3v-238l-282 1v240zM154 1638h279v-240h-279v240zM132 1324c156 4 257 5 353 5c105 0 205 -1 368 -3l-1 -211c-123 0 -135 5 -230 5v-901c46 0 31 1 82 1c45 0 92 -1 144 -4l1 -217c-85 5 -147 6 -210 6c-47 0 -96 -1 -155 -1c-74 0 -195 -7 -350 -7v216
c85 4 123 5 180 5h52v901c-66 -1 -122 -1 -228 -7z" />
    <glyph glyph-name="quotedbl" unicode="&#x22;" 
d="M610 1464h256c0 -283 -9 -459 -43 -660l-199 17c10 55 15 142 15 210c0 87 -7 149 -29 204v229zM188 1464h256c0 -283 -9 -459 -43 -660l-199 17c10 55 15 142 15 210c0 87 -7 149 -29 204v229z" />
    <glyph glyph-name="numbersign" unicode="#" 
d="M438 782l-26 -224l152 -1l18 221zM368 -19l-238 4c7 113 15 206 34 373c-53 -1 -96 -10 -124 -19l-46 182c56 20 132 29 198 34c15 80 17 144 26 223l-18 1c-65 -4 -115 -9 -150 -22l-54 184c65 25 148 29 232 34c22 184 24 214 32 359c29 0 142 -2 180 -2
c19 0 36 0 50 -1c-7 -121 -13 -209 -28 -353l136 -4c19 163 29 229 48 348l228 1c-25 -121 -25 -187 -44 -345h122v-198l-140 4l-24 -227l162 1l-4 -196l-184 3c-22 -197 -33 -267 -42 -388l-230 -2c11 112 24 210 44 386l-136 -1c-15 -150 -30 -379 -30 -379z" />
    <glyph glyph-name="dollar" unicode="$" 
d="M238 703c-108 45 -176 129 -176 276c0 182 164 278 356 287l-8 202l249 -14l-23 -191c140 -15 260 -88 314 -210l-222 -90c-8 61 -50 81 -104 89l-14 -250c60 -20 94 -32 144 -54c105 -48 211 -144 211 -324c0 -250 -175 -356 -401 -360l-4 -204l-233 9l21 204
c-231 36 -310 206 -310 375l247 1c-2 -15 -3 -29 -3 -41c0 -68 35 -114 83 -125l23 361c-40 11 -102 38 -150 59zM415 1063c-59 0 -97 -43 -97 -93c0 -62 23 -97 85 -113zM574 262c88 13 139 58 139 165c0 89 -34 113 -119 151z" />
    <glyph glyph-name="oe" unicode="&#x153;" 
d="M996 218c0 0 -85 -218 -288 -218c-92 0 -168 40 -221 95c-24 -32 -77 -95 -151 -95c-56 0 -125 5 -205 91c-103 111 -107 289 -107 368c0 46 1 126 11 176c21 123 83 382 292 382c79 0 118 -27 159 -63c11 -9 18 -17 23 -23c23 37 67 87 182 87c201 0 299 -222 307 -448
v-116c-98 -4 -236 -7 -318 -7h-32l-2 -173c16 -42 27 -66 66 -66c75 0 88 36 94 82zM648 675v-21c38 0 100 0 144 6c-6 104 -23 148 -101 148c-40 0 -43 -48 -43 -133zM330 208c52 0 80 71 80 130l2 360c0 22 -4 114 -76 114c-28 0 -81 -125 -84 -338v-18
c0 -94 26 -248 78 -248z" />
    <glyph glyph-name="bracketleft" unicode="[" 
d="M844 1483l28 -206c-81 -8 -157 -8 -290 -12v-1320c77 3 161 3 176 3h10c50 0 103 -5 114 -8l6 -208c-25 3 -65 9 -136 9c-59 0 -339 -2 -432 -2c0 178 2 261 2 441c0 90 -1 211 -2 390c0 175 -2 351 -2 482v421c93 0 371 4 422 4c72 3 81 4 104 6z" />
    <glyph glyph-name="bracketright" unicode="]" 
d="M199 1483c23 -2 32 -3 104 -6c51 0 330 -4 423 -4v-421c0 -131 -2 -307 -2 -482c-1 -179 -2 -300 -2 -390c0 -180 2 -263 2 -441c-93 0 -374 2 -433 2c-71 0 -111 -6 -136 -9l6 208c11 3 64 8 114 8h10c15 0 99 0 176 -3l1 1320c-133 4 -210 4 -291 12z" />
    <glyph glyph-name="parenleft" unicode="(" 
d="M893 1250h-7c-263 0 -412 -183 -412 -634c0 -443 190 -627 419 -628l-1 -250c-360 3 -687 262 -687 874c0 613 257 859 688 872v-234z" />
    <glyph glyph-name="parenright" unicode=")" 
d="M146 1250v234c431 -13 688 -259 688 -872c0 -612 -327 -871 -687 -874l-1 250c229 1 419 185 419 628c0 451 -150 634 -413 634h-6z" />
    <glyph glyph-name="hyphen" unicode="-" 
d="M82 654c45 2 95 3 145 3c100 0 201 -3 269 -3h119c82 0 234 -1 341 -2h18v-245h-18c-135 3 -337 3 -462 3c-43 0 -134 3 -234 3c-57 0 -117 -1 -172 -4v122z" />
    <glyph glyph-name="plus" unicode="+" 
d="M60 616c48 9 78 10 143 10h39h160v391l246 1l-2 -391c126 0 180 -2 242 -2h82v-234h-14c-6 0 -95 0 -305 3l1 -394h-252v391h-89c-133 0 -192 -1 -249 -9z" />
    <glyph glyph-name="less" unicode="&#x3c;" 
d="M934 155l-166 -204c-24 36 -76 82 -124 120c-95 79 -502 306 -528 324l-2 226c157 129 469 355 602 433c30 17 51 31 86 42l130 -207c-161 -85 -381 -253 -540 -376c143 -101 462 -234 542 -358z" />
    <glyph glyph-name="greater" unicode="&#x3e;" 
d="M112 158c80 124 399 257 542 358c-159 123 -379 291 -540 376l130 207c35 -11 56 -25 86 -42c133 -78 445 -304 602 -433l-2 -226c-26 -18 -433 -245 -528 -324c-48 -38 -100 -84 -124 -120z" />
    <glyph glyph-name="slash" unicode="/" 
d="M64 -50c128 277 505 1162 640 1518l218 -96c-138 -352 -518 -1239 -638 -1521z" />
    <glyph glyph-name="one" unicode="1" 
d="M525 1322l242 -45v-1286h-258l-2 962c-68 -85 -169 -189 -299 -262l-144 214c307 154 453 402 461 417z" />
    <glyph glyph-name="two" unicode="2" 
d="M363 864l-251 -42c-9 29 -18 76 -20 112v25c0 191 145 347 401 347c270 0 422 -111 422 -381c0 -198 -119 -302 -199 -387c-55 -55 -300 -267 -300 -323h516v-215h-860c0 30 -2 62 -2 95c0 26 1 53 6 81c18 97 98 198 206 299c125 115 386 280 386 451
c0 116 -57 169 -160 169c-74 0 -161 -44 -161 -144c0 -25 4 -54 16 -87z" />
    <glyph glyph-name="three" unicode="3" 
d="M54 335h251c0 -116 88 -144 168 -144c120 0 193 94 193 188c0 110 -45 152 -99 187c-58 38 -147 55 -227 55v200h16c129 0 247 59 247 188c0 66 -54 113 -148 113c-108 0 -165 -108 -183 -144l-207 136c5 15 102 206 382 206h11c237 0 399 -72 399 -294
c0 -128 -101 -269 -200 -288c183 -59 267 -190 267 -360c0 -138 -34 -210 -114 -290c-72 -72 -185 -110 -344 -110c-282 0 -412 153 -412 357z" />
    <glyph glyph-name="four" unicode="4" 
d="M573 603v325c-73 -129 -174 -240 -256 -327zM31 558c34 46 471 482 550 748l249 2v-705h127v-210h-127v-393h-257v390l-452 -2z" />
    <glyph glyph-name="five" unicode="5" 
d="M471 709c-120 0 -175 -91 -189 -111l-190 80l60 610l676 -2l-1 -197h-439l-16 -199s40 10 118 10c57 0 134 -4 202 -37c111 -59 232 -155 232 -415c0 -318 -212 -448 -452 -450h-2c-188 0 -320 76 -400 236l228 110c28 -78 90 -134 172 -134c90 0 192 64 192 240
c0 160 -89 259 -191 259z" />
    <glyph glyph-name="six" unicode="6" 
d="M840 1106c-213 -21 -368 -63 -459 -240c-31 -59 -39 -129 -41 -158c0 0 66 87 186 87c264 0 393 -157 393 -388c0 -253 -169 -410 -432 -410c-261 0 -423 215 -423 507c0 500 241 778 722 828zM327 491c0 -192 44 -291 166 -291c85 0 172 82 172 206
c0 118 -73 188 -139 188c-105 0 -153 -38 -199 -103z" />
    <glyph glyph-name="seven" unicode="7" 
d="M151 1292c84 0 192 -6 269 -6c151 0 316 7 459 7h41l100 -163c-298 -468 -465 -676 -465 -1130h-261c0 407 161 674 450 1073c-87 -3 -190 -3 -281 -3c-63 0 -88 0 -151 3c-2 -1 -16 -67 -20 -104l-254 64c19 59 81 193 113 259z" />
    <glyph glyph-name="eight" unicode="8" 
d="M505 203c69 0 193 47 193 185c0 81 -61 184 -193 244c-132 -60 -193 -163 -193 -244c0 -138 124 -185 193 -185zM505 840c108 23 143 104 143 150c0 95 -77 101 -143 101s-143 -6 -143 -101c0 -46 35 -127 143 -150zM505 1293c261 0 393 -120 393 -308
c0 -103 -85 -223 -174 -249c122 -52 232 -176 232 -358c0 -237 -192 -387 -451 -387s-451 150 -451 387c0 182 110 306 232 358c-89 26 -174 146 -174 249c0 188 132 308 393 308z" />
    <glyph glyph-name="nine" unicode="9" 
d="M487 1106c-110 0 -163 -80 -163 -148c0 -108 81 -174 173 -174c96 0 148 42 186 86c-16 150 -92 236 -196 236zM68 955c0 200 169 347 411 347c394 0 466 -290 466 -658c0 -324 -78 -644 -458 -646h-3c-243 0 -392 112 -457 312l250 84c45 -145 101 -189 215 -189
c138 0 200 148 200 376c0 16 -2 50 -2 50c-27 -20 -81 -48 -210 -48c-214 0 -412 147 -412 372z" />
    <glyph glyph-name="equal" unicode="=" 
d="M54 394c140 8 252 8 366 8c178 0 312 -8 480 -8v-224c-174 0 -318 4 -500 4c-50 0 -100 2 -152 2c-60 0 -124 -2 -192 -6zM48 861c143 -9 254 -12 348 -12c192 0 301 10 499 10l2 -220c-193 0 -304 -12 -501 -12c-96 0 -204 7 -349 16c0 30 -1 80 -1 127c0 35 1 69 2 91z
" />
    <glyph glyph-name="backslash" unicode="\" 
d="M922 -50l-218 -99c-120 282 -502 1169 -640 1521l220 96c135 -356 510 -1241 638 -1518z" />
    <glyph glyph-name="asciicircum" unicode="^" 
d="M520 1101l507 -484l-163 -179l-342 306l-342 -306l-170 168z" />
    <glyph glyph-name="underscore" unicode="_" 
d="M46 -121h946v-213h-950z" />
    <glyph glyph-name="grave" unicode="`" 
d="M370 1499c74 -114 389 -343 483 -379l-120 -220c-196 123 -385 237 -555 422z" />
    <glyph glyph-name="question" unicode="?" 
d="M314 270h352v-270h-352v270zM501 1345c257 0 419 -128 419 -354c0 -170 -102 -236 -189 -306c-58 -47 -110 -118 -110 -206v-49l-272 1v44c0 146 98 259 167 320c82 73 153 112 153 199c0 92 -49 159 -158 159c-102 0 -164 -49 -166 -158c0 -39 25 -77 46 -103l-218 -149
c-46 64 -87 133 -87 224c0 259 185 378 415 378z" />
    <glyph glyph-name="asciitilde" unicode="~" 
d="M332 807c230 0 288 -222 378 -222c86 0 108 90 114 158l208 -54c0 -105 -55 -314 -332 -314c-224 0 -263 221 -375 221c-56 0 -107 -65 -131 -155l-182 110c34 130 118 256 320 256z" />
    <glyph glyph-name="exclamdown" unicode="&#xa1;" 
d="M360.349 -327.137l18.4795 909.953l283.005 1.22852l13.5146 -912.04zM695.266 742.955l-349.998 0.953125l0.735352 269.999l349.998 -0.953125z" />
    <glyph glyph-name="Ograve" unicode="&#xd2;" 
d="M826 1509l-90 -174c-143 47 -365 158 -476 270l134 172c115 -108 289 -220 432 -268zM522 1350c161 0 452 -73 457 -703v-11c0 -167 -31 -324 -79 -419c-75 -147 -225 -233 -390 -233c-122 0 -271 41 -352 143c-90 112 -122 268 -122 452c0 352 60 511 130 608
c66 92 200 160 356 163zM351 277c47 -74 85 -90 159 -90c79 0 128 62 159 139c27 59 48 215 49 314v17c0 107 -9 256 -45 352c-40 106 -92 138 -152 138c-65 0 -103 -25 -143 -96c-47 -83 -81 -216 -81 -459c0 -97 13 -250 54 -315z" />
    <glyph glyph-name="Oacute" unicode="&#xd3;" 
d="M214 1509c143 48 317 160 432 268l134 -172c-111 -112 -333 -223 -476 -270zM522 1350c161 0 452 -73 457 -703v-11c0 -167 -31 -324 -79 -419c-75 -147 -225 -233 -390 -233c-122 0 -271 41 -352 143c-90 112 -122 268 -122 452c0 352 60 511 130 608
c66 92 200 160 356 163zM351 277c47 -74 85 -90 159 -90c79 0 128 62 159 139c27 59 48 215 49 314v17c0 107 -9 256 -45 352c-40 106 -92 138 -152 138c-65 0 -103 -25 -143 -96c-47 -83 -81 -216 -81 -459c0 -97 13 -250 54 -315z" />
    <glyph glyph-name="Ocircumflex" unicode="&#xd4;" 
d="M518 1794l378 -291l-138 -156l-240 201l-229 -197l-140 146zM522 1350c161 0 452 -73 457 -703v-11c0 -167 -31 -324 -79 -419c-75 -147 -225 -233 -390 -233c-122 0 -271 41 -352 143c-90 112 -122 268 -122 452c0 352 60 511 130 608c66 92 200 160 356 163zM351 277
c47 -74 85 -90 159 -90c79 0 128 62 159 139c27 59 48 215 49 314v17c0 107 -9 256 -45 352c-40 106 -92 138 -152 138c-65 0 -103 -25 -143 -96c-47 -83 -81 -216 -81 -459c0 -97 13 -250 54 -315z" />
    <glyph glyph-name="Otilde" unicode="&#xd5;" 
d="M355 1677c216 0 235 -132 325 -132c50 0 80 31 86 100l177 -54c-21 -96 -79 -224 -241 -224c-198 0 -219 130 -320 130c-42 0 -79 -37 -88 -100l-184 78c33 93 104 202 245 202zM522 1350c161 0 452 -73 457 -703v-11c0 -167 -31 -324 -79 -419
c-75 -147 -225 -233 -390 -233c-122 0 -271 41 -352 143c-90 112 -122 268 -122 452c0 352 60 511 130 608c66 92 200 160 356 163zM351 277c47 -74 85 -90 159 -90c79 0 128 62 159 139c27 59 48 215 49 314v17c0 107 -9 256 -45 352c-40 106 -92 138 -152 138
c-65 0 -103 -25 -143 -96c-47 -83 -81 -216 -81 -459c0 -97 13 -250 54 -315z" />
    <glyph glyph-name="Odieresis" unicode="&#xd6;" 
d="M598 1638l282 -3v-238l-282 1v240zM178 1638h279v-240h-279v240zM522 1350c161 0 452 -73 457 -703v-11c0 -167 -31 -324 -79 -419c-75 -147 -225 -233 -390 -233c-122 0 -271 41 -352 143c-90 112 -122 268 -122 452c0 352 60 511 130 608c66 92 200 160 356 163z
M351 277c47 -74 85 -90 159 -90c79 0 128 62 159 139c27 59 48 215 49 314v17c0 107 -9 256 -45 352c-40 106 -92 138 -152 138c-65 0 -103 -25 -143 -96c-47 -83 -81 -216 -81 -459c0 -97 13 -250 54 -315z" />
    <glyph glyph-name="Oslash" unicode="&#xd8;" 
d="M884 1128c56 -104 93 -258 95 -481v-11c0 -167 -31 -324 -79 -419c-75 -147 -225 -233 -390 -233c-75 0 -161 16 -234 51l-84 -150l-159 104c33 58 65 117 98 175c-69 109 -95 251 -95 415c0 352 60 511 130 608c66 92 200 160 356 163c65 0 152 -12 232 -68
c27 49 54 97 81 146l160 -101zM385 232c34 -36 69 -45 125 -45c79 0 128 62 159 139c27 59 48 215 49 314v17c0 48 -2 104 -7 160zM640 1076c-34 53 -74 71 -119 71c-65 0 -103 -25 -143 -96c-47 -83 -81 -216 -81 -459c0 -35 2 -78 6 -121c113 202 226 404 337 605z" />
    <glyph glyph-name="multiply" unicode="&#xd7;" 
d="M198 999c84 -59 216 -219 301 -306l309 297l172 -175l-310 -296c145 -150 182 -196 310 -328l-168 -164c-138 150 -71 77 -306 326l-299 -315l-175 181l297 312c-139 143 -244 262 -299 304z" />
    <glyph glyph-name="Ugrave" unicode="&#xd9;" 
d="M813 1522l-90 -174c-143 47 -365 158 -476 270l134 172c115 -108 289 -220 432 -268zM701 1350l253 -28c-7 -50 -8 -85 -8 -127v-29c0 -148 3 -278 3 -391v-59c0 -237 -5 -463 -117 -595c-82 -97 -211 -126 -340 -131c-308 0 -406 169 -424 466c-5 77 -7 201 -7 339
c0 175 3 373 9 534h258c-4 -168 -8 -397 -8 -586v-141c0 -64 1 -117 6 -154c14 -94 24 -244 164 -248c200 9 203 231 203 518c0 126 -5 275 -5 448c0 72 3 121 13 184z" />
    <glyph glyph-name="Uacute" unicode="&#xda;" 
d="M201 1510c143 48 317 160 432 268l134 -172c-111 -112 -333 -223 -476 -270zM701 1350l253 -28c-7 -50 -8 -85 -8 -127v-29c0 -148 3 -278 3 -391v-59c0 -237 -5 -463 -117 -595c-82 -97 -211 -126 -340 -131c-308 0 -406 169 -424 466c-5 77 -7 201 -7 339
c0 175 3 373 9 534h258c-4 -168 -8 -397 -8 -586v-141c0 -64 1 -117 6 -154c14 -94 24 -244 164 -248c200 9 203 231 203 518c0 126 -5 275 -5 448c0 72 3 121 13 184z" />
    <glyph glyph-name="Ucircumflex" unicode="&#xdb;" 
d="M505 1795l378 -291l-138 -156l-240 201l-229 -197l-140 146zM701 1350l253 -28c-7 -50 -8 -85 -8 -127v-29c0 -148 3 -278 3 -391v-59c0 -237 -5 -463 -117 -595c-82 -97 -211 -126 -340 -131c-308 0 -406 169 -424 466c-5 77 -7 201 -7 339c0 175 3 373 9 534h258
c-4 -168 -8 -397 -8 -586v-141c0 -64 1 -117 6 -154c14 -94 24 -244 164 -248c200 9 203 231 203 518c0 126 -5 275 -5 448c0 72 3 121 13 184z" />
    <glyph glyph-name="Udieresis" unicode="&#xdc;" 
d="M585 1639l282 -3v-238l-282 1v240zM165 1639h279v-240h-279v240zM701 1350l253 -28c-7 -50 -8 -85 -8 -127v-29c0 -148 3 -278 3 -391v-59c0 -237 -5 -463 -117 -595c-82 -97 -211 -126 -340 -131c-308 0 -406 169 -424 466c-5 77 -7 201 -7 339c0 175 3 373 9 534h258
c-4 -168 -8 -397 -8 -586v-141c0 -64 1 -117 6 -154c14 -94 24 -244 164 -248c200 9 203 231 203 518c0 126 -5 275 -5 448c0 72 3 121 13 184z" />
    <glyph glyph-name="Yacute" unicode="&#xdd;" 
d="M199 1509c143 48 317 160 432 268l134 -172c-111 -112 -333 -223 -476 -270zM368 0v138c0 92 7 354 7 475c-79 113 -310 501 -361 609l219 141c40 -79 191 -371 278 -511c98 142 215 435 253 524l228 -136c-47 -96 -297 -538 -367 -638c0 -48 -2 -97 -2 -152
c-3 -135 -5 -279 -5 -322v-128h-250z" />
    <glyph glyph-name="ntilde" unicode="&#xf1;" 
d="M358 1462c216 0 235 -132 325 -132c50 0 80 31 86 100l177 -54c-21 -96 -79 -224 -241 -224c-198 0 -219 130 -320 130c-42 0 -79 -37 -88 -100l-184 78c33 93 104 202 245 202zM338 927c56 50 190 99 300 99c164 0 300 -66 300 -230v-518c0 -66 50 -88 106 -118
l-116 -200c-95 30 -241 104 -241 262v477c0 74 -15 120 -82 120c-63 0 -169 -38 -254 -112v-707h-251v706c0 178 -8 204 -32 298l232 48c10 -24 31 -76 38 -125z" />
    <glyph glyph-name="ograve" unicode="&#xf2;" 
d="M821 1294l-90 -174c-143 47 -365 158 -476 270l134 172c115 -108 289 -220 432 -268zM625 247c47 52 60 156 60 283v16c-2 157 -37 284 -165 284c-151 0 -196 -140 -196 -348c0 -166 63 -285 184 -285c55 1 81 14 117 50zM507 -6c-310 0 -435 190 -435 470
c0 371 141 568 433 568c197 0 307 -69 377 -201c41 -79 59 -192 59 -288c0 -285 -96 -549 -432 -549h-2z" />
    <glyph glyph-name="oacute" unicode="&#xf3;" 
d="M209 1294c143 48 317 160 432 268l134 -172c-111 -112 -333 -223 -476 -270zM625 247c47 52 60 156 60 283v16c-2 157 -37 284 -165 284c-151 0 -196 -140 -196 -348c0 -166 63 -285 184 -285c55 1 81 14 117 50zM507 -6c-310 0 -435 190 -435 470c0 371 141 568 433 568
c197 0 307 -69 377 -201c41 -79 59 -192 59 -288c0 -285 -96 -549 -432 -549h-2z" />
    <glyph glyph-name="ocircumflex" unicode="&#xf4;" 
d="M513 1579l378 -291l-138 -156l-240 201l-229 -197l-140 146zM625 247c47 52 60 156 60 283v16c-2 157 -37 284 -165 284c-151 0 -196 -140 -196 -348c0 -166 63 -285 184 -285c55 1 81 14 117 50zM507 -6c-310 0 -435 190 -435 470c0 371 141 568 433 568
c197 0 307 -69 377 -201c41 -79 59 -192 59 -288c0 -285 -96 -549 -432 -549h-2z" />
    <glyph glyph-name="otilde" unicode="&#xf5;" 
d="M350 1462c216 0 235 -132 325 -132c50 0 80 31 86 100l177 -54c-21 -96 -79 -224 -241 -224c-198 0 -219 130 -320 130c-42 0 -79 -37 -88 -100l-184 78c33 93 104 202 245 202zM625 247c47 52 60 156 60 283v16c-2 157 -37 284 -165 284c-151 0 -196 -140 -196 -348
c0 -166 63 -285 184 -285c55 1 81 14 117 50zM507 -6c-310 0 -435 190 -435 470c0 371 141 568 433 568c197 0 307 -69 377 -201c41 -79 59 -192 59 -288c0 -285 -96 -549 -432 -549h-2z" />
    <glyph glyph-name="odieresis" unicode="&#xf6;" 
d="M593 1423l282 -3v-238l-282 1v240zM173 1423h279v-240h-279v240zM625 247c47 52 60 156 60 283v16c-2 157 -37 284 -165 284c-151 0 -196 -140 -196 -348c0 -166 63 -285 184 -285c55 1 81 14 117 50zM507 -6c-310 0 -435 190 -435 470c0 371 141 568 433 568
c197 0 307 -69 377 -201c41 -79 59 -192 59 -288c0 -285 -96 -549 -432 -549h-2z" />
    <glyph glyph-name="oslash" unicode="&#xf8;" 
d="M625 247c47 52 60 156 60 283v16c0 14 0 27 -1 40l-301 -327c30 -39 72 -62 125 -62c55 1 81 14 117 50zM848 1067l150 -140l-107 -115c34 -77 50 -181 50 -269c0 -285 -96 -549 -432 -549h-2c-125 0 -219 31 -288 86l-73 -80l-146 133l104 115c-22 63 -32 136 -32 216
c0 371 141 568 433 568c109 0 190 -21 254 -62zM607 802c-23 18 -51 28 -87 28c-149 0 -195 -137 -196 -340z" />
    <glyph glyph-name="ugrave" unicode="&#xf9;" 
d="M807 1294l-90 -174c-143 47 -365 158 -476 270l134 172c115 -108 289 -220 432 -268zM893 -17c-64 29 -106 75 -127 125c-75 -77 -190 -103 -340 -106h-9c-152 0 -338 51 -338 227c0 82 1 179 1 275c0 216 -3 431 -22 488l254 28c22 -92 16 -356 18 -722
c12 -67 31 -92 116 -92c152 7 221 85 221 212v595h251v-707c2 -52 67 -119 118 -140z" />
    <glyph glyph-name="uacute" unicode="&#xfa;" 
d="M195 1294c143 48 317 160 432 268l134 -172c-111 -112 -333 -223 -476 -270zM893 -17c-64 29 -106 75 -127 125c-75 -77 -190 -103 -340 -106h-9c-152 0 -338 51 -338 227c0 82 1 179 1 275c0 216 -3 431 -22 488l254 28c22 -92 16 -356 18 -722c12 -67 31 -92 116 -92
c152 7 221 85 221 212v595h251v-707c2 -52 67 -119 118 -140z" />
    <glyph glyph-name="ucircumflex" unicode="&#xfb;" 
d="M499 1579l378 -291l-138 -156l-240 201l-229 -197l-140 146zM893 -17c-64 29 -106 75 -127 125c-75 -77 -190 -103 -340 -106h-9c-152 0 -338 51 -338 227c0 82 1 179 1 275c0 216 -3 431 -22 488l254 28c22 -92 16 -356 18 -722c12 -67 31 -92 116 -92
c152 7 221 85 221 212v595h251v-707c2 -52 67 -119 118 -140z" />
    <glyph glyph-name="udieresis" unicode="&#xfc;" 
d="M579 1423l282 -3v-238l-282 1v240zM159 1423h279v-240h-279v240zM893 -17c-64 29 -106 75 -127 125c-75 -77 -190 -103 -340 -106h-9c-152 0 -338 51 -338 227c0 82 1 179 1 275c0 216 -3 431 -22 488l254 28c22 -92 16 -356 18 -722c12 -67 31 -92 116 -92
c152 7 221 85 221 212v595h251v-707c2 -52 67 -119 118 -140z" />
    <glyph glyph-name="plusminus" unicode="&#xb1;" 
d="M48 854c48 9 78 10 143 10h39h160v357l246 1l-2 -357c126 0 180 -2 242 -2h82v-234h-14c-6 0 -95 0 -305 3v-221c93 0 222 -1 303 -2h18v-245h-18c-135 3 -375 3 -500 3c-67 0 -226 -1 -378 -9v122l-6 123c113 6 234 8 330 8v218h-89c-133 0 -192 -1 -249 -9z" />
    <glyph glyph-name="divide" unicode="&#xf7;" 
d="M356 1038h315v-280h-315v280zM356 284h315v-282h-315v282zM66 654c45 2 95 3 145 3c100 0 201 -3 269 -3h119c82 0 234 -1 341 -2h18v-245h-18c-135 3 -337 3 -462 3c-43 0 -134 3 -234 3c-57 0 -117 -1 -172 -4v122z" />
    <glyph glyph-name="yacute" unicode="&#xfd;" 
d="M189 1294c143 48 317 160 432 268l134 -172c-111 -112 -333 -223 -476 -270zM352 -164c52 0 166 140 186 234c-271 611 -340 681 -437 681c-20 0 -34 0 -44 -1l-1 261s42 2 76 2c192 0 256 -114 525 -688c51 287 59 410 59 688h256c0 -60 -1 -145 -15 -266
c-37 -323 -165 -747 -295 -921c-121 -161 -203 -202 -350 -202c-214 0 -266 203 -270 376h236c0 -114 26 -164 74 -164z" />
    <glyph glyph-name="ydieresis" unicode="&#xff;" 
d="M573 1423l282 -3v-238l-282 1v240zM153 1423h279v-240h-279v240zM352 -164c52 0 166 140 186 234c-271 611 -340 681 -437 681c-20 0 -34 0 -44 -1l-1 261s42 2 76 2c192 0 256 -114 525 -688c51 287 59 410 59 688h256c0 -60 -1 -145 -15 -266
c-37 -323 -165 -747 -295 -921c-121 -161 -203 -202 -350 -202c-214 0 -266 203 -270 376h236c0 -114 26 -164 74 -164z" />
    <glyph glyph-name="OE" unicode="&#x152;" 
d="M436 199l1 928c-109 0 -169 -176 -169 -549c0 -226 54 -381 150 -381c16 0 5 1 18 2zM811 206c59 2 87 10 132 26l66 -200c-106 -29 -231 -33 -342 -33c-47 0 -97 1 -152 1c-17 -7 -112 -8 -127 -8c-306 12 -377 299 -377 605c0 436 98 733 433 733c26 0 54 -2 80 -7
c59 3 122 3 185 3c85 0 171 -1 253 -1v-198c-92 0 -84 1 -155 1c-35 0 -74 0 -121 -1v-278h209v-205h-209v-437z" />
    <glyph glyph-name="yen" unicode="&#xa5;" 
d="M368 -6v144c0 39 2 109 3 185h-92c-60 0 -123 -1 -192 -5l-2 223c109 6 201 8 290 8v64c-2 3 -5 7 -8 11c-80 2 -171 7 -285 14c0 30 -1 80 -1 127c0 35 1 69 2 91c52 -3 99 -5 143 -7c-88 145 -182 309 -212 373l219 141c40 -79 191 -371 278 -511
c98 142 215 435 253 524l228 -136c-28 -56 -125 -232 -215 -387c46 1 96 1 153 1l2 -219c-113 0 -198 -4 -289 -7c-7 -10 -13 -19 -18 -26c0 -18 -1 -37 -1 -55c103 -2 198 -6 308 -6v-224c-110 0 -209 3 -312 4c-2 -88 -2 -164 -2 -193v-134h-250z" />
    <glyph glyph-name="Ntilde" unicode="&#xd1;" 
d="M330 1677c216 0 235 -132 325 -132c50 0 80 31 86 100l177 -54c-21 -96 -79 -224 -241 -224c-198 0 -219 130 -320 130c-42 0 -79 -37 -88 -100l-184 78c33 93 104 202 245 202zM691 0c-90 259 -237 559 -371 778v-208c0 -299 1 -418 1 -573h-246v1328l211 -7
c126 -188 360 -580 410 -814l-7 274c0 190 3 377 12 551l244 -1c-6 -115 -8 -267 -8 -433c0 -231 4 -490 4 -725c0 -58 -1 -116 -1 -170h-249z" />
    <glyph glyph-name="Eth" unicode="&#xd0;" 
d="M403 1127h-30c-16 0 -28 0 -45 -3c1 -26 1 -56 1 -87c0 -41 -1 -64 -1 -95h254l2 -209l-256 -1c-1 -244 -3 -452 -4 -534c88 -3 39 -3 99 -3h3c40 0 183 2 249 158c19 45 27 136 27 191c0 381 -106 583 -299 583zM76 942v35c0 129 -4 252 -13 340c81 8 126 14 225 14
c271 0 427 -82 550 -265c84 -127 131 -305 131 -486c0 -69 -8 -138 -21 -204c-48 -241 -209 -362 -389 -379c-55 -5 -106 -7 -161 -7c-84 0 -217 7 -331 7c0 34 0 33 3 131c0 46 5 326 6 604h-70v210h70z" />
    <glyph glyph-name="currency" unicode="&#xa4;" 
d="M619 314c41 38 52 116 52 210v11c-1 116 -31 210 -143 210c-131 0 -171 -103 -171 -257c0 -123 55 -211 160 -211c48 1 70 10 102 37zM168 677l-154 155l190 190l152 -151c45 16 99 24 159 24c72 0 130 -9 178 -26l140 140l191 -191l-149 -149c13 -44 19 -92 19 -136
c0 -79 -12 -155 -42 -220l151 -151l-191 -190l-170 169c-36 -9 -77 -14 -124 -14h-2c-58 0 -109 6 -153 18l-165 -165l-190 191l154 154c-16 44 -24 95 -24 150c0 78 10 145 30 202z" />
    <glyph glyph-name="sterling" unicode="&#xa3;" 
d="M310 193c-33 30 -50 57 -64 79c-6 -5 -16 -33 -16 -54v-6c2 -42 13 -54 22 -54c22 0 42 15 58 35zM861 670c-74 -9 -157 -9 -255 -9h-56c18 -93 28 -166 29 -276c0 -52 -4 -107 -11 -131c69 -44 106 -66 154 -66c26 0 64 10 64 36v43l228 -1v-53
c-4 -136 -104 -228 -245 -229c-118 0 -176 25 -285 95c-62 -85 -175 -92 -262 -92c-118 0 -157 92 -157 204c0 136 75 265 171 265c59 0 72 -29 102 -74c2 20 2 25 2 47c-1 106 -9 139 -28 235c-52 2 -136 2 -181 2h-17v200h158c-13 71 -24 111 -24 177
c0 205 141 308 330 308c163 0 287 -95 318 -222l-212 -54c-16 62 -62 74 -106 74h-6c-54 0 -84 -33 -84 -98c0 -54 15 -124 26 -190l94 3h57c74 0 140 1 196 7v-201z" />
    <glyph glyph-name="cent" unicode="&#xa2;" 
d="M337 525c0 -249 140 -253 179 -253h10c83 0 127 51 167 114l188 -104c-48 -99 -134 -156 -269 -171v-120h-234v131c-39 9 -78 24 -112 48c-108 79 -141 199 -141 354c0 207 90 323 253 365v144h234v-131c51 -7 99 -21 134 -43c50 -31 88 -77 106 -118l-183 -79
c-8 30 -34 80 -150 80c-122 0 -182 -105 -182 -217z" />
    <glyph glyph-name="percent" unicode="%" 
d="M718 179c32 0 79 74 79 125c0 61 -20 85 -66 88h-2c-32 0 -81 -70 -81 -115c0 -54 30 -98 70 -98zM286 915c32 0 79 74 79 125c0 61 -20 85 -66 88h-2c-32 0 -81 -70 -81 -115c0 -54 30 -98 70 -98zM22 82l232 422c96 175 234 284 269 349c-54 -77 -139 -131 -241 -131
c-157 0 -281 133 -281 290c0 163 140 306 303 309h7c159 0 279 -115 279 -264v-17c-1 -27 -8 -65 -21 -101l229 437l224 -112l-231 -427c-68 -132 -217 -246 -301 -387c56 79 147 133 246 135h7c159 0 279 -115 279 -264v-7c-4 -162 -129 -328 -308 -328
c-157 0 -281 133 -281 290c0 35 6 69 18 101l-205 -405z" />
    <glyph glyph-name="guillemotleft" unicode="&#xab;" 
d="M428 566c144 130 281 291 304 431l228 -72c-40 -189 -176 -312 -301 -421c128 -118 238 -237 283 -409l-218 -86c-38 149 -138 301 -296 442v115zM24 576c144 130 281 291 304 431l228 -71c-40 -189 -176 -312 -301 -421c128 -118 238 -237 283 -409l-218 -87
c-38 149 -138 301 -296 442v115z" />
    <glyph glyph-name="guillemotright" unicode="&#xbb;" 
d="M573.641 454.521c-142.933 -131.173 -278.612 -293.287 -300.467 -433.471l-228.581 70.1338c38.4541 189.32 173.443 313.428 297.549 423.446c-128.961 116.95 -239.93 235.047 -286.334 406.674l217.29 87.7783c39.2168 -148.685 140.456 -299.861 299.603 -439.565z
M977.709 447.823c-142.933 -131.173 -278.612 -293.288 -300.467 -433.471l-228.573 69.1338c38.4541 189.32 173.444 313.428 297.549 423.446c-128.96 116.95 -239.929 235.047 -286.334 406.673l217.282 88.7793c39.2168 -148.685 140.456 -299.862 299.603 -439.565z
" />
    <glyph glyph-name="section" unicode="&#xa7;" 
d="M651 354c47 28 51 42 51 75c-3 21 -12 43 -37 66c-117 108 -249 184 -329 234c-47 -28 -51 -42 -51 -75c3 -21 12 -43 37 -66c116 -106 210 -160 320 -227zM184 883c0 0 -41 40 -41 165c0 208 198 314 351 320h18c200 0 326 -132 330 -317h-220c0 81 -56 117 -122 117
c-32 0 -107 -17 -107 -114v-11c0 -42 3 -103 63 -142c138 -90 271 -176 378 -274c94 -86 115 -123 115 -219c0 -117 -55 -170 -133 -228c0 0 28 -66 28 -145c0 -208 -199 -314 -352 -320h-18c-200 0 -326 132 -330 317h220c0 -81 56 -117 122 -117c32 0 108 17 108 114v11
c0 42 -3 103 -63 142c-138 90 -271 176 -378 274c-94 86 -115 123 -115 219c0 141 146 208 146 208z" />
    <glyph glyph-name="braceleft" unicode="{" 
d="M513 600c94 -23 230 -96 252 -224c3 -15 4 -31 4 -46c0 -101 -52 -196 -66 -276c-2 -8 -2 -16 -2 -23c0 -67 67 -89 193 -95l-4 -218c-133 6 -294 8 -387 116c-41 48 -56 100 -56 152c0 73 29 147 52 212c13 36 19 66 19 92c0 133 -149 154 -273 189l-1 113v131
c124 35 273 55 273 188c0 26 -6 57 -19 93c-23 65 -52 139 -52 212c0 52 15 104 56 152c93 108 254 110 387 116l4 -218c-127 -5 -193 -28 -193 -96c0 -7 1 -14 2 -22c15 -80 66 -174 66 -276c0 -15 -1 -30 -4 -46c-22 -128 -157 -203 -251 -226z" />
    <glyph glyph-name="bar" unicode="|" 
d="M357 152c0 365 -9 959 -9 1247v93h271v-145c0 -277 12 -789 12 -1123v-150c0 -115 -1 -171 -6 -272l-272 1c4 62 5 105 5 160c0 47 -1 103 -1 189z" />
    <glyph glyph-name="braceright" unicode="}" 
d="M527 600c-94 23 -230 98 -251 226c-3 16 -4 31 -4 46c0 102 51 196 66 276c1 8 2 15 2 22c0 68 -67 91 -193 96l3 218c134 -6 295 -8 388 -116c41 -48 55 -100 55 -152c0 -73 -28 -147 -51 -212c-13 -36 -19 -67 -19 -93c0 -133 149 -153 273 -188v-131l-1 -113
c-124 -35 -273 -55 -273 -188c0 -26 6 -57 19 -93c23 -65 52 -139 52 -212c0 -52 -15 -104 -56 -152c-93 -108 -254 -110 -387 -116l-4 218c127 6 193 28 193 96c0 7 -1 14 -2 22c-14 80 -66 175 -66 276c0 15 1 31 4 46c22 128 158 201 252 224z" />
    <glyph glyph-name="at" unicode="@" 
d="M551 496c0 -78 22 -134 66 -134c98 0 110 118 128 168v68c-50 44 -53 60 -102 60c-50 0 -92 -42 -92 -162zM802 267c-59 -63 -78 -105 -204 -105c-170 0 -266 157 -266 323c0 216 99 373 283 373c69 0 96 -26 130 -60c0 144 -34 297 -193 297c-165 0 -305 -173 -305 -595
c0 -308 107 -553 332 -553c48 0 102 12 159 48l75 -191c-80 -42 -176 -57 -246 -57c-390 0 -545 398 -545 748c0 506 216 805 528 805c300 0 414 -254 414 -462v-330v-29c0 -76 7 -132 62 -214l-182 -96c-21 36 -26 44 -42 98z" />
    <glyph glyph-name="brokenbar" unicode="&#xa6;" 
d="M353 779c-2 239 -5 471 -5 620v93h271v-145c0 -145 3 -354 6 -568h-272zM629 539c1 -113 2 -221 2 -315v-150c0 -115 -1 -171 -6 -272l-272 1c4 62 5 105 5 160c0 47 -1 103 -1 189c0 112 -1 247 -2 387h274z" />
    <glyph glyph-name="copyright" unicode="&#xa9;" 
d="M189 594c0 -210 158 -378 354 -378s347 168 347 378s-151 377 -347 377s-354 -167 -354 -377zM16 592c0 306 234 554 523 554s523 -248 523 -554s-234 -553 -523 -553s-523 247 -523 553zM552 719c-46 0 -70 -60 -70 -136c0 -53 20 -120 69 -120c32 0 53 9 69 57l172 -84
c-69 -123 -181 -138 -244 -138c-121 0 -260 75 -260 281c0 180 106 304 265 304c72 0 182 -39 225 -131l-165 -88c-16 39 -25 55 -61 55z" />
    <glyph glyph-name="registered" unicode="&#xae;" 
d="M16 592c0 306 234 554 523 554s523 -248 523 -554s-234 -553 -523 -553s-523 247 -523 553zM660 515c37 -51 97 -103 147 -131l-145 -118c-60 35 -139 160 -152 228h-9l1 -211h-160c57 -42 126 -67 201 -67c196 0 347 168 347 378s-151 377 -347 377s-354 -167 -354 -377
c0 -122 54 -230 138 -299v441c0 54 -1 91 -4 140c80 13 152 22 214 22c150 0 260 -51 260 -212c0 -81 -60 -146 -137 -171zM641 698c0 31 -26 52 -102 52c-16 0 -30 -3 -41 -8l1 -97c13 -7 36 -15 67 -15c70 0 75 40 75 68z" />
    <glyph glyph-name="germandbls" unicode="&#xdf;" 
d="M67 1003c0 156 116 325 323 325c236 0 408 -85 408 -319c0 -123 -45 -194 -128 -230c144 -25 302 -118 302 -398c0 -305 -128 -383 -348 -383c-187 0 -251 97 -251 300c0 8 1 16 1 24l204 -2c0 -63 5 -121 68 -121c54 0 82 48 82 196c0 109 -64 239 -352 239v206
c165 0 178 65 178 163c0 85 -82 119 -141 119c-67 0 -97 -49 -97 -115c0 -156 5 -370 5 -557c0 -40 1 -80 1 -119c0 -80 -3 -155 -23 -214c-27 -82 -130 -126 -186 -154l-92 248c20 10 38 24 46 50s9 62 9 137v50c0 187 -9 381 -9 555z" />
    <glyph glyph-name="ampersand" unicode="&#x26;" 
d="M728 94c-87 -82 -189 -116 -309 -116c-208 0 -389 92 -389 389c0 192 99 303 207 391c-93 85 -153 192 -153 279c0 212 162 310 342 310c167 0 316 -67 316 -265c0 -192 -110 -298 -220 -382l216 -300c13 17 19 46 19 83c0 46 -9 104 -24 169h244
c0 -288 -99 -406 -99 -406l111 -144l-167 -134zM355 573c-46 -43 -75 -129 -75 -203c0 -85 28 -189 143 -189c86 0 149 27 182 57zM394 867c61 48 105 128 105 189c0 43 -24 90 -79 90c-58 0 -98 -50 -98 -93c0 -72 27 -133 72 -186z" />
    <glyph glyph-name="uni00B5" unicode="&#xb5;" 
d="M314 8l-4 -406l-250 3l5 624c0 82 1 179 1 275c0 216 -3 431 -22 488l248 28c22 -92 16 -356 18 -722c12 -67 31 -92 116 -92c198 0 222 164 223 212l1 582h257l-1 -694c2 -52 67 -119 118 -140l-143 -183c-64 29 -106 75 -127 125c-75 -77 -192 -103 -342 -106h-9
c-29 0 -59 2 -89 6z" />
    <glyph glyph-name="paragraph" unicode="&#xb6;" 
d="M697 1041v71h-89h-28c0 -296 2 -592 2 -888c0 -92 -38 -226 -76 -265l-206 102c22 42 52 80 52 160v219c-174 12 -316 187 -316 484c0 92 19 184 73 250c115 141 286 154 511 154c133 0 171 -8 289 -8v-1329l-217 -1c0 342 5 614 5 1051z" />
    <glyph glyph-name="periodcentered" unicode="&#xb7;" 
d="M428 700h315v-313h-315v313z" />
    <glyph glyph-name="questiondown" unicode="&#xbf;" 
d="M707 743h-352v270h352v-270zM520 -332c-257 0 -419 128 -419 354c0 170 102 236 189 306c58 47 110 118 110 206v49l272 -1v-44c0 -146 -98 -259 -167 -320c-82 -73 -153 -112 -153 -199c0 -92 49 -159 158 -159c102 0 164 49 166 158c0 39 -25 77 -46 103l218 149
c46 -64 87 -133 87 -224c0 -259 -185 -378 -415 -378z" />
    <glyph glyph-name="dieresis" unicode="&#xa8;" 
d="M566 1424l282 -3v-238l-282 1v240zM146 1424h279v-240h-279v240z" />
    <glyph glyph-name="acute" unicode="&#xb4;" 
d="M199 1441c143 48 317 160 432 268l134 -172c-111 -112 -333 -223 -476 -270z" />
    <glyph glyph-name="degree" unicode="&#xb0;" 
d="M190 1083c0 163 132 296 295 296s295 -133 295 -296s-132 -295 -295 -295s-295 132 -295 295zM383 1083c0 -57 46 -103 103 -103s102 46 102 103s-45 103 -102 103s-103 -46 -103 -103z" />
    <glyph glyph-name="macron" unicode="&#xaf;" 
d="M723 1361v-194h-17c-58 -2 -156 -7 -230 -7s-167 1 -235 3l-18 1v197l19 -2c65 -2 180 -3 272 -3c61 0 147 5 192 5h17z" />
    <glyph glyph-name="dotlessi" unicode="&#x131;" 
d="M354 1013h255c0 -273 1 -739 1 -739c0 -64 17 -92 109 -92c93 0 153 33 213 91l97 -190c-86 -71 -237 -101 -361 -101c-85 0 -177 14 -221 38c-85 47 -93 127 -93 186v607c-49 0 -139 -6 -234 -28l-29 186c94 28 183 42 263 42z" />
    <glyph glyph-name="Amacron" unicode="&#x100;" 
d="M775 1620v-194h-17c-58 -2 -156 -7 -230 -7s-167 1 -235 3l-18 1v197l19 -2c65 -2 180 -3 272 -3c61 0 147 5 192 5h17zM651 504c-26 143 -125 340 -126 494c-6 -168 -99 -373 -137 -512c60 13 180 13 263 18zM418 1325h224l334 -1081c24 -81 50 -165 50 -244h-276
c0 59 -10 114 -25 167l-32 114c-152 -3 -237 1 -357 -29l-30 -90c-20 -61 -37 -119 -40 -162h-260c4 61 28 143 54 223z" />
    <glyph glyph-name="amacron" unicode="&#x101;" 
d="M755 1405v-194h-17c-58 -2 -156 -7 -230 -7s-167 1 -235 3l-18 1v197l19 -2c65 -2 180 -3 272 -3c61 0 147 5 192 5h17zM318 317c0 -98 69 -128 133 -128c110 0 192 102 210 158v47c-36 42 -104 76 -168 76c-66 0 -175 -43 -175 -153zM917 316c0 -92 19 -144 76 -189
l-125 -149c-52 40 -86 51 -128 123c-76 -78 -158 -112 -340 -112c-171 0 -344 131 -344 313c0 90 30 177 89 238c95 97 206 130 348 130c64 0 130 -21 168 -47c0 166 -116 197 -176 197c-115 0 -209 -33 -283 -111l-122 208c174 110 235 108 413 111
c225 0 424 -135 424 -373v-339z" />
    <glyph glyph-name="Cacute" unicode="&#x106;" 
d="M260 1509c143 48 317 160 432 268l134 -172c-111 -112 -333 -223 -476 -270zM566 1128c-115 0 -248 -136 -248 -500c0 -274 116 -430 222 -430h14c124 0 162 64 210 194l246 -137c-74 -158 -245 -258 -435 -258h-3c-111 0 -243 25 -337 119c-120 125 -179 292 -179 520
c0 259 81 418 133 496c72 108 208 200 383 200c140 0 314 -63 402 -225l-232 -125c-50 124 -90 146 -176 146z" />
    <glyph glyph-name="cacute" unicode="&#x107;" 
d="M241 1294c143 48 317 160 432 268l134 -172c-111 -112 -333 -223 -476 -270zM332 528c0 -319 163 -325 210 -325h12c100 0 154 66 202 147l226 -134c-68 -150 -200 -223 -418 -223c-104 0 -227 8 -323 80c-130 101 -170 255 -170 454c0 340 178 491 493 491
c95 0 192 -19 255 -61c60 -40 106 -99 128 -151l-220 -102c-10 38 -41 103 -181 103c-147 0 -214 -136 -214 -279z" />
    <glyph glyph-name="Ccircumflex" unicode="&#x108;" 
d="M564 1794l378 -291l-138 -156l-240 201l-229 -197l-140 146zM566 1128c-115 0 -248 -136 -248 -500c0 -274 116 -430 222 -430h14c124 0 162 64 210 194l246 -137c-74 -158 -245 -258 -435 -258h-3c-111 0 -243 25 -337 119c-120 125 -179 292 -179 520
c0 259 81 418 133 496c72 108 208 200 383 200c140 0 314 -63 402 -225l-232 -125c-50 124 -90 146 -176 146z" />
    <glyph glyph-name="ccircumflex" unicode="&#x109;" 
d="M545 1579l378 -291l-138 -156l-240 201l-229 -197l-140 146zM332 528c0 -319 163 -325 210 -325h12c100 0 154 66 202 147l226 -134c-68 -150 -200 -223 -418 -223c-104 0 -227 8 -323 80c-130 101 -170 255 -170 454c0 340 178 491 493 491c95 0 192 -19 255 -61
c60 -40 106 -99 128 -151l-220 -102c-10 38 -41 103 -181 103c-147 0 -214 -136 -214 -279z" />
    <glyph glyph-name="Cdotaccent" unicode="&#x10a;" 
d="M412 1645h284l2 -246h-285zM566 1128c-115 0 -248 -136 -248 -500c0 -274 116 -430 222 -430h14c124 0 162 64 210 194l246 -137c-74 -158 -245 -258 -435 -258h-3c-111 0 -243 25 -337 119c-120 125 -179 292 -179 520c0 259 81 418 133 496c72 108 208 200 383 200
c140 0 314 -63 402 -225l-232 -125c-50 124 -90 146 -176 146z" />
    <glyph glyph-name="cdotaccent" unicode="&#x10b;" 
d="M393 1430h284l2 -246h-285zM332 528c0 -319 163 -325 210 -325h12c100 0 154 66 202 147l226 -134c-68 -150 -200 -223 -418 -223c-104 0 -227 8 -323 80c-130 101 -170 255 -170 454c0 340 178 491 493 491c95 0 192 -19 255 -61c60 -40 106 -99 128 -151l-220 -102
c-10 38 -41 103 -181 103c-147 0 -214 -136 -214 -279z" />
    <glyph glyph-name="Ccaron" unicode="&#x10c;" 
d="M563 1359l-366 297l144 138l222 -189l240 201l138 -156zM566 1128c-115 0 -248 -136 -248 -500c0 -274 116 -430 222 -430h14c124 0 162 64 210 194l246 -137c-74 -158 -245 -258 -435 -258h-3c-111 0 -243 25 -337 119c-120 125 -179 292 -179 520c0 259 81 418 133 496
c72 108 208 200 383 200c140 0 314 -63 402 -225l-232 -125c-50 124 -90 146 -176 146z" />
    <glyph glyph-name="ccaron" unicode="&#x10d;" 
d="M544 1144l-366 297l144 138l222 -189l240 201l138 -156zM332 528c0 -319 163 -325 210 -325h12c100 0 154 66 202 147l226 -134c-68 -150 -200 -223 -418 -223c-104 0 -227 8 -323 80c-130 101 -170 255 -170 454c0 340 178 491 493 491c95 0 192 -19 255 -61
c60 -40 106 -99 128 -151l-220 -102c-10 38 -41 103 -181 103c-147 0 -214 -136 -214 -279z" />
    <glyph glyph-name="Dcaron" unicode="&#x10e;" 
d="M444 1359l-366 297l144 138l222 -189l240 201l138 -156zM403 1127h-30c-16 0 -28 0 -45 -3c1 -26 1 -56 1 -87c0 -63 -1 -84 -1 -153c0 -306 -3 -588 -4 -686c88 -3 39 -3 99 -3h3c40 0 183 2 249 158c19 45 27 136 27 191c0 381 -143 583 -299 583zM70 128
c0 55 6 452 6 773v76c0 129 -4 252 -13 340c81 8 126 14 225 14c295 0 417 -71 550 -265c84 -127 131 -305 131 -486c0 -331 -169 -560 -410 -583c-55 -5 -106 -7 -161 -7c-84 0 -217 7 -331 7c0 34 0 33 3 131z" />
    <glyph glyph-name="emacron" unicode="&#x113;" 
d="M788 1405v-194h-17c-58 -2 -156 -7 -230 -7s-167 1 -235 3l-18 1v197l19 -2c65 -2 180 -3 272 -3c61 0 147 5 192 5h17zM336 606c113 20 207 24 340 24c-5 131 -77 188 -165 188c-102 0 -169 -96 -175 -212zM509 1021c319 0 428 -208 428 -544c0 -20 -1 -43 -1 -43
c-285 -4 -498 -18 -600 -38c16 -111 104 -200 196 -200c106 0 154 36 222 110l178 -156c-101 -112 -167 -160 -406 -160c-286 0 -448 213 -448 526c0 286 148 505 431 505z" />
    <glyph glyph-name="Emacron" unicode="&#x112;" 
d="M736 1620v-194h-17c-58 -2 -156 -7 -230 -7s-167 1 -235 3l-18 1v197l19 -2c65 -2 180 -3 272 -3c61 0 147 5 192 5h17zM102 1319c56 4 126 4 204 4h98h110c149 0 285 -3 359 -3h16v-202h-529v-269h338v-203h-338v-31c0 -207 -2 -332 -2 -411l416 2c56 0 125 27 125 27
l72 -199c-48 -13 -89 -34 -187 -34h-682v1319z" />
    <glyph glyph-name="asterisk" unicode="*" 
d="M410 708l-44 406l294 2l-30 -408l282 180l114 -248l-362 -114l276 -270l-220 -176l-196 354l-202 -358l-206 172l262 280l-346 94l90 260z" />
    <glyph glyph-name="uni00A0" unicode="&#xa0;" 
 />
    <glyph glyph-name="ordfeminine" unicode="&#xaa;" 
d="M142 675h756v-167h-756v167zM342 994c0 -42 40 -72 80 -72c94 0 174 23 218 114c-34 42 -96 59 -172 59c-88 0 -126 -36 -126 -101zM148 1463c98 62 220 74 335 74c219 0 347 -123 349 -336v-135c0 -42 4 -97 24 -125c13 -18 31 -30 61 -44l-101 -151
c-48 30 -88 44 -122 117c-68 -81 -161 -109 -311 -109c-142 0 -255 98 -255 232c0 227 134 262 318 262c94 0 154 -26 194 -64c-14 97 -56 173 -155 173c-109 0 -167 -15 -233 -63z" />
    <glyph glyph-name="logicalnot" unicode="&#xac;" 
d="M82 654c45 2 95 3 145 3c100 0 201 -3 269 -3h119c82 0 234 -1 341 -2h18v-156h2v-316h-250v230h-232c-43 0 -134 3 -234 3c-57 0 -117 -1 -172 -4v122z" />
    <glyph glyph-name="uni00AD" unicode="&#xad;" 
d="M82 654c45 2 95 3 145 3c100 0 201 -3 269 -3h119c82 0 234 -1 341 -2h18v-245h-18c-135 3 -337 3 -462 3c-43 0 -134 3 -234 3c-57 0 -117 -1 -172 -4v122z" />
    <glyph glyph-name="uni00B2" unicode="&#xb2;" 
d="M202 1321c24 149 185 206 334 206c148 0 300 -58 300 -230c0 -148 -84 -193 -260 -284c-73 -38 -98 -45 -104 -75l361 5v-174h-623c-1 32 -2 62 -2 95c0 45 3 78 30 122c35 56 156 122 240 165c128 65 146 88 146 137c0 32 -35 71 -85 71c-84 0 -96 -46 -107 -88z" />
    <glyph glyph-name="uni00B3" unicode="&#xb3;" 
d="M314 1013c58 -64 105 -92 198 -92c81 0 106 38 106 92c0 66 -57 84 -168 84l3 134s57 -3 70 -3c55 0 72 29 72 79c0 41 -30 57 -79 57c-66 0 -123 -25 -154 -56l-119 149c53 42 145 73 265 73h11c166 0 286 -48 286 -204c0 -88 -41 -128 -97 -148
c77 -41 119 -78 119 -175c0 -192 -120 -249 -315 -249c-146 0 -251 16 -337 110z" />
    <glyph glyph-name="cedilla" unicode="&#xb8;" 
d="M672 56c-1 -8 -2 -72 -2 -75c97 -5 184 -62 184 -176c0 -130 -114 -203 -272 -203c-66 0 -158 18 -214 54l60 148c33 -18 77 -30 128 -30c36 0 71 12 74 50v2c0 29 -24 55 -72 55s-81 -2 -109 -12v188z" />
    <glyph glyph-name="uni00B9" unicode="&#xb9;" 
d="M514 1527l234 -16v-742h-216l1 511c-72 -79 -146 -140 -271 -182l-72 200c143 38 249 95 324 229z" />
    <glyph glyph-name="ordmasculine" unicode="&#xba;" 
d="M142 675h756v-167h-756v167zM681 1168c0 113 -36 184 -162 184c-102 0 -167 -61 -167 -199c0 -147 43 -221 151 -221c120 0 178 51 178 236zM501 758c-233 0 -352 148 -352 390c0 270 175 378 336 378c273 0 398 -133 398 -342c0 -317 -125 -426 -382 -426z" />
    <glyph glyph-name="onequarter" unicode="&#xbc;" 
d="M78 687h893v-168h-893v168zM553 0v236c-69 -110 -117 -173 -175 -236h175zM175 16c122 134 224 275 326 421h243v-427l128 3v-181l-128 3l3 -151h-210l4 151h-284zM514 1527l234 -16v-742h-216l1 511c-72 -79 -146 -140 -271 -182l-72 200c143 38 249 95 324 229z" />
    <glyph glyph-name="onehalf" unicode="&#xbd;" 
d="M78 687h893v-168h-893v168zM202 241c24 149 185 206 334 206c148 0 300 -58 300 -230c0 -148 -84 -193 -260 -284c-73 -38 -98 -45 -104 -75l361 5v-174h-623c-1 32 -2 62 -2 95c0 45 3 78 30 122c35 56 156 122 240 165c128 65 146 88 146 137c0 32 -35 71 -85 71
c-84 0 -96 -46 -107 -88zM514 1527l234 -16v-742h-216l1 511c-72 -79 -146 -140 -271 -182l-72 200c143 38 249 95 324 229z" />
    <glyph glyph-name="threequarters" unicode="&#xbe;" 
d="M78 687h893v-168h-893v168zM553 0v236c-69 -110 -117 -173 -175 -236h175zM175 16c122 134 224 275 326 421h243v-427l128 3v-181l-128 3l3 -151h-210l4 151h-284zM314 1013c58 -64 105 -92 198 -92c81 0 106 38 106 92c0 66 -57 84 -168 84l3 134s57 -3 70 -3
c55 0 72 29 72 79c0 41 -30 57 -79 57c-66 0 -123 -25 -154 -56l-119 149c53 42 145 73 265 73h11c166 0 286 -48 286 -204c0 -88 -41 -128 -97 -148c77 -41 119 -78 119 -175c0 -192 -120 -249 -315 -249c-146 0 -251 16 -337 110z" />
    <glyph glyph-name="Thorn" unicode="&#xde;" 
d="M714 829c0 120 -117 159 -199 159h-9c-61 0 -105 -4 -150 -5v-71c0 -187 -2 -263 -2 -263c36 -1 71 -2 104 -2c116 0 256 22 256 182zM354 -10l-250 1v1329c106 0 148 7 252 8v-129h37c225 0 396 -13 511 -154c54 -66 72 -109 72 -201c0 -207 -124 -405 -468 -405
c-48 0 -100 1 -154 3v-452z" />
    <glyph glyph-name="eth" unicode="&#xf0;" 
d="M684 738c-246 0 -347 -98 -347 -290c0 -141 64 -237 147 -237c170 0 225 87 225 294c0 125 -13 185 -25 233zM339 1218c-22 34 -100 105 -103 113l219 113c30 -40 82 -110 110 -145l310 119l58 -202l-264 -64c178 -215 292 -384 292 -648c0 -338 -155 -503 -477 -503h-2
c-272 1 -397 167 -397 447c0 261 122 460 490 484c-8 11 -89 99 -118 129c-92 -29 -212 -76 -292 -105l-59 202s172 38 233 60z" />
    <glyph glyph-name="thorn" unicode="&#xfe;" 
d="M104 739v315c0 83 -12 166 -22 231l228 26c9 -24 20 -62 20 -100v-290c56 62 140 90 252 90c275 0 365 -192 365 -460c0 -336 -73 -559 -435 -559c-100 0 -147 37 -176 68c4 -40 11 -77 14 -121v-91c0 -94 7 -178 14 -246l-248 -7c-9 73 -14 168 -14 259zM691 531
c0 193 -37 280 -125 280c-129 0 -173 -67 -218 -155l2 -345c38 -58 92 -118 167 -118c115 0 174 71 174 338z" />
    <glyph glyph-name="Abreve" unicode="&#x102;" 
d="M519 1549c108 0 174 63 180 141l219 -30c-24 -177 -153 -294 -393 -294c-225 0 -357 78 -405 303l219 30c27 -117 105 -150 180 -150zM651 504c-26 143 -125 340 -126 494c-6 -168 -99 -373 -137 -512c60 13 180 13 263 18zM418 1325h224l334 -1081
c24 -81 50 -165 50 -244h-276c0 59 -10 114 -25 167l-32 114c-152 -3 -237 1 -357 -29l-30 -90c-20 -61 -37 -119 -40 -162h-260c4 61 28 143 54 223z" />
    <glyph glyph-name="abreve" unicode="&#x103;" 
d="M499 1334c108 0 174 63 180 141l219 -30c-24 -177 -153 -294 -393 -294c-225 0 -357 78 -405 303l219 30c27 -117 105 -150 180 -150zM318 317c0 -98 69 -128 133 -128c110 0 192 102 210 158v47c-36 42 -104 76 -168 76c-66 0 -175 -43 -175 -153zM917 316
c0 -92 19 -144 76 -189l-125 -149c-52 40 -86 51 -128 123c-76 -78 -158 -112 -340 -112c-171 0 -344 131 -344 313c0 90 30 177 89 238c95 97 206 130 348 130c64 0 130 -21 168 -47c0 166 -116 197 -176 197c-115 0 -209 -33 -283 -111l-122 208c174 110 235 108 413 111
c225 0 424 -135 424 -373v-339z" />
    <glyph glyph-name="Aogonek" unicode="&#x104;" 
d="M1028 0c-240 -100 -371 -143 -371 -248c0 -43 56 -57 120 -57c58 0 98 29 128 51l124 -141c-44 -48 -162 -106 -262 -106c-182 0 -360 56 -360 244c0 199 237 245 337 339c-4 29 -11 57 -19 85l-32 114c-152 -3 -237 1 -357 -29l-30 -90c-20 -61 -37 -119 -40 -162h-260
c4 61 28 143 54 223l358 1102h224l334 -1081c24 -80 50 -163 50 -242zM651 504c-26 143 -125 340 -126 494c-6 -168 -99 -373 -137 -512c60 13 180 13 263 18z" />
    <glyph glyph-name="aogonek" unicode="&#x105;" 
d="M299 317c0 -98 69 -128 133 -128c110 0 192 102 210 158v47c-36 42 -104 76 -168 76c-66 0 -175 -43 -175 -153zM721 101c-76 -78 -158 -112 -340 -112c-171 0 -335 131 -335 313c0 90 30 177 89 238c95 97 197 130 339 130c64 0 130 -21 168 -47
c0 166 -116 197 -176 197c-115 0 -174 -60 -228 -137l-196 110c96 182 254 232 432 235c225 0 412 -135 412 -373v-339c0 -92 19 -144 76 -189c-184 -289 -378 -274 -378 -376c0 -43 56 -57 120 -57c58 0 98 29 128 51l124 -141c-44 -48 -162 -106 -262 -106
c-182 0 -360 56 -360 244c0 180 387 207 387 359z" />
    <glyph glyph-name="dcaron" unicode="&#x10f;" 
d="M284 478c0 -190 38 -305 139 -305c57 0 123 74 171 176v334c-31 55 -88 130 -156 130c-86 0 -154 -72 -154 -335zM45 459c0 381 114 554 361 554c107 0 175 -55 210 -83c-17 77 -22 132 -22 222c0 91 5 187 13 260l232 -9c-7 -68 -14 -152 -14 -246
c0 -280 -2 -641 -2 -890v-24c0 -83 10 -170 19 -236l-184 -20s-42 64 -42 106c-36 -53 -110 -100 -226 -100c-235 0 -345 159 -345 466zM1103 1364c-30 -115 -50 -226 -85 -380l-148 34c14 145 35 289 51 394z" />
    <glyph glyph-name="Dcroat" unicode="&#x110;" 
d="M403 1127h-30c-16 0 -28 0 -45 -3c1 -26 1 -56 1 -87c0 -41 -1 -64 -1 -95h254l2 -209l-256 -1c-1 -244 -3 -452 -4 -534c88 -3 39 -3 99 -3h3c40 0 183 2 249 158c19 45 27 136 27 191c0 381 -106 583 -299 583zM76 942v35c0 129 -4 252 -13 340c81 8 126 14 225 14
c271 0 427 -82 550 -265c84 -127 131 -305 131 -486c0 -69 -8 -138 -21 -204c-48 -241 -209 -362 -389 -379c-55 -5 -106 -7 -161 -7c-84 0 -217 7 -331 7c0 34 0 33 3 131c0 46 5 326 6 604h-70v210h70z" />
    <glyph glyph-name="dcroat" unicode="&#x111;" 
d="M348 478c0 -190 40 -305 148 -305c61 0 131 74 182 176v334c-33 55 -94 130 -166 130c-92 0 -164 -72 -164 -335zM93 459c0 381 122 554 385 554c114 0 187 -55 224 -83c-13 59 -20 105 -23 163h-280v194h283c2 45 5 88 10 125l248 -9c-4 -35 -8 -74 -11 -116h41v-194
h-45c0 -269 -1 -596 -1 -826v-24c0 -83 9 -170 19 -236l-196 -20s-45 64 -45 106c-38 -53 -117 -100 -241 -100c-251 0 -368 159 -368 466z" />
    <glyph glyph-name="Ebreve" unicode="&#x114;" 
d="M480 1549c108 0 174 63 180 141l219 -30c-24 -177 -153 -294 -393 -294c-225 0 -357 78 -405 303l219 30c27 -117 105 -150 180 -150zM102 1319c56 4 126 4 204 4h98h110c149 0 285 -3 359 -3h16v-202h-529v-269h338v-203h-338v-31c0 -207 -2 -332 -2 -411l416 2
c56 0 125 27 125 27l72 -199c-48 -13 -89 -34 -187 -34h-682v1319z" />
    <glyph glyph-name="ebreve" unicode="&#x115;" 
d="M532 1334c108 0 174 63 180 141l219 -30c-24 -177 -153 -294 -393 -294c-225 0 -357 78 -405 303l219 30c27 -117 105 -150 180 -150zM336 606c113 20 207 24 340 24c-5 131 -77 188 -165 188c-102 0 -169 -96 -175 -212zM509 1021c319 0 428 -208 428 -544
c0 -20 -1 -43 -1 -43c-285 -4 -498 -18 -600 -38c16 -111 104 -200 196 -200c106 0 154 36 222 110l178 -156c-101 -112 -167 -160 -406 -160c-286 0 -448 213 -448 526c0 286 148 505 431 505z" />
    <glyph glyph-name="Edotaccent" unicode="&#x116;" 
d="M325 1645h284l2 -246h-285zM102 1319c56 4 126 4 204 4h98h110c149 0 285 -3 359 -3h16v-202h-529v-269h338v-203h-338v-31c0 -207 -2 -332 -2 -411l416 2c56 0 125 27 125 27l72 -199c-48 -13 -89 -34 -187 -34h-682v1319z" />
    <glyph glyph-name="edotaccent" unicode="&#x117;" 
d="M377 1430h284l2 -246h-285zM336 606c113 20 207 24 340 24c-5 131 -77 188 -165 188c-102 0 -169 -96 -175 -212zM509 1021c319 0 428 -208 428 -544c0 -20 -1 -43 -1 -43c-285 -4 -498 -18 -600 -38c16 -111 104 -200 196 -200c106 0 154 36 222 110l178 -156
c-101 -112 -167 -160 -406 -160c-286 0 -448 213 -448 526c0 286 148 505 431 505z" />
    <glyph glyph-name="Eogonek" unicode="&#x118;" 
d="M102 1319c56 4 126 4 204 4h98h110c149 0 285 -3 359 -3h16v-202h-529v-269h338v-203h-338v-31c0 -207 -2 -332 -2 -411l416 2c56 0 125 27 125 27l72 -199c-277 -160 -405 -181 -405 -283c0 -43 56 -57 120 -57c58 0 98 29 128 51l124 -141c-44 -48 -162 -105 -262 -105
c-182 0 -360 56 -360 244c1 125 91 168 246 257h-460v1319z" />
    <glyph glyph-name="eogonek" unicode="&#x119;" 
d="M336 606c113 20 207 24 340 24c-5 131 -77 188 -165 188c-102 0 -169 -96 -175 -212zM509 1021c319 0 428 -208 428 -544c0 -20 -1 -43 -1 -43c-285 -4 -498 -18 -600 -38c16 -111 80 -200 172 -200c106 0 141 9 202 98l200 -128c-144 -227 -388 -308 -388 -415
c0 -43 56 -57 120 -57c58 0 98 29 128 51l124 -141c-44 -48 -162 -106 -262 -106c-182 0 -360 56 -360 244c0 111 112 163 225 248c-283 2 -419 215 -419 526c0 286 148 505 431 505z" />
    <glyph glyph-name="Ecaron" unicode="&#x11a;" 
d="M476 1359l-366 297l144 138l222 -189l240 201l138 -156zM102 1319c56 4 126 4 204 4h98h110c149 0 285 -3 359 -3h16v-202h-529v-269h338v-203h-338v-31c0 -207 -2 -332 -2 -411l416 2c56 0 125 27 125 27l72 -199c-48 -13 -89 -34 -187 -34h-682v1319z" />
    <glyph glyph-name="ecaron" unicode="&#x11b;" 
d="M528 1144l-366 297l144 138l222 -189l240 201l138 -156zM336 606c113 20 207 24 340 24c-5 131 -77 188 -165 188c-102 0 -169 -96 -175 -212zM509 1021c319 0 428 -208 428 -544c0 -20 -1 -43 -1 -43c-285 -4 -498 -18 -600 -38c16 -111 104 -200 196 -200
c106 0 154 36 222 110l178 -156c-101 -112 -167 -160 -406 -160c-286 0 -448 213 -448 526c0 286 148 505 431 505z" />
    <glyph glyph-name="Gcircumflex" unicode="&#x11c;" 
d="M547 1794l378 -291l-138 -156l-240 201l-229 -197l-140 146zM861 772c46 0 89 3 131 7v-193c0 -444 -123 -536 -301 -583c-45 -10 -109 -11 -151 -11c-364 0 -520 294 -520 649c0 242 53 439 184 569c100 90 214 118 329 118h20c214 -5 362 -91 437 -257l-234 -116
c-36 118 -84 166 -216 166c-168 0 -259 -202 -259 -491c0 -264 77 -432 249 -432s198 176 198 370l-64 -1c-71 0 -140 -5 -230 -39l-40 203c96 37 200 43 301 43c56 0 112 -2 166 -2z" />
    <glyph glyph-name="gcircumflex" unicode="&#x11d;" 
d="M499 1576l378 -291l-138 -156l-240 201l-229 -197l-140 146zM541 -184c62 0 193 70 193 168c0 41 -22 74 -136 74l-267 -1c-23 -30 -23 -86 -23 -130c0 -62 74 -111 143 -111h90zM645 726c0 86 -75 96 -161 96c-88 0 -157 -30 -157 -105c0 -90 68 -118 158 -118
c118 0 160 52 160 127zM870 819c0 0 21 -22 21 -103c0 -176 -104 -317 -384 -317h-3c-75 0 -133 7 -147 13c-19 -22 -30 -49 -30 -79c0 -35 23 -85 129 -85h179c153 0 349 -46 349 -247c0 -223 -216 -385 -389 -385h-155c-204 0 -360 91 -360 306c0 101 34 174 87 221
c-47 35 -87 114 -87 200c0 101 39 149 76 190c-39 50 -76 87 -76 161c0 235 161 332 415 332c100 0 196 -14 272 -61c49 46 104 61 220 61v-204c-12 2 -31 5 -41 5c-34 0 -52 -2 -76 -8z" />
    <glyph glyph-name="Gbreve" unicode="&#x11e;" 
d="M550 1549c108 0 174 63 180 141l219 -30c-24 -177 -153 -294 -393 -294c-225 0 -357 78 -405 303l219 30c27 -117 105 -150 180 -150zM861 772c46 0 89 3 131 7v-193c0 -444 -123 -536 -301 -583c-45 -10 -109 -11 -151 -11c-364 0 -520 294 -520 649
c0 242 53 439 184 569c100 90 214 118 329 118h20c214 -5 362 -91 437 -257l-234 -116c-36 118 -84 166 -216 166c-168 0 -259 -202 -259 -491c0 -264 77 -432 249 -432s198 176 198 370l-64 -1c-71 0 -140 -5 -230 -39l-40 203c96 37 200 43 301 43c56 0 112 -2 166 -2z
" />
    <glyph glyph-name="gbreve" unicode="&#x11f;" 
d="M502 1331c108 0 174 63 180 141l219 -30c-24 -177 -153 -294 -393 -294c-225 0 -357 78 -405 303l219 30c27 -117 105 -150 180 -150zM541 -184c62 0 193 70 193 168c0 41 -22 74 -136 74l-267 -1c-23 -30 -23 -86 -23 -130c0 -62 74 -111 143 -111h90zM645 726
c0 86 -75 96 -161 96c-88 0 -157 -30 -157 -105c0 -90 68 -118 158 -118c118 0 160 52 160 127zM870 819c0 0 21 -22 21 -103c0 -176 -104 -317 -384 -317h-3c-75 0 -133 7 -147 13c-19 -22 -30 -49 -30 -79c0 -35 23 -85 129 -85h179c153 0 349 -46 349 -247
c0 -223 -216 -385 -389 -385h-155c-204 0 -360 91 -360 306c0 101 34 174 87 221c-47 35 -87 114 -87 200c0 101 39 149 76 190c-39 50 -76 87 -76 161c0 235 161 332 415 332c100 0 196 -14 272 -61c49 46 104 61 220 61v-204c-12 2 -31 5 -41 5c-34 0 -52 -2 -76 -8z" />
    <glyph glyph-name="Gdotaccent" unicode="&#x120;" 
d="M395 1645h284l2 -246h-285zM861 772c46 0 89 3 131 7v-193c0 -444 -123 -536 -301 -583c-45 -10 -109 -11 -151 -11c-364 0 -520 294 -520 649c0 242 53 439 184 569c100 90 214 118 329 118h20c214 -5 362 -91 437 -257l-234 -116c-36 118 -84 166 -216 166
c-168 0 -259 -202 -259 -491c0 -264 77 -432 249 -432s198 176 198 370l-64 -1c-71 0 -140 -5 -230 -39l-40 203c96 37 200 43 301 43c56 0 112 -2 166 -2z" />
    <glyph glyph-name="gdotaccent" unicode="&#x121;" 
d="M347 1427h284l2 -246h-285zM541 -184c62 0 193 70 193 168c0 41 -22 74 -136 74l-267 -1c-23 -30 -23 -86 -23 -130c0 -62 74 -111 143 -111h90zM645 726c0 86 -75 96 -161 96c-88 0 -157 -30 -157 -105c0 -90 68 -118 158 -118c118 0 160 52 160 127zM870 819
c0 0 21 -22 21 -103c0 -176 -104 -317 -384 -317h-3c-75 0 -133 7 -147 13c-19 -22 -30 -49 -30 -79c0 -35 23 -85 129 -85h179c153 0 349 -46 349 -247c0 -223 -216 -385 -389 -385h-155c-204 0 -360 91 -360 306c0 101 34 174 87 221c-47 35 -87 114 -87 200
c0 101 39 149 76 190c-39 50 -76 87 -76 161c0 235 161 332 415 332c100 0 196 -14 272 -61c49 46 104 61 220 61v-204c-12 2 -31 5 -41 5c-34 0 -52 -2 -76 -8z" />
    <glyph glyph-name="Gcommaaccent" unicode="&#x122;" 
d="M415 -130h270v-215c0 -151 -30 -215 -156 -317l-134 125c53 42 76 75 76 186h-56v221zM861 772c46 0 89 3 131 7v-193c0 -444 -123 -536 -301 -583c-45 -10 -109 -11 -151 -11c-364 0 -520 294 -520 649c0 242 53 439 184 569c100 90 214 118 329 118h20
c214 -5 362 -91 437 -257l-234 -116c-36 118 -84 166 -216 166c-168 0 -259 -202 -259 -491c0 -264 77 -432 249 -432s198 176 198 370l-64 -1c-71 0 -140 -5 -230 -39l-40 203c96 37 200 43 301 43c56 0 112 -2 166 -2z" />
    <glyph glyph-name="gcommaaccent" unicode="&#x123;" 
d="M384 1231c38 112 64 221 109 372l190 -33c-18 -142 -45 -283 -66 -386zM541 -184c62 0 193 70 193 168c0 41 -22 74 -136 74l-267 -1c-23 -30 -23 -86 -23 -130c0 -62 74 -111 143 -111h90zM645 726c0 86 -75 96 -161 96c-88 0 -157 -30 -157 -105
c0 -90 68 -118 158 -118c118 0 160 52 160 127zM870 819c0 0 21 -22 21 -103c0 -176 -104 -317 -384 -317h-3c-75 0 -133 7 -147 13c-19 -22 -30 -49 -30 -79c0 -35 23 -85 129 -85h179c153 0 349 -46 349 -247c0 -223 -216 -385 -389 -385h-155c-204 0 -360 91 -360 306
c0 101 34 174 87 221c-47 35 -87 114 -87 200c0 101 39 149 76 190c-39 50 -76 87 -76 161c0 235 161 332 415 332c100 0 196 -14 272 -61c49 46 104 61 220 61v-204c-12 2 -31 5 -41 5c-34 0 -52 -2 -76 -8z" />
    <glyph glyph-name="Hcircumflex" unicode="&#x124;" 
d="M497 1794l378 -291l-138 -156l-240 201l-229 -197l-140 146zM317 1322l-1 -537c92 21 152 29 272 29h87c0 280 -1 338 -1 503h256v-1317h-255v599h-32c-146 0 -209 -3 -327 -29c0 -350 2 -385 2 -570h-258v1320z" />
    <glyph glyph-name="hcircumflex" unicode="&#x125;" 
d="M202 1872l378 -291l-138 -156l-240 201l-229 -197l-140 146zM942 566v-348c0 -82 19 -142 44 -178l-226 -80c-23 32 -64 106 -64 216v315c0 309 -96 322 -188 322c-77 0 -142 -76 -175 -131v-682h-245v1156c0 94 -9 178 -16 246l248 9c9 -73 14 -169 14 -260
c0 -90 -6 -145 -24 -222c37 28 113 84 232 84c250 0 400 -125 400 -447z" />
    <glyph glyph-name="Hbar" unicode="&#x126;" 
d="M60 1198v122l257 2v-124h357v119h256v-119h80v-207h-80v-991h-255v599h-32c-146 0 -209 -3 -327 -29c0 -350 2 -385 2 -570h-258v991h-60v207h60zM675 991h-359v-206c92 21 152 29 272 29h87v177z" />
    <glyph glyph-name="hbar" unicode="&#x127;" 
d="M972 566v-348c0 -82 7 -157 28 -196l-228 -54c-23 32 -44 98 -44 208v315c0 309 -82 321 -174 321c-72 0 -135 -75 -168 -130v-682h-246l1 1114h-141v207h133c-3 29 -4 56 -7 81l248 9c3 -27 6 -58 8 -90h332v-207h-327c-2 -69 -8 -119 -23 -185c37 28 110 83 224 83
c250 0 384 -124 384 -446z" />
    <glyph glyph-name="Itilde" unicode="&#x128;" 
d="M331 1677c216 0 235 -132 325 -132c50 0 80 31 86 100l177 -54c-21 -96 -79 -224 -241 -224c-198 0 -219 130 -320 130c-42 0 -79 -37 -88 -100l-184 78c33 93 104 202 245 202zM132 1324c156 4 257 5 353 5c105 0 205 -1 368 -3l-1 -211c-123 0 -135 5 -230 5v-901
c46 0 31 1 82 1c45 0 92 -1 144 -4l1 -217c-85 5 -147 6 -210 6c-47 0 -96 -1 -155 -1c-74 0 -195 -7 -350 -7v216c85 4 123 5 180 5h52v901c-66 -1 -122 -1 -228 -7z" />
    <glyph glyph-name="itilde" unicode="&#x129;" 
d="M327 1462c216 0 235 -132 325 -132c50 0 80 31 86 100l177 -54c-21 -96 -79 -224 -241 -224c-198 0 -219 130 -320 130c-42 0 -79 -37 -88 -100l-184 78c33 93 104 202 245 202zM354 1013h255c0 -273 1 -739 1 -739c0 -64 17 -92 109 -92c93 0 153 33 213 91l97 -190
c-86 -71 -237 -101 -361 -101c-85 0 -177 14 -221 38c-85 47 -93 127 -93 186v607c-49 0 -139 -6 -234 -28l-29 186c94 28 183 42 263 42z" />
    <glyph glyph-name="Imacron" unicode="&#x12a;" 
d="M753 1620v-194h-17c-58 -2 -156 -7 -230 -7s-167 1 -235 3l-18 1v197l19 -2c65 -2 180 -3 272 -3c61 0 147 5 192 5h17zM132 1324c156 4 257 5 353 5c105 0 205 -1 368 -3l-1 -211c-123 0 -135 5 -230 5v-901c46 0 31 1 82 1c45 0 92 -1 144 -4l1 -217
c-85 5 -147 6 -210 6c-47 0 -96 -1 -155 -1c-74 0 -195 -7 -350 -7v216c85 4 123 5 180 5h52v901c-66 -1 -122 -1 -228 -7z" />
    <glyph glyph-name="imacron" unicode="&#x12b;" 
d="M749 1405v-194h-17c-58 -2 -156 -7 -230 -7s-167 1 -235 3l-18 1v197l19 -2c65 -2 180 -3 272 -3c61 0 147 5 192 5h17zM354 1013h255c0 -273 1 -739 1 -739c0 -64 17 -92 109 -92c93 0 153 33 213 91l97 -190c-86 -71 -237 -101 -361 -101c-85 0 -177 14 -221 38
c-85 47 -93 127 -93 186v607c-49 0 -139 -6 -234 -28l-29 186c94 28 183 42 263 42z" />
    <glyph glyph-name="Ibreve" unicode="&#x12c;" 
d="M497 1549c108 0 174 63 180 141l219 -30c-24 -177 -153 -294 -393 -294c-225 0 -357 78 -405 303l219 30c27 -117 105 -150 180 -150zM132 1324c156 4 257 5 353 5c105 0 205 -1 368 -3l-1 -211c-123 0 -135 5 -230 5v-901c46 0 31 1 82 1c45 0 92 -1 144 -4l1 -217
c-85 5 -147 6 -210 6c-47 0 -96 -1 -155 -1c-74 0 -195 -7 -350 -7v216c85 4 123 5 180 5h52v901c-66 -1 -122 -1 -228 -7z" />
    <glyph glyph-name="ibreve" unicode="&#x12d;" 
d="M493 1334c108 0 174 63 180 141l219 -30c-24 -177 -153 -294 -393 -294c-225 0 -357 78 -405 303l219 30c27 -117 105 -150 180 -150zM354 1013h255c0 -273 1 -739 1 -739c0 -64 17 -92 109 -92c93 0 153 33 213 91l97 -190c-86 -71 -237 -101 -361 -101
c-85 0 -177 14 -221 38c-85 47 -93 127 -93 186v607c-49 0 -139 -6 -234 -28l-29 186c94 28 183 42 263 42z" />
    <glyph glyph-name="Iogonek" unicode="&#x12e;" 
d="M132 1324c156 4 257 5 353 5c105 0 205 -1 368 -3l-1 -211c-123 0 -135 5 -230 5v-901c46 0 31 1 82 1c45 0 92 -1 144 -4l1 -217c-247 -65 -361 -144 -361 -246c0 -43 56 -57 120 -57c58 0 98 29 128 51l124 -141c-44 -48 -162 -106 -262 -106c-182 0 -360 56 -360 244
c0 119 78 179 226 260c-75 -1 -188 -7 -330 -7v216c85 4 123 5 180 5h52v901c-66 -1 -122 -1 -228 -7z" />
    <glyph glyph-name="iogonek" unicode="&#x12f;" 
d="M329 1406h291v-225h-291v225zM354 1013h255c0 -273 1 -739 1 -739c0 -64 17 -92 109 -92c93 0 153 33 213 91l97 -190c-2 -2 -4 -4 -7 -6c-257 -204 -395 -207 -395 -325c0 -38 56 -58 120 -58c58 0 98 30 128 52l124 -142c-44 -48 -162 -105 -262 -105
c-182 0 -360 56 -360 244c0 112 86 161 213 243c-59 6 -112 17 -143 34c-85 47 -93 127 -93 186v607c-49 0 -139 -6 -234 -28l-29 186c94 28 183 42 263 42z" />
    <glyph glyph-name="Idotaccent" unicode="&#x130;" 
d="M342 1645h284l2 -246h-285zM132 1324c156 4 257 5 353 5c105 0 205 -1 368 -3l-1 -211c-123 0 -135 5 -230 5v-901c46 0 31 1 82 1c45 0 92 -1 144 -4l1 -217c-85 5 -147 6 -210 6c-47 0 -96 -1 -155 -1c-74 0 -195 -7 -350 -7v216c85 4 123 5 180 5h52v901
c-66 -1 -122 -1 -228 -7z" />
    <glyph glyph-name="IJ" unicode="&#x132;" 
d="M731 0c-235 0 -316 215 -318 435l235 -1c6 -153 38 -222 77 -222c61 0 71 91 71 427c0 95 -15 374 -55 465c-49 0 -44 4 -72 4c-78 -3 -88 -12 -108 -18l-27 212c22 7 46 19 134 22c109 0 271 -1 388 -1l-2 -217c-36 0 -22 1 -72 1c23 -119 57 -357 57 -468
c0 -379 -38 -639 -308 -639zM10 1324c86 4 141 5 194 5c58 0 112 -1 202 -3v-211l-57 5v-900l55 -4v-217c-47 5 -80 6 -115 6c-26 0 -53 -1 -85 -1c-41 0 -108 -7 -193 -7v216c38 3 59 5 82 5v901l-80 -7z" />
    <glyph glyph-name="ij" unicode="&#x133;" 
d="M168 1013h256v-739c0 -64 0 -92 59 -92c60 0 71 2 109 60l90 -159c-55 -71 -153 -101 -232 -101c-54 0 -144 14 -188 38c-85 47 -94 127 -94 186v607h-25c-24 0 -32 -2 -107 -19l-30 186c94 28 82 33 162 33zM990 -78c0 -153 -82 -311 -368 -311c-26 0 -52 -1 -78 -1
c-95 0 -198 14 -396 146l150 174c128 -116 232 -118 296 -118h6h18c120 0 116 105 118 140v861h-30c-35 0 -69 -2 -144 -19l-30 186c94 28 124 33 204 33h254v-1091zM694 1406h290v-225h-290v225zM144 1406h292v-225h-292v225z" />
    <glyph glyph-name="Jcircumflex" unicode="&#x134;" 
d="M594 1794l378 -291l-138 -156l-240 201l-229 -197l-140 146zM414 -8c-275 0 -390 223 -392 443l260 -1c6 -153 60 -230 126 -230c118 0 164 129 164 468c0 97 -17 294 -29 434c-49 0 -67 2 -104 2c-104 -3 -116 -12 -143 -18l-37 212c30 7 61 19 179 22
c145 0 362 -1 518 -1l-3 -217c-48 0 -94 4 -144 4c16 -182 23 -326 23 -452c0 -361 -88 -666 -418 -666z" />
    <glyph glyph-name="jcircumflex" unicode="&#x135;" 
d="M703 1575l378 -291l-138 -156l-240 201l-229 -197l-140 146zM842 -78c0 -153 -81 -311 -367 -311c-123 0 -279 28 -405 233l164 148c86 -145 155 -180 218 -180h18c120 0 116 105 118 140v861c-49 0 -140 -6 -235 -28l-29 186c94 28 184 42 264 42h254v-1091z" />
    <glyph glyph-name="Kcommaaccent" unicode="&#x136;" 
d="M383 -49h270v-215c0 -151 -30 -215 -156 -317l-134 125c53 42 76 75 76 186h-56v221zM588 782c120 -119 407 -550 458 -688l-236 -126c-46 111 -252 477 -382 606c0 0 -56 -62 -86 -134v-440h-258v1335h258v-464c103 145 427 468 464 505l196 -177
c-182 -135 -354 -343 -414 -417z" />
    <glyph glyph-name="kcommaaccent" unicode="&#x137;" 
d="M405 -49h270v-215c0 -151 -30 -215 -156 -317l-134 125c53 42 76 75 76 186h-56v221zM982 823c-164 -56 -288 -144 -366 -227c182 -119 290 -255 418 -496l-226 -128c-112 233 -184 349 -352 476c-31 -35 -59 -76 -73 -104v-344h-249v1222c0 55 -6 110 -24 161l246 44
c20 -51 27 -96 27 -169v-389c0 -78 -10 -146 -34 -222c125 156 291 306 528 401z" />
    <glyph glyph-name="kgreenlandic" unicode="&#x138;" 
d="M589 571c120 -119 390 -323 441 -461l-236 -126c-46 111 -230 294 -360 423c0 0 -56 -62 -86 -134v-273h-258v1022h258v-346c103 145 476 362 528 382l142 -202c-205 -95 -369 -211 -429 -285z" />
    <glyph glyph-name="Lacute" unicode="&#x139;" 
d="M-22 1509c143 48 317 160 432 268l134 -172c-111 -112 -333 -223 -476 -270zM157 -3v1328h256v-1118h426c59 3 70 6 114 21l72 -197c-47 -16 -109 -34 -184 -34h-684z" />
    <glyph glyph-name="lacute" unicode="&#x13a;" 
d="M174 1587c143 48 317 160 432 268l134 -172c-111 -112 -333 -223 -476 -270zM355 1401h254c0 -273 2 -1127 2 -1127c0 -64 16 -92 108 -92c93 0 153 33 213 91l97 -190c-86 -71 -237 -101 -361 -101c-85 0 -176 14 -220 38c-85 47 -93 127 -93 186c0 227 -1 468 -1 695
c0 114 0 196 1 300h-40c-57 0 -142 -2 -217 -19l-29 186c94 28 206 33 286 33z" />
    <glyph glyph-name="Lcommaaccent" unicode="&#x13b;" 
d="M418 -49h270v-215c0 -151 -30 -215 -156 -317l-134 125c53 42 76 75 76 186h-56v221zM157 -3v1328h256v-1118h426c59 3 70 6 114 21l72 -197c-47 -16 -109 -34 -184 -34h-684z" />
    <glyph glyph-name="lcommaaccent" unicode="&#x13c;" 
d="M525 -49h270v-215c0 -151 -30 -215 -156 -317l-134 125c53 42 76 75 76 186h-56v221zM355 1401h254c0 -273 2 -1127 2 -1127c0 -64 16 -92 108 -92c93 0 153 33 213 91l97 -190c-86 -71 -237 -101 -361 -101c-85 0 -176 14 -220 38c-85 47 -93 127 -93 186
c0 227 -1 468 -1 695c0 114 0 196 1 300h-40c-57 0 -142 -2 -217 -19l-29 186c94 28 206 33 286 33z" />
    <glyph glyph-name="Lcaron" unicode="&#x13d;" 
d="M972 1274c-30 -115 -50 -226 -85 -380l-186 22c14 145 35 290 51 395zM157 -3v1328h256v-1118h426c59 3 70 6 114 21l72 -197c-47 -16 -109 -34 -184 -34h-684z" />
    <glyph glyph-name="lcaron" unicode="&#x13e;" 
d="M1019 1393c-30 -115 -50 -226 -85 -380l-186 22c14 145 35 290 51 395zM355 1401h254c0 -273 2 -1127 2 -1127c0 -64 16 -92 108 -92c93 0 153 33 213 91l97 -190c-86 -71 -237 -101 -361 -101c-85 0 -176 14 -220 38c-85 47 -93 127 -93 186c0 227 -1 468 -1 695
c0 114 0 196 1 300h-40c-57 0 -142 -2 -217 -19l-29 186c94 28 206 33 286 33z" />
    <glyph glyph-name="Ldot" unicode="&#x13f;" 
d="M613.873 834.657h257.5v-244.881h-257.5v244.881zM157 -3v1328h256v-1118h426c59 3 70 6 114 21l72 -197c-47 -16 -109 -34 -184 -34h-684z" />
    <glyph glyph-name="ldot" unicode="&#x140;" 
d="M685.873 834.657h257.5v-244.881h-257.5v244.881zM355 1401h254c0 -273 2 -1127 2 -1127c0 -64 16 -92 108 -92c93 0 153 33 213 91l97 -190c-86 -71 -237 -101 -361 -101c-85 0 -176 14 -220 38c-85 47 -93 127 -93 186c0 227 -1 468 -1 695c0 114 0 196 1 300h-40
c-57 0 -142 -2 -217 -19l-29 186c94 28 206 33 286 33z" />
    <glyph glyph-name="Lslash" unicode="&#x141;" 
d="M267 513l-132 -70l-103 194l235 125v563h254v-429l232 123l103 -195l-335 -177v-440h318c59 3 70 6 114 21l72 -197c-47 -16 -109 -34 -184 -34h-574v516z" />
    <glyph glyph-name="lslash" unicode="&#x142;" 
d="M344 1430h254v-488l238 126l103 -195l-341 -180c0 -246 2 -419 2 -419c0 -64 16 -92 108 -92c93 0 153 33 213 91l97 -190c-86 -71 -237 -101 -361 -101c-85 0 -176 14 -220 38c-85 47 -93 127 -93 186l-1 352l-124 -66l-103 194l227 120l1 424c-49 0 -140 -6 -235 -28
l-29 186c94 28 184 42 264 42z" />
    <glyph glyph-name="Nacute" unicode="&#x143;" 
d="M189 1509c143 48 317 160 432 268l134 -172c-111 -112 -333 -223 -476 -270zM691 0c-90 259 -237 559 -371 778v-208c0 -299 1 -418 1 -573h-246v1328l211 -7c126 -188 360 -580 410 -814l-7 274c0 190 3 377 12 551l244 -1c-6 -115 -8 -267 -8 -433
c0 -231 4 -490 4 -725c0 -58 -1 -116 -1 -170h-249z" />
    <glyph glyph-name="nacute" unicode="&#x144;" 
d="M217 1294c143 48 317 160 432 268l134 -172c-111 -112 -333 -223 -476 -270zM338 927c56 50 190 99 300 99c164 0 300 -66 300 -230v-518c0 -66 50 -88 106 -118l-116 -200c-95 30 -241 104 -241 262v477c0 74 -15 120 -82 120c-63 0 -169 -38 -254 -112v-707h-251v706
c0 178 -8 204 -32 298l232 48c10 -24 31 -76 38 -125z" />
    <glyph glyph-name="Ncommaaccent" unicode="&#x145;" 
d="M387 -49h270v-215c0 -151 -30 -215 -156 -317l-134 125c53 42 76 75 76 186h-56v221zM691 0c-90 259 -237 559 -371 778v-208c0 -299 1 -418 1 -573h-246v1328l211 -7c126 -188 360 -580 410 -814l-7 274c0 190 3 377 12 551l244 -1c-6 -115 -8 -267 -8 -433
c0 -231 4 -490 4 -725c0 -58 -1 -116 -1 -170h-249z" />
    <glyph glyph-name="ncommaaccent" unicode="&#x146;" 
d="M414 -49h270v-215c0 -151 -30 -215 -156 -317l-134 125c53 42 76 75 76 186h-56v221zM338 927c56 50 190 99 300 99c164 0 300 -66 300 -230v-518c0 -66 50 -88 106 -118l-116 -200c-95 30 -241 104 -241 262v477c0 74 -15 120 -82 120c-63 0 -169 -38 -254 -112v-707
h-251v706c0 178 -8 204 -32 298l232 48c10 -24 31 -76 38 -125z" />
    <glyph glyph-name="Ncaron" unicode="&#x147;" 
d="M492 1359l-366 297l144 138l222 -189l240 201l138 -156zM691 0c-90 259 -237 559 -371 778v-208c0 -299 1 -418 1 -573h-246v1328l211 -7c126 -188 360 -580 410 -814l-7 274c0 190 3 377 12 551l244 -1c-6 -115 -8 -267 -8 -433c0 -231 4 -490 4 -725
c0 -58 -1 -116 -1 -170h-249z" />
    <glyph glyph-name="ncaron" unicode="&#x148;" 
d="M520 1144l-366 297l144 138l222 -189l240 201l138 -156zM338 927c56 50 190 99 300 99c164 0 300 -66 300 -230v-518c0 -66 50 -88 106 -118l-116 -200c-95 30 -241 104 -241 262v477c0 74 -15 120 -82 120c-63 0 -169 -38 -254 -112v-707h-251v706c0 178 -8 204 -32 298
l232 48c10 -24 31 -76 38 -125z" />
    <glyph glyph-name="Eng" unicode="&#x14a;" 
d="M540 1296c290 0 408 -195 408 -436c0 -231 4 -460 4 -695v-34c0 -256 -27 -527 -527 -527h-34v222c285 0 309 116 309 280v746c0 184 -43 235 -162 235c-105 0 -174 -149 -210 -217v-870l-253 -3v1062c0 115 -39 200 -39 200l203 60c19 -39 34 -71 41 -148
c75 75 144 125 260 125z" />
    <glyph glyph-name="eng" unicode="&#x14b;" 
d="M338 927c56 50 152 99 262 99c164 0 292 -66 292 -230v-518c0 -397 -64 -685 -478 -685v219c216 0 226 222 226 379l-2 508c0 74 -7 120 -74 120c-63 0 -128 -38 -213 -112l1 -707h-252v706c0 178 -8 204 -32 298l232 48c10 -24 31 -76 38 -125z" />
    <glyph glyph-name="Omacron" unicode="&#x14c;" 
d="M777 1620v-194h-17c-58 -2 -156 -7 -230 -7s-167 1 -235 3l-18 1v197l19 -2c65 -2 180 -3 272 -3c61 0 147 5 192 5h17zM522 1350c161 0 452 -73 457 -703v-11c0 -167 -31 -324 -79 -419c-75 -147 -225 -233 -390 -233c-122 0 -271 41 -352 143
c-90 112 -122 268 -122 452c0 352 60 511 130 608c66 92 200 160 356 163zM351 277c47 -74 85 -90 159 -90c79 0 128 62 159 139c27 59 48 215 49 314v17c0 107 -9 256 -45 352c-40 106 -92 138 -152 138c-65 0 -103 -25 -143 -96c-47 -83 -81 -216 -81 -459
c0 -97 13 -250 54 -315z" />
    <glyph glyph-name="omacron" unicode="&#x14d;" 
d="M772 1405v-194h-17c-58 -2 -156 -7 -230 -7s-167 1 -235 3l-18 1v197l19 -2c65 -2 180 -3 272 -3c61 0 147 5 192 5h17zM625 247c47 52 60 156 60 283v16c-2 157 -37 284 -165 284c-151 0 -196 -140 -196 -348c0 -166 63 -285 184 -285c55 1 81 14 117 50zM507 -6
c-310 0 -435 190 -435 470c0 371 141 568 433 568c197 0 307 -69 377 -201c41 -79 59 -192 59 -288c0 -285 -96 -549 -432 -549h-2z" />
    <glyph glyph-name="Obreve" unicode="&#x14e;" 
d="M521 1549c108 0 174 63 180 141l219 -30c-24 -177 -153 -294 -393 -294c-225 0 -357 78 -405 303l219 30c27 -117 105 -150 180 -150zM522 1350c161 0 452 -73 457 -703v-11c0 -167 -31 -324 -79 -419c-75 -147 -225 -233 -390 -233c-122 0 -271 41 -352 143
c-90 112 -122 268 -122 452c0 352 60 511 130 608c66 92 200 160 356 163zM351 277c47 -74 85 -90 159 -90c79 0 128 62 159 139c27 59 48 215 49 314v17c0 107 -9 256 -45 352c-40 106 -92 138 -152 138c-65 0 -103 -25 -143 -96c-47 -83 -81 -216 -81 -459
c0 -97 13 -250 54 -315z" />
    <glyph glyph-name="obreve" unicode="&#x14f;" 
d="M516 1334c108 0 174 63 180 141l219 -30c-24 -177 -153 -294 -393 -294c-225 0 -357 78 -405 303l219 30c27 -117 105 -150 180 -150zM625 247c47 52 60 156 60 283v16c-2 157 -37 284 -165 284c-151 0 -196 -140 -196 -348c0 -166 63 -285 184 -285c55 1 81 14 117 50z
M507 -6c-310 0 -435 190 -435 470c0 371 141 568 433 568c197 0 307 -69 377 -201c41 -79 59 -192 59 -288c0 -285 -96 -549 -432 -549h-2z" />
    <glyph glyph-name="Ohungarumlaut" unicode="&#x150;" 
d="M566 1488c117 95 230 261 300 402l201 -127c-65 -144 -236 -324 -354 -418zM183 1495c117 95 230 261 300 402l200 -127c-65 -144 -235 -324 -353 -418zM522 1350c161 0 452 -73 457 -703v-11c0 -167 -31 -324 -79 -419c-75 -147 -225 -233 -390 -233
c-122 0 -271 41 -352 143c-90 112 -122 268 -122 452c0 352 60 511 130 608c66 92 200 160 356 163zM351 277c47 -74 85 -90 159 -90c79 0 128 62 159 139c27 59 48 215 49 314v17c0 107 -9 256 -45 352c-40 106 -92 138 -152 138c-65 0 -103 -25 -143 -96
c-47 -83 -81 -216 -81 -459c0 -97 13 -250 54 -315z" />
    <glyph glyph-name="ohungarumlaut" unicode="&#x151;" 
d="M561 1273c117 95 230 261 300 402l201 -127c-65 -144 -236 -324 -354 -418zM178 1280c117 95 230 261 300 402l200 -127c-65 -144 -235 -324 -353 -418zM625 247c47 52 60 156 60 283v16c-2 157 -37 284 -165 284c-151 0 -196 -140 -196 -348c0 -166 63 -285 184 -285
c55 1 81 14 117 50zM507 -6c-310 0 -435 190 -435 470c0 371 141 568 433 568c197 0 307 -69 377 -201c41 -79 59 -192 59 -288c0 -285 -96 -549 -432 -549h-2z" />
    <glyph glyph-name="Racute" unicode="&#x154;" 
d="M213 1509c143 48 317 160 432 268l134 -172c-111 -112 -333 -223 -476 -270zM699 552c78 -124 181 -275 237 -341c18 -16 66 -52 108 -63l-122 -192c-58 9 -118 59 -152 102c-97 109 -264 376 -320 472c-36 3 -73 10 -117 28v-558h-243v1136c0 68 -1 116 -5 178
c42 4 157 15 218 15c250 0 469 -8 591 -161c48 -60 74 -154 74 -240c0 -224 -125 -355 -269 -376zM706 906c0 170 -116 218 -310 218c-26 0 -34 0 -63 -1v-355c64 -27 123 -42 166 -42h8c170 0 199 78 199 180z" />
    <glyph glyph-name="racute" unicode="&#x155;" 
d="M237 1294c143 48 317 160 432 268l134 -172c-111 -112 -333 -223 -476 -270zM404 864c75 98 179 156 340 156c167 0 272 -102 272 -292v-30l-252 -2c1 11 2 27 2 44c0 37 -10 78 -66 78s-136 -73 -232 -258v-560h-252v704c0 57 -48 99 -110 154l148 186
c61 -49 116 -77 150 -180z" />
    <glyph glyph-name="Rcommaaccent" unicode="&#x156;" 
d="M409 -49h270v-215c0 -151 -30 -215 -156 -317l-134 125c53 42 76 75 76 186h-56v221zM699 552c78 -124 181 -275 237 -341c18 -16 66 -52 108 -63l-122 -192c-58 9 -118 59 -152 102c-97 109 -264 376 -320 472c-36 3 -73 10 -117 28v-558h-243v1136c0 68 -1 116 -5 178
c42 4 157 15 218 15c250 0 469 -8 591 -161c48 -60 74 -154 74 -240c0 -224 -125 -355 -269 -376zM706 906c0 170 -116 218 -310 218c-26 0 -34 0 -63 -1v-355c64 -27 123 -42 166 -42h8c170 0 199 78 199 180z" />
    <glyph glyph-name="rcommaaccent" unicode="&#x157;" 
d="M212 -49h270v-215c0 -151 -30 -215 -156 -317l-134 125c53 42 76 75 76 186h-56v221zM404 864c75 98 179 156 340 156c167 0 272 -102 272 -292v-30l-252 -2c1 11 2 27 2 44c0 37 -10 78 -66 78s-136 -73 -232 -258v-560h-252v704c0 57 -48 99 -110 154l148 186
c61 -49 116 -77 150 -180z" />
    <glyph glyph-name="Rcaron" unicode="&#x158;" 
d="M516 1359l-366 297l144 138l222 -189l240 201l138 -156zM699 552c78 -124 181 -275 237 -341c18 -16 66 -52 108 -63l-122 -192c-58 9 -118 59 -152 102c-97 109 -264 376 -320 472c-36 3 -73 10 -117 28v-558h-243v1136c0 68 -1 116 -5 178c42 4 157 15 218 15
c250 0 469 -8 591 -161c48 -60 74 -154 74 -240c0 -224 -125 -355 -269 -376zM706 906c0 170 -116 218 -310 218c-26 0 -34 0 -63 -1v-355c64 -27 123 -42 166 -42h8c170 0 199 78 199 180z" />
    <glyph glyph-name="rcaron" unicode="&#x159;" 
d="M540 1144l-366 297l144 138l222 -189l240 201l138 -156zM404 864c75 98 179 156 340 156c167 0 272 -102 272 -292v-30l-252 -2c1 11 2 27 2 44c0 37 -10 78 -66 78s-136 -73 -232 -258v-560h-252v704c0 57 -48 99 -110 154l148 186c61 -49 116 -77 150 -180z" />
    <glyph glyph-name="Sacute" unicode="&#x15a;" 
d="M193 1509c143 48 317 160 432 268l134 -172c-111 -112 -333 -223 -476 -270zM231 702c-110 50 -180 142 -180 304c0 220 164 322 419 322h9c240 0 436 -82 481 -250l-273 -102c-46 101 -132 142 -202 142c-86 0 -166 -36 -166 -104c0 -98 56 -122 114 -144
c123 -48 194 -57 326 -118c108 -53 216 -158 216 -356c0 -300 -214 -405 -454 -405h-19c-353 9 -475 203 -475 431l266 -2c0 -143 62 -220 214 -220c108 0 210 36 210 182c0 109 -71 165 -150 200c-116 51 -203 59 -336 120z" />
    <glyph glyph-name="sacute" unicode="&#x15b;" 
d="M189 1294c143 48 317 160 432 268l134 -172c-111 -112 -333 -223 -476 -270zM279 549c-82 40 -137 121 -137 232c0 186 190 248 365 248c139 0 292 -15 403 -136l-177 -163c-54 58 -127 99 -223 99c-82 0 -114 -22 -114 -61c0 -29 6 -49 34 -67
c256 -104 500 -139 500 -423c0 -162 -144 -250 -251 -278c-56 -13 -116 -20 -173 -20c-256 0 -412 135 -412 350h253c0 -108 48 -148 157 -148c59 0 172 20 172 108c0 59 -21 92 -70 125c-69 44 -234 89 -327 134z" />
    <glyph glyph-name="Scircumflex" unicode="&#x15c;" 
d="M497 1794l378 -291l-138 -156l-240 201l-229 -197l-140 146zM231 702c-110 50 -180 142 -180 304c0 220 164 322 419 322h9c240 0 436 -82 481 -250l-273 -102c-46 101 -132 142 -202 142c-86 0 -166 -36 -166 -104c0 -98 56 -122 114 -144c123 -48 194 -57 326 -118
c108 -53 216 -158 216 -356c0 -300 -214 -405 -454 -405h-19c-353 9 -475 203 -475 431l266 -2c0 -143 62 -220 214 -220c108 0 210 36 210 182c0 109 -71 165 -150 200c-116 51 -203 59 -336 120z" />
    <glyph glyph-name="scircumflex" unicode="&#x15d;" 
d="M493 1579l378 -291l-138 -156l-240 201l-229 -197l-140 146zM279 549c-82 40 -137 121 -137 232c0 186 190 248 365 248c139 0 292 -15 403 -136l-177 -163c-54 58 -127 99 -223 99c-82 0 -114 -22 -114 -61c0 -29 6 -49 34 -67c256 -104 500 -139 500 -423
c0 -162 -144 -250 -251 -278c-56 -13 -116 -20 -173 -20c-256 0 -412 135 -412 350h253c0 -108 48 -148 157 -148c59 0 172 20 172 108c0 59 -21 92 -70 125c-69 44 -234 89 -327 134z" />
    <glyph glyph-name="Scedilla" unicode="&#x15e;" 
d="M231 702c-110 50 -180 142 -180 304c0 220 164 322 419 322h9c240 0 436 -82 481 -250l-273 -102c-46 101 -132 142 -202 142c-86 0 -166 -36 -166 -104c0 -98 56 -122 114 -144c123 -48 194 -57 326 -118c108 -53 216 -158 216 -356c0 -254 -153 -368 -345 -397
c-1 -18 -1 -67 -1 -70c97 -5 183 -62 183 -176c0 -130 -114 -202 -272 -202c-66 0 -158 18 -214 54l60 147c33 -18 78 -29 129 -29c36 0 70 11 73 49v2c0 29 -24 56 -72 56s-80 -3 -108 -13v181c-281 39 -381 218 -381 424l265 -2c0 -143 63 -220 215 -220
c108 0 210 36 210 182c0 109 -71 165 -150 200c-116 51 -203 59 -336 120z" />
    <glyph glyph-name="scedilla" unicode="&#x15f;" 
d="M249 549c-82 40 -137 121 -137 232c0 186 190 248 365 248c139 0 292 -15 403 -136l-177 -163c-54 58 -127 99 -223 99c-82 0 -114 -22 -114 -61c0 -29 6 -49 34 -67c256 -104 500 -139 500 -423c0 -162 -144 -250 -251 -278c-18 -4 -36 -8 -55 -11v-25v-46
c97 -5 182 -62 182 -176c0 -130 -114 -202 -272 -202c-66 0 -158 18 -214 54l60 147c33 -18 79 -29 130 -29c36 0 69 11 72 49v2c0 29 -23 56 -71 56s-81 -3 -109 -13v182c-194 32 -308 158 -308 342h253c0 -108 48 -148 157 -148c59 0 172 20 172 108c0 59 -21 92 -70 125
c-69 44 -234 89 -327 134z" />
    <glyph glyph-name="Scaron" unicode="&#x160;" 
d="M496 1359l-366 297l144 138l222 -189l240 201l138 -156zM231 702c-110 50 -180 142 -180 304c0 220 164 322 419 322h9c240 0 436 -82 481 -250l-273 -102c-46 101 -132 142 -202 142c-86 0 -166 -36 -166 -104c0 -98 56 -122 114 -144c123 -48 194 -57 326 -118
c108 -53 216 -158 216 -356c0 -300 -214 -405 -454 -405h-19c-353 9 -475 203 -475 431l266 -2c0 -143 62 -220 214 -220c108 0 210 36 210 182c0 109 -71 165 -150 200c-116 51 -203 59 -336 120z" />
    <glyph glyph-name="scaron" unicode="&#x161;" 
d="M492 1144l-366 297l144 138l222 -189l240 201l138 -156zM279 549c-82 40 -137 121 -137 232c0 186 190 248 365 248c139 0 292 -15 403 -136l-177 -163c-54 58 -127 99 -223 99c-82 0 -114 -22 -114 -61c0 -29 6 -49 34 -67c256 -104 500 -139 500 -423
c0 -162 -144 -250 -251 -278c-56 -13 -116 -20 -173 -20c-256 0 -412 135 -412 350h253c0 -108 48 -148 157 -148c59 0 172 20 172 108c0 59 -21 92 -70 125c-69 44 -234 89 -327 134z" />
    <glyph glyph-name="Tcommaaccent" unicode="&#x162;" 
d="M355 -9v1127c-198 0 -240 -1 -316 -1v207c122 0 576 1 764 1c73 0 143 -9 167 -16l-60 -203s-52 12 -112 12h-183v-1127h-19c0 -21 -1 -59 -1 -61c97 -5 183 -62 183 -176c0 -130 -114 -203 -272 -203c-66 0 -158 18 -214 54l60 148c33 -18 78 -30 129 -30
c36 0 70 12 73 50v2c0 29 -23 55 -71 55s-81 -2 -109 -12v173h-19z" />
    <glyph glyph-name="tcommaaccent" unicode="&#x163;" 
d="M388 435v-40c0 -133 39 -181 123 -195c18 -3 52 -4 65 -4c65 0 95 13 120 27c52 29 63 97 70 116l208 -100c-10 -28 -64 -139 -176 -204c-42 -25 -93 -35 -151 -39c0 -21 -1 -61 -1 -63c97 -5 183 -62 183 -176c0 -130 -114 -202 -272 -202c-66 0 -158 18 -214 54l60 147
c33 -18 78 -29 129 -29c36 0 70 11 73 49v2c0 29 -23 56 -71 56s-81 -3 -109 -13v181c-112 16 -200 58 -250 162c-35 72 -39 147 -39 233v43c2 90 4 208 9 371h-14c-28 0 -56 -4 -82 -11l-17 203c24 9 69 12 102 12h15c0 70 1 164 1 234l251 -6c0 -66 -1 -155 -2 -223
c109 -1 376 -4 384 -4l-3 -204c-137 0 -250 2 -383 2c-6 -167 -5 -279 -9 -379z" />
    <glyph glyph-name="Tcaron" unicode="&#x164;" 
d="M474 1359l-366 297l144 138l222 -189l240 201l138 -156zM355 0v1118c-198 0 -240 -1 -316 -1v207c122 0 576 1 764 1c73 0 143 -9 167 -16l-60 -203s-52 12 -112 12h-183v-1118h-260z" />
    <glyph glyph-name="tcaron" unicode="&#x165;" 
d="M949 1476c-30 -115 -50 -227 -85 -381l-186 22c14 145 36 290 52 395zM430 436v-40c0 -134 39 -182 123 -196c18 -2 52 -4 65 -4c65 0 95 14 120 28c52 28 63 96 70 116l208 -100c-10 -28 -64 -140 -176 -204c-58 -34 -135 -42 -220 -42c-184 0 -332 22 -403 170
c-35 72 -39 148 -39 234v42c2 90 4 201 9 365h-14c-28 0 -56 -4 -82 -12l-17 204c24 8 69 12 102 12h15c0 70 1 171 1 241l251 -6c0 -66 -1 -163 -2 -231c109 0 421 -4 429 -4l-3 -204c-137 0 -295 2 -428 2c-6 -166 -5 -271 -9 -371z" />
    <glyph glyph-name="Tbar" unicode="&#x166;" 
d="M355 504h-227v217h227v397c-198 0 -240 -1 -316 -1v207c122 0 576 1 764 1c73 0 143 -9 167 -16l-60 -203s-52 12 -112 12h-183v-397h209v-217h-209v-513h-260v513z" />
    <glyph glyph-name="tbar" unicode="&#x167;" 
d="M471 433v-37c0 -134 39 -182 123 -196c18 -2 52 -4 65 -4c65 0 95 14 120 28c52 28 63 96 70 116l208 -100c-10 -28 -64 -140 -176 -204c-58 -34 -135 -42 -220 -42c-184 0 -332 22 -403 170c-35 72 -39 148 -39 234v35h-199v205h203c1 49 3 104 5 167h-14
c-28 0 -56 -4 -82 -12l-17 204c24 8 69 12 102 12h15c0 70 1 171 1 241l251 -6c0 -66 -1 -163 -2 -231c109 0 421 -4 429 -4l-3 -204c-137 0 -295 2 -428 2c-2 -64 -4 -120 -5 -169h240v-205h-244z" />
    <glyph glyph-name="Utilde" unicode="&#x168;" 
d="M342 1678c216 0 235 -132 325 -132c50 0 80 31 86 100l177 -54c-21 -96 -79 -224 -241 -224c-198 0 -219 130 -320 130c-42 0 -79 -37 -88 -100l-184 78c33 93 104 202 245 202zM701 1350l253 -28c-7 -50 -8 -85 -8 -127v-29c0 -148 3 -278 3 -391v-59
c0 -237 -5 -463 -117 -595c-82 -97 -211 -126 -340 -131c-308 0 -406 169 -424 466c-5 77 -7 201 -7 339c0 175 3 373 9 534h258c-4 -168 -8 -397 -8 -586v-141c0 -64 1 -117 6 -154c14 -94 24 -244 164 -248c200 9 203 231 203 518c0 126 -5 275 -5 448c0 72 3 121 13 184z
" />
    <glyph glyph-name="utilde" unicode="&#x169;" 
d="M336 1462c216 0 235 -132 325 -132c50 0 80 31 86 100l177 -54c-21 -96 -79 -224 -241 -224c-198 0 -219 130 -320 130c-42 0 -79 -37 -88 -100l-184 78c33 93 104 202 245 202zM893 -17c-64 29 -106 75 -127 125c-75 -77 -190 -103 -340 -106h-9
c-152 0 -338 51 -338 227c0 82 1 179 1 275c0 216 -3 431 -22 488l254 28c22 -92 16 -356 18 -722c12 -67 31 -92 116 -92c152 7 221 85 221 212v595h251v-707c2 -52 67 -119 118 -140z" />
    <glyph glyph-name="Umacron" unicode="&#x16a;" 
d="M764 1621v-194h-17c-58 -2 -156 -7 -230 -7s-167 1 -235 3l-18 1v197l19 -2c65 -2 180 -3 272 -3c61 0 147 5 192 5h17zM701 1350l253 -28c-7 -50 -8 -85 -8 -127v-29c0 -148 3 -278 3 -391v-59c0 -237 -5 -463 -117 -595c-82 -97 -211 -126 -340 -131
c-308 0 -406 169 -424 466c-5 77 -7 201 -7 339c0 175 3 373 9 534h258c-4 -168 -8 -397 -8 -586v-141c0 -64 1 -117 6 -154c14 -94 24 -244 164 -248c200 9 203 231 203 518c0 126 -5 275 -5 448c0 72 3 121 13 184z" />
    <glyph glyph-name="umacron" unicode="&#x16b;" 
d="M758 1405v-194h-17c-58 -2 -156 -7 -230 -7s-167 1 -235 3l-18 1v197l19 -2c65 -2 180 -3 272 -3c61 0 147 5 192 5h17zM893 -17c-64 29 -106 75 -127 125c-75 -77 -190 -103 -340 -106h-9c-152 0 -338 51 -338 227c0 82 1 179 1 275c0 216 -3 431 -22 488l254 28
c22 -92 16 -356 18 -722c12 -67 31 -92 116 -92c152 7 221 85 221 212v595h251v-707c2 -52 67 -119 118 -140z" />
    <glyph glyph-name="Ubreve" unicode="&#x16c;" 
d="M508 1550c108 0 174 63 180 141l219 -30c-24 -177 -153 -294 -393 -294c-225 0 -357 78 -405 303l219 30c27 -117 105 -150 180 -150zM701 1350l253 -28c-7 -50 -8 -85 -8 -127v-29c0 -148 3 -278 3 -391v-59c0 -237 -5 -463 -117 -595c-82 -97 -211 -126 -340 -131
c-308 0 -406 169 -424 466c-5 77 -7 201 -7 339c0 175 3 373 9 534h258c-4 -168 -8 -397 -8 -586v-141c0 -64 1 -117 6 -154c14 -94 24 -244 164 -248c200 9 203 231 203 518c0 126 -5 275 -5 448c0 72 3 121 13 184z" />
    <glyph glyph-name="ubreve" unicode="&#x16d;" 
d="M502 1334c108 0 174 63 180 141l219 -30c-24 -177 -153 -294 -393 -294c-225 0 -357 78 -405 303l219 30c27 -117 105 -150 180 -150zM893 -17c-64 29 -106 75 -127 125c-75 -77 -190 -103 -340 -106h-9c-152 0 -338 51 -338 227c0 82 1 179 1 275c0 216 -3 431 -22 488
l254 28c22 -92 16 -356 18 -722c12 -67 31 -92 116 -92c152 7 221 85 221 212v595h251v-707c2 -52 67 -119 118 -140z" />
    <glyph glyph-name="Uring" unicode="&#x16e;" 
d="M507 1601c-53 0 -86 -31 -86 -62s34 -63 86 -63s86 32 86 63s-33 62 -86 62zM232 1539c0 116 128 204 276 204s275 -88 275 -204c0 -115 -115 -195 -275 -195c-153 0 -276 81 -276 195zM701 1350l253 -28c-7 -50 -8 -85 -8 -127v-29c0 -148 3 -278 3 -391v-59
c0 -237 -5 -463 -117 -595c-82 -97 -211 -126 -340 -131c-308 0 -406 169 -424 466c-5 77 -7 201 -7 339c0 175 3 373 9 534h258c-4 -168 -8 -397 -8 -586v-141c0 -64 1 -117 6 -154c14 -94 24 -244 164 -248c200 9 203 231 203 518c0 126 -5 275 -5 448c0 72 3 121 13 184z
" />
    <glyph glyph-name="uring" unicode="&#x16f;" 
d="M501 1385c-53 0 -86 -31 -86 -62s34 -63 86 -63s86 32 86 63s-33 62 -86 62zM226 1323c0 116 128 204 276 204s275 -88 275 -204c0 -115 -115 -195 -275 -195c-153 0 -276 81 -276 195zM893 -17c-64 29 -106 75 -127 125c-75 -77 -190 -103 -340 -106h-9
c-152 0 -338 51 -338 227c0 82 1 179 1 275c0 216 -3 431 -22 488l254 28c22 -92 16 -356 18 -722c12 -67 31 -92 116 -92c152 7 221 85 221 212v595h251v-707c2 -52 67 -119 118 -140z" />
    <glyph glyph-name="Uhungarumlaut" unicode="&#x170;" 
d="M553 1493c117 95 230 261 300 402l201 -127c-65 -144 -236 -324 -354 -418zM170 1500c117 95 230 261 300 402l200 -127c-65 -144 -235 -324 -353 -418zM701 1350l253 -28c-7 -50 -8 -85 -8 -127v-29c0 -148 3 -278 3 -391v-59c0 -237 -5 -463 -117 -595
c-82 -97 -211 -126 -340 -131c-308 0 -406 169 -424 466c-5 77 -7 201 -7 339c0 175 3 373 9 534h258c-4 -168 -8 -397 -8 -586v-141c0 -64 1 -117 6 -154c14 -94 24 -244 164 -248c200 9 203 231 203 518c0 126 -5 275 -5 448c0 72 3 121 13 184z" />
    <glyph glyph-name="uhungarumlaut" unicode="&#x171;" 
d="M547 1273c117 95 230 261 300 402l201 -127c-65 -144 -236 -324 -354 -418zM164 1280c117 95 230 261 300 402l200 -127c-65 -144 -235 -324 -353 -418zM893 -17c-64 29 -106 75 -127 125c-75 -77 -190 -103 -340 -106h-9c-152 0 -338 51 -338 227c0 82 1 179 1 275
c0 216 -3 431 -22 488l254 28c22 -92 16 -356 18 -722c12 -67 31 -92 116 -92c152 7 221 85 221 212v595h251v-707c2 -52 67 -119 118 -140z" />
    <glyph glyph-name="Uogonek" unicode="&#x172;" 
d="M701 1350l253 -28c-7 -50 -8 -85 -8 -127v-29c0 -148 3 -278 3 -391v-59c0 -237 -5 -463 -117 -595c-142 -168 -322 -251 -322 -371c0 -43 56 -57 120 -57c58 0 98 29 128 51l124 -141c-44 -48 -162 -106 -262 -106c-182 0 -360 56 -360 244c0 112 60 170 153 253
c-246 28 -329 192 -345 462c-5 77 -7 201 -7 339c0 175 3 373 9 534h258c-4 -168 -8 -397 -8 -586v-141c0 -64 1 -117 6 -154c14 -94 24 -244 164 -248c200 9 203 231 203 518c0 126 -5 275 -5 448c0 72 3 121 13 184z" />
    <glyph glyph-name="uogonek" unicode="&#x173;" 
d="M754 108c-75 -77 -207 -103 -357 -106h-9c-152 0 -338 51 -338 227c0 82 1 179 1 275c0 216 -3 431 -22 488l248 28c22 -92 16 -356 18 -722c12 -67 31 -92 116 -92c152 7 238 85 238 212l1 603h257l-1 -715c2 -52 67 -119 118 -140c-218 -321 -436 -314 -436 -416
c0 -43 56 -57 120 -57c58 0 98 29 128 51l124 -141c-44 -48 -162 -106 -262 -106c-182 0 -360 56 -360 244c0 198 273 187 416 367z" />
    <glyph glyph-name="Wcircumflex" unicode="&#x174;" 
d="M519 1794l378 -291l-138 -156l-240 201l-229 -197l-140 146zM395 0h-241c-43 173 -96 1056 -142 1312l236 29c26 -193 28 -291 31 -355c11 -246 9 -574 19 -670c0 0 119 600 125 672c21 0 53 -3 86 -3c39 0 81 4 110 19c29 -218 120 -685 120 -685c17 139 12 407 27 643
c4 65 1 192 38 381l224 -38c-52 -256 -127 -1123 -160 -1305h-246s-70 397 -102 585c-47 -230 -120 -573 -125 -585z" />
    <glyph glyph-name="wcircumflex" unicode="&#x175;" 
d="M536 1579l378 -291l-138 -156l-240 201l-229 -197l-140 146zM17 984l249 72c70 -208 68 -396 69 -568v-31c0 -94 -17 -216 -28 -248c88 0 136 143 136 254v372l210 1s5 -78 5 -243c0 -96 -2 -222 -7 -379h5c78 0 115 147 115 399c0 174 -4 291 -14 400h246
c2 -32 2 -53 2 -97v-87c0 -153 -1 -361 -42 -550c-36 -164 -164 -279 -383 -279h-34s-18 66 -24 153c-34 -72 -130 -165 -327 -165h-6c-46 1 -52 6 -66 12c-10 82 3 521 -60 835c-11 54 -23 108 -46 149z" />
    <glyph glyph-name="Ycircumflex" unicode="&#x176;" 
d="M498 1796l378 -291l-138 -156l-240 201l-229 -197l-140 146zM368 0v138c0 92 7 354 7 475c-79 113 -310 501 -361 609l219 141c40 -79 191 -371 278 -511c98 142 215 435 253 524l228 -136c-47 -96 -297 -538 -367 -638c0 -48 -2 -97 -2 -152c-3 -135 -5 -279 -5 -322
v-128h-250z" />
    <glyph glyph-name="ycircumflex" unicode="&#x177;" 
d="M493 1579l378 -291l-138 -156l-240 201l-229 -197l-140 146zM352 -164c52 0 166 140 186 234c-271 611 -340 681 -437 681c-20 0 -34 0 -44 -1l-1 261s42 2 76 2c192 0 256 -114 525 -688c51 287 59 410 59 688h256c0 -60 -1 -145 -15 -266c-37 -323 -165 -747 -295 -921
c-121 -161 -203 -202 -350 -202c-214 0 -266 203 -270 376h236c0 -114 26 -164 74 -164z" />
    <glyph glyph-name="Ydieresis" unicode="&#x178;" 
d="M583 1638l282 -3v-238l-282 1v240zM163 1638h279v-240h-279v240zM368 0v138c0 92 7 354 7 475c-79 113 -310 501 -361 609l219 141c40 -79 191 -371 278 -511c98 142 215 435 253 524l228 -136c-47 -96 -297 -538 -367 -638c0 -48 -2 -97 -2 -152
c-3 -135 -5 -279 -5 -322v-128h-250z" />
    <glyph glyph-name="Zacute" unicode="&#x179;" 
d="M215 1509c143 48 317 160 432 268l134 -172c-111 -112 -333 -223 -476 -270zM123 0l-95 136l644 983c-214 0 -469 -5 -583 -5l-1 210c120 0 542 4 730 4c75 0 121 -13 140 -16v-7c0 -39 16 -145 16 -179v-8l-578 -901l354 -1c85 0 112 5 177 26l71 -215
c-45 -16 -114 -27 -189 -27h-679h-7z" />
    <glyph glyph-name="zacute" unicode="&#x17a;" 
d="M234 1294c143 48 317 160 432 268l134 -172c-111 -112 -333 -223 -476 -270zM93 815l31 202c46 -5 157 -6 281 -6c186 0 402 3 472 5l77 -190c-33 -33 -500 -442 -552 -629l400 6h6c54 0 103 -13 162 -32l-44 -193c-45 13 -61 22 -126 22h-729v20c0 73 5 123 22 169
c79 214 307 453 507 617c-68 -1 -101 -3 -202 -3c-125 0 -248 3 -305 12z" />
    <glyph glyph-name="Zdotaccent" unicode="&#x17b;" 
d="M367 1645h284l2 -246h-285zM123 0l-95 136l644 983c-214 0 -469 -5 -583 -5l-1 210c120 0 542 4 730 4c75 0 121 -13 140 -16v-7c0 -39 16 -145 16 -179v-8l-578 -901l354 -1c85 0 112 5 177 26l71 -215c-45 -16 -114 -27 -189 -27h-679h-7z" />
    <glyph glyph-name="zdotaccent" unicode="&#x17c;" 
d="M386 1430h284l2 -246h-285zM93 815l31 202c46 -5 157 -6 281 -6c186 0 402 3 472 5l77 -190c-33 -33 -500 -442 -552 -629l400 6h6c54 0 103 -13 162 -32l-44 -193c-45 13 -61 22 -126 22h-729v20c0 73 5 123 22 169c79 214 307 453 507 617c-68 -1 -101 -3 -202 -3
c-125 0 -248 3 -305 12z" />
    <glyph glyph-name="Zcaron" unicode="&#x17d;" 
d="M518 1359l-366 297l144 138l222 -189l240 201l138 -156zM123 0l-95 136l644 983c-214 0 -469 -5 -583 -5l-1 210c120 0 542 4 730 4c75 0 121 -13 140 -16v-7c0 -39 16 -145 16 -179v-8l-578 -901l354 -1c85 0 112 5 177 26l71 -215c-45 -16 -114 -27 -189 -27h-679h-7z
" />
    <glyph glyph-name="zcaron" unicode="&#x17e;" 
d="M537 1144l-366 297l144 138l222 -189l240 201l138 -156zM93 815l31 202c46 -5 157 -6 281 -6c186 0 402 3 472 5l77 -190c-33 -33 -500 -442 -552 -629l400 6h6c54 0 103 -13 162 -32l-44 -193c-45 13 -61 22 -126 22h-729v20c0 73 5 123 22 169c79 214 307 453 507 617
c-68 -1 -101 -3 -202 -3c-125 0 -248 3 -305 12z" />
    <glyph glyph-name="longs" unicode="&#x17f;" 
d="M848 1206c-27 9 -86 11 -125 11c-132 0 -143 -74 -143 -134c0 -27 1 -71 1 -71v-1012h-257v807h-193v205h193v52c0 130 66 354 382 354c61 0 140 -4 188 -14z" />
    <glyph glyph-name="Euro" unicode="&#x20ac;" 
d="M794 866l-62 -184h-12c-57 -2 -88 -6 -164 -6h-118c0 -23 -2 -45 -2 -67v-25c30 -1 34 -1 72 -1c86 0 76 1 165 2h26l-64 -193l-193 2c9 -158 66 -212 124 -212h18c66 0 146 27 194 133l201 -159c-120 -156 -211 -187 -398 -187c-79 0 -205 28 -289 138
c-66 85 -99 165 -118 287c-27 1 -51 2 -75 2c-29 0 -57 -1 -90 -2c12 54 30 128 55 189c40 0 78 1 96 1v48s0 30 1 44c-80 1 -112 1 -160 5c23 56 49 145 68 189c28 -3 56 -3 111 -4c19 112 38 166 72 242c82 179 247 235 346 235c108 0 222 -31 314 -134l-94 -259
c-54 103 -120 175 -217 175c-93 0 -147 -85 -156 -261h109h77c52 2 87 4 129 4z" />
    <glyph glyph-name="uniE000" unicode="&#xe000;" 
d="M76 491c59 112 122 153 186 153c104 0 199 -100 257 -100c23 0 47 16 70 80l9 26l104 -104l-7 -14c-55 -102 -115 -142 -176 -142c-104 0 -192 96 -250 96c-27 0 -50 -11 -75 -77l-8 -22l-119 88z" />
    <glyph glyph-name="uniE001" unicode="&#xe001;" 
d="M406 -11c-131 6 -187 165 -187 310v4c0 77 17 158 52 221c58 104 132 137 201 140h8c36 0 65 -12 84 -23c-9 165 -18 253 -102 253c-59 0 -66 -34 -122 -167l-8 -18l-104 61l6 17c55 176 130 254 228 257c41 0 99 -19 140 -77c42 -60 80 -162 80 -304v-434
c3 -74 8 -72 27 -96c1 -2 5 -5 8 -7c10 6 16 23 22 43c32 98 35 217 35 346c0 385 -139 676 -318 676c-178 0 -310 -290 -310 -676s140 -677 310 -677c60 0 118 33 168 90l12 15l77 -96l-11 -13c-63 -73 -160 -146 -246 -146c-247 0 -433 380 -433 827s186 828 433 828
s432 -381 432 -828c0 -151 -22 -293 -58 -417c-9 -27 -41 -124 -108 -124h-3h-2l-1 1c-19 5 -48 16 -68 41h-1c-12 18 -38 43 -51 94c-23 -30 -43 -45 -72 -72c-32 -27 -73 -49 -118 -49zM405 141c26 0 54 14 71 29c65 59 78 129 89 164c0 33 -1 99 -1 118
c-31 43 -61 61 -92 61h-3c-55 -2 -121 -98 -121 -203v-5c3 -104 34 -164 57 -164z" />
    <glyph glyph-name="uniE002" unicode="&#xe002;" 
d="M800 703v-37v-435c3 -72 22 -105 54 -133l17 -15l-95 -79l-11 16c-13 19 -38 43 -51 93c-23 -30 -43 -45 -72 -72c-32 -27 -72 -50 -118 -50c-135 7 -209 242 -209 387v3v41c0 74 4 178 53 289c50 112 135 140 203 143h6c43 0 81 -19 103 -33c-2 33 -3 61 -5 82
c-9 128 -20 295 -166 295c-157 0 -296 -293 -296 -680c0 -386 140 -678 310 -678c60 0 118 34 168 91l12 15l76 -96l-10 -13c-63 -73 -160 -147 -246 -147c-247 0 -433 381 -433 828c0 446 172 833 419 833c265 0 291 -355 291 -648zM524 144c26 0 53 14 70 29
c65 59 78 128 89 163v285c-32 44 -87 81 -116 81c-100 0 -123 -204 -123 -327v-15c3 -104 59 -216 80 -216z" />
    <glyph glyph-name="gravecomb" unicode="&#x300;" 
d="M759 1267l-90 -174c-143 47 -365 158 -476 270l134 172c115 -108 289 -220 432 -268z" />
    <glyph glyph-name="acutecomb" unicode="&#x301;" 
d="M199 1267c143 48 317 160 432 268l134 -172c-111 -112 -333 -223 -476 -270z" />
    <glyph glyph-name="uni0302" unicode="&#x302;" 
d="M519 1602l378 -291l-138 -156l-240 201l-229 -197l-140 146z" />
    <glyph glyph-name="tildecomb" unicode="&#x303;" 
d="M339 1462c216 0 235 -132 325 -132c50 0 80 31 86 100l177 -54c-21 -96 -79 -224 -241 -224c-198 0 -219 130 -320 130c-42 0 -79 -37 -88 -100l-184 78c33 93 104 202 245 202z" />
    <glyph glyph-name="uni0304" unicode="&#x304;" 
d="M738 1483v-194h-17c-58 -2 -156 -7 -230 -7s-167 1 -235 3l-18 1v197l19 -2c65 -2 180 -3 272 -3c61 0 147 5 192 5h17z" />
    <glyph glyph-name="uni0305" unicode="&#x305;" 
d="M879 1484v-201l-792 1v203z" />
    <glyph glyph-name="uni0306" unicode="&#x306;" 
d="M510 1334c108 0 174 63 180 141l219 -30c-24 -177 -153 -294 -393 -294c-225 0 -357 78 -405 303l219 30c27 -117 105 -150 180 -150z" />
    <glyph glyph-name="uni0308" unicode="&#x308;" 
d="M566 1424l282 -3v-238l-282 1v240zM146 1424h279v-240h-279v240z" />
    <glyph glyph-name="uni0307" unicode="&#x307;" 
d="M310 1430h284l2 -246h-285z" />
    <glyph glyph-name="uni030A" unicode="&#x30a;" 
d="M521 1535c-53 0 -86 -31 -86 -62s34 -63 86 -63s86 32 86 63s-33 62 -86 62zM246 1473c0 116 128 204 276 204s275 -88 275 -204c0 -115 -115 -195 -275 -195c-153 0 -276 81 -276 195z" />
    <glyph glyph-name="uni0237" unicode="&#x237;" 
d="M842 -78c0 -153 -81 -311 -367 -311c-123 0 -279 28 -405 233l164 148c86 -145 155 -180 218 -180h18c120 0 116 105 118 140v861c-49 0 -140 -6 -235 -28l-29 186c94 28 184 42 264 42h254v-1091z" />
    <glyph glyph-name="uni030B" unicode="&#x30b;" 
d="M471 1286c117 95 230 261 300 402l201 -127c-65 -144 -236 -324 -354 -418zM88 1293c117 95 230 261 300 402l200 -127c-65 -144 -235 -324 -353 -418z" />
    <glyph glyph-name="uni030C" unicode="&#x30c;" 
d="M522 1206l-366 297l144 138l222 -189l240 201l138 -156z" />
    <glyph glyph-name="uni030F" unicode="&#x30f;" 
d="M578 1313l-148 -143c-118 94 -288 274 -353 418l201 127c70 -141 183 -307 300 -402zM961 1320l-147 -142c-118 94 -289 274 -354 418l201 126c70 -141 183 -307 300 -402z" />
    <glyph glyph-name="hookabovecomb" unicode="&#x309;" 
 />
    <glyph glyph-name="uni030D" unicode="&#x30d;" 
 />
    <glyph glyph-name="uni030E" unicode="&#x30e;" 
 />
    <glyph glyph-name="uni0191" unicode="&#x191;" 
d="M405 78c-6 -186 -74 -381 -406 -381v264c104 0 132 31 140 124v1239h685c102 0 147 -17 181 -34l-78 -203c-26 14 -48 27 -146 28h-71c-104 0 -127 0 -310 -1v-258c120 0 82 2 204 2c90 0 157 -18 197 -36l-68 -202c-37 17 -87 22 -132 22h-85c-30 0 -51 0 -116 -2
c0 -101 4 -404 5 -562z" />
    <glyph glyph-name="florin" unicode="&#x192;" 
d="M545 126c-4 -246 -131 -466 -451 -466l2 244c142 0 188 66 192 234v669h-142v205h142v52c0 130 66 354 382 354c196 0 276 -50 354 -205l-212 -97c-26 82 -63 101 -124 101c-132 0 -144 -74 -144 -134c0 -27 2 -71 2 -71h184c105 0 146 -12 176 -21l-44 -197
c-21 7 -42 13 -98 13h-220z" />
    <glyph glyph-name="alpha" unicode="&#x3b1;" 
d="M850 493c24 -77 31 -133 63 -230c19 -58 51 -84 117 -110l-102 -185c-128 32 -184 119 -202 179c-7 23 -14 46 -21 68c-65 -148 -138 -222 -269 -222c-288 0 -383 266 -383 534c0 367 189 491 364 491c165 0 251 -95 299 -251c31 99 48 177 84 270l220 -70
c-65 -126 -118 -306 -170 -474zM306 524c0 -319 119 -325 130 -325h8c53 0 93 127 133 296c-46 216 -77 320 -150 320c-49 0 -121 -85 -121 -291z" />
    <glyph glyph-name="beta" unicode="&#x3b2;" 
d="M338 112v-73c0 -124 -4 -242 -12 -339l-236 17c10 100 14 209 14 320c0 187 -10 792 -10 966c0 156 112 325 310 325c204 0 424 -54 424 -318c0 -178 -92 -208 -126 -231c168 -30 300 -143 300 -397c0 -332 -144 -382 -388 -382h-8c-128 0 -178 39 -268 112zM616 199
c122 0 140 92 140 188c0 183 -148 247 -350 247v207c140 0 176 42 176 162c0 55 -44 119 -140 119c-60 0 -96 -39 -96 -129c0 -100 4 -353 4 -595c98 -175 202 -199 266 -199z" />
    <glyph glyph-name="gamma" unicode="&#x3b3;" 
d="M469 -376c0 107 -3 366 -21 444c-57 247 -186 515 -280 672c-35 59 -50 64 -62 71c-15 9 -36 9 -61 9c-5 0 -10 -1 -15 -1v222c33 0 72 -1 100 -5c63 -10 138 -26 198 -119c97 -152 190 -365 260 -566c74 217 208 710 208 710l228 -75s-208 -599 -304 -971
c6 -82 7 -190 7 -306v-88z" />
    <glyph glyph-name="delta" unicode="&#x3b4;" 
d="M515 748c-165 -32 -182 -192 -182 -279c0 -103 34 -271 193 -271c169 0 169 231 169 308c0 59 -54 173 -180 242zM944 504c0 -260 -96 -503 -418 -503h-2c-272 1 -442 183 -442 463c0 191 77 360 193 390c-45 22 -61 40 -88 61c-46 37 -106 112 -106 188
c0 238 191 276 401 276c124 0 263 -28 384 -57l-42 -211c-133 37 -254 71 -350 71c-87 0 -149 -6 -149 -53c0 -28 43 -50 75 -66c265 -129 544 -225 544 -559z" />
    <glyph glyph-name="epsilon" unicode="&#x3b5;" 
d="M1051 138c-71 -53 -241 -142 -464 -142c-182 0 -275 18 -350 77c-77 61 -120 163 -120 228c0 130 58 247 210 283c-153 17 -211 107 -211 205c0 184 232 235 454 235h13c233 0 347 -61 365 -73l-68 -176c-24 15 -163 50 -308 50c-115 0 -188 -12 -188 -64
c0 -72 218 -96 317 -96h7h5h18v-197c-26 0 -52 1 -78 1c-201 0 -270 -51 -270 -163c0 -49 48 -113 229 -113c168 0 275 56 326 102z" />
    <glyph glyph-name="zeta" unicode="&#x3b6;" 
d="M204 1414c40 -42 76 -62 156 -62c166 0 476 6 608 24l82 -213c-172 -83 -654 -355 -654 -659c0 -183 52 -289 144 -289c4 0 172 1 176 1c206 0 294 -125 294 -282c0 -231 -258 -271 -348 -281l-36 198c84 13 162 34 162 72c0 74 -52 77 -140 77h-20h-138
c-202 0 -352 177 -352 504c0 357 264 487 508 660c-130 -7 -138 -9 -266 -9c-114 0 -232 20 -310 119z" />
    <glyph glyph-name="eta" unicode="&#x3b7;" 
d="M953 296l1 -357c0 -66 14 -203 32 -251l-238 -62c-18 79 -47 144 -47 306v278l-1 507c0 74 -25 102 -92 102c-63 0 -162 -38 -247 -112l1 -707h-252v706c0 178 -8 204 -32 298l232 48c10 -24 31 -76 38 -125c56 50 186 99 296 99c164 0 309 -48 309 -212v-518z" />
    <glyph glyph-name="theta" unicode="&#x3b8;" 
d="M351 277c47 -74 85 -90 159 -90c79 0 128 62 159 139c21 46 38 165 45 256h-48c-86 0 -192 -3 -368 -17c3 -94 17 -232 53 -288zM522 1377c161 0 452 -84 457 -714v-11c0 -167 -31 -340 -79 -435c-75 -147 -225 -233 -390 -233c-122 0 -271 41 -352 143
c-90 112 -122 284 -122 468c0 352 60 522 130 619c66 92 200 160 356 163zM713 804c-5 79 -17 172 -40 232c-40 106 -92 138 -152 138c-65 0 -103 -25 -143 -96c-34 -59 -61 -155 -73 -288c134 12 250 14 349 14h59z" />
    <glyph glyph-name="iota" unicode="&#x3b9;" 
d="M364 1013h255c0 -273 1 -717 1 -717c0 -64 34 -112 92 -112c65 0 107 41 132 151l205 -88c-68 -190 -171 -265 -371 -265c-96 0 -184 25 -222 58c-59 52 -92 117 -92 244v529c-49 0 -139 -6 -234 -28l-29 186c94 28 183 42 263 42z" />
    <glyph glyph-name="kappa" unicode="&#x3ba;" 
d="M589 571c120 -119 390 -323 441 -461l-236 -126c-46 111 -230 294 -360 423c0 0 -56 -62 -86 -134v-273h-258v1022h258v-346c103 145 476 362 528 382l142 -202c-205 -95 -369 -211 -429 -285z" />
    <glyph glyph-name="lambda" unicode="&#x3bb;" 
d="M230 -12l-230 117c72 134 313 511 410 859c-36 172 -52 214 -105 214c-52 0 -62 -38 -62 -76l-211 2c0 213 98 285 314 285c149 0 235 -85 268 -198l229 -783c46 -157 53 -164 74 -164c26 0 42 42 42 42l85 -226c-74 -50 -92 -60 -194 -60c-95 0 -173 42 -249 332
c-21 81 -42 171 -77 298c-100 -274 -148 -375 -294 -642z" />
    <glyph glyph-name="mu" unicode="&#x3bc;" 
d="M314 8l-4 -406l-250 3l5 624c0 82 1 179 1 275c0 216 -3 431 -22 488l248 28c22 -92 16 -356 18 -722c12 -67 31 -92 116 -92c198 0 222 164 223 212l1 582h257l-1 -694c2 -52 67 -119 118 -140l-143 -183c-64 29 -106 75 -127 125c-75 -77 -192 -103 -342 -106h-9
c-29 0 -59 2 -89 6z" />
    <glyph glyph-name="nu" unicode="&#x3bd;" 
d="M219 1054c170 -283 261 -546 329 -803c171 121 207 237 207 453c0 142 -46 220 -66 268l237 82c57 -100 85 -214 85 -328c0 -536 -326 -734 -659 -734c0 258 -219 749 -345 932z" />
    <glyph glyph-name="xi" unicode="&#x3be;" 
d="M200 1428c40 -42 86 -76 168 -76c164 0 356 6 488 24l86 -199c-110 -47 -394 -131 -394 -213c0 -93 106 -106 256 -106v-197c-264 -66 -446 -157 -446 -322c0 -36 38 -124 188 -124c2 0 172 1 174 1c166 0 294 -82 294 -282c0 -214 -224 -269 -346 -281l-36 198
c84 13 160 32 160 72c0 56 -26 77 -114 77h-20h-164c-200 0 -394 58 -394 325c0 252 218 391 334 427c-42 11 -152 47 -152 215c0 90 76 158 168 194c0 0 -58 -6 -88 -6c-116 0 -214 27 -290 109z" />
    <glyph glyph-name="omicron" unicode="&#x3bf;" 
d="M625 247c47 52 60 156 60 283v16c-2 157 -37 284 -165 284c-151 0 -196 -140 -196 -348c0 -166 63 -285 184 -285c55 1 81 14 117 50zM507 -6c-310 0 -435 190 -435 470c0 371 141 568 433 568c197 0 307 -69 377 -201c41 -79 59 -192 59 -288c0 -285 -96 -549 -432 -549
h-2z" />
    <glyph glyph-name="pi" unicode="&#x3c0;" 
d="M761 1020c71 0 95 31 127 73l172 -184c-78 -88 -133 -96 -230 -99v-504c0 -74 14 -104 35 -104c31 0 51 17 83 70l112 -214c-51 -56 -138 -66 -207 -66c-174 0 -276 81 -276 270v548h-152v-256c0 -286 -53 -505 -67 -562l-256 20c18 68 72 252 72 546v245
c-36 0 -60 -3 -102 -23l-38 218c43 16 100 22 161 22h566z" />
    <glyph glyph-name="rho" unicode="&#x3c1;" 
d="M703 517v15c-1 152 -44 286 -179 286c-98 0 -169 -84 -169 -285c0 -209 84 -326 183 -326c136 0 165 144 165 310zM102 562c0 292 179 470 441 470c197 0 307 -69 377 -201c41 -79 59 -192 59 -288c0 -285 -77 -549 -399 -549h-2c-137 0 -185 23 -251 102
c24 -78 25 -158 25 -195c0 -131 38 -217 63 -278l-255 -61c-28 62 -60 229 -60 368z" />
    <glyph glyph-name="sigma1" unicode="&#x3c2;" 
d="M383 528c0 -216 92 -302 169 -306c3 0 171 -9 174 -9c166 -9 283 -79 283 -279c0 -214 -224 -269 -347 -281l-36 198c84 13 161 32 161 72c0 56 -27 72 -115 77c-7 0 -13 1 -20 1c-4 0 -159 9 -163 9c-64 3 -140 24 -192 63c-130 101 -170 255 -170 454
c0 340 178 491 493 491c95 0 192 -19 255 -61c60 -40 106 -99 128 -151l-220 -102c-10 38 -41 103 -181 103c-147 0 -219 -136 -219 -279z" />
    <glyph glyph-name="sigma" unicode="&#x3c3;" 
d="M900 814c35 -78 51 -182 51 -271c0 -285 -96 -549 -432 -549h-2c-310 0 -435 190 -435 470c0 368 138 565 425 568h8c127 0 470 -11 521 -20l-8 -208c-30 5 -76 8 -128 10zM635 247c47 52 60 156 60 283v16c-2 128 -19 194 -67 282c0 0 -75 2 -98 2
c-151 0 -196 -140 -196 -348c0 -166 63 -285 184 -285c55 1 81 14 117 50z" />
    <glyph glyph-name="tau" unicode="&#x3c4;" 
d="M570 1020h122h139h147h18v-197l-304 2h-52c-9 -204 -9 -285 -13 -385v-40c0 -162 47 -183 88 -183c57 0 73 26 101 102l198 -86c-20 -56 -100 -236 -297 -236c-263 0 -348 112 -348 400v43c4 104 4 193 10 386c-20 -1 -103 -2 -103 -2c-70 -1 -87 -13 -137 -45l-109 154
c50 44 145 86 241 86z" />
    <glyph glyph-name="upsilon" unicode="&#x3c5;" 
d="M92 364v183c0 204 -1 392 -22 456l262 29c17 -72 18 -254 18 -459v-118c0 -120 29 -250 127 -250c58 0 118 23 173 104c58 86 62 122 62 360c0 92 -44 211 -70 294l252 86c62 -96 84 -293 84 -359v-12v-37c0 -191 -27 -338 -200 -518c-63 -66 -183 -127 -346 -127
c-193 0 -340 169 -340 368z" />
    <glyph glyph-name="phi" unicode="&#x3c6;" 
d="M630 -11c2 -204 3 -366 4 -387l-244 2c-2 21 -2 185 -2 388c-92 17 -171 66 -232 141c-90 110 -120 256 -120 436c0 228 55 410 148 491l188 -120c-81 -84 -110 -175 -110 -367c0 -145 48 -344 126 -374v441c0 315 153 400 297 400c139 0 333 -30 333 -408v-11
c0 -164 -26 -349 -74 -442c-64 -123 -182 -170 -314 -190zM628 196c134 33 160 209 162 428v19c0 169 -33 192 -103 192h-1c-38 0 -60 -12 -60 -191c0 -142 1 -275 2 -448z" />
    <glyph glyph-name="chi" unicode="&#x3c7;" 
d="M394 372c0 0 -114 281 -188 382c-43 58 -98 68 -176 68v219h68c103 0 166 -8 246 -107c104 -129 172 -358 172 -358c93 201 232 481 232 481l194 -98s-147 -309 -308 -642c61 -172 196 -487 250 -487c12 0 16 4 22 20l144 -100c-6 -38 -56 -148 -158 -148
c-205 0 -326 360 -382 476l-228 -479l-216 114z" />
    <glyph glyph-name="psi" unicode="&#x3c8;" 
d="M48 366v183c0 204 -3 392 -24 456l224 27c17 -72 20 -254 20 -459v-127c0 -162 44 -248 120 -248c1 284 5 495 5 729v93h237v-145c0 -236 -2 -400 -3 -663c135 39 168 268 168 526c0 92 -26 177 -58 247l232 61c36 -84 60 -231 60 -297v-12v-37c0 -191 -5 -423 -178 -603
c-46 -48 -99 -68 -224 -89v-132c0 -115 -1 -171 -6 -272l-238 1c4 62 5 105 5 160c0 47 -1 103 -1 189v42h-5c-220 0 -334 171 -334 370z" />
    <glyph glyph-name="omega" unicode="&#x3c9;" 
d="M399 684l232 19c-2 -85 -1 -179 -2 -272c1 -8 1 -17 1 -26c2 -181 7 -205 36 -205c77 0 117 70 117 220c0 213 -17 395 -102 527l232 92c108 -181 110 -457 110 -598c0 -223 -67 -453 -312 -453c-114 0 -164 32 -189 116c-29 -72 -61 -114 -195 -114
c-226 0 -294 230 -294 454c0 168 14 422 124 605l222 -100c-81 -127 -114 -274 -114 -481c0 -169 38 -272 92 -272c42 0 44 91 44 199v29c-1 106 0 160 -2 260z" />
    <glyph glyph-name="iotadieresis" unicode="&#x3ca;" 
d="M575 1423l282 -3v-238l-282 1v240zM155 1423h279v-240h-279v240zM364 1013h255c0 -273 1 -717 1 -717c0 -64 34 -112 92 -112c65 0 107 41 132 151l205 -88c-68 -190 -171 -265 -371 -265c-96 0 -184 25 -222 58c-59 52 -92 117 -92 244v529c-49 0 -139 -6 -234 -28
l-29 186c94 28 183 42 263 42z" />
    <glyph glyph-name="upsilondieresis" unicode="&#x3cb;" 
d="M581 1424l282 -3v-238l-282 1v240zM161 1424h279v-240h-279v240zM92 364v183c0 204 -1 392 -22 456l262 29c17 -72 18 -254 18 -459v-118c0 -120 29 -250 127 -250c58 0 118 23 173 104c58 86 62 122 62 360c0 92 -44 211 -70 294l252 86c62 -96 84 -293 84 -359v-12v-37
c0 -191 -27 -338 -200 -518c-63 -66 -183 -127 -346 -127c-193 0 -340 169 -340 368z" />
    <glyph glyph-name="Alpha" unicode="&#x391;" 
d="M651 504c-26 143 -125 340 -126 494c-6 -168 -99 -373 -137 -512c60 13 180 13 263 18zM418 1325h224l334 -1081c24 -81 50 -165 50 -244h-276c0 59 -10 114 -25 167l-32 114c-152 -3 -237 1 -357 -29l-30 -90c-20 -61 -37 -119 -40 -162h-260c4 61 28 143 54 223z" />
    <glyph glyph-name="Beta" unicode="&#x392;" 
d="M66 837c0 177 -3 341 -12 471c81 6 223 17 336 17h18c222 0 381 -91 381 -311c0 -144 -52 -190 -127 -231c163 -45 307 -149 307 -375c0 -302 -176 -385 -343 -405c-39 -5 -80 -8 -119 -8c-74 0 -132 5 -217 5h-38h-194c0 198 8 413 8 837zM531 1012
c0 108 -86 111 -109 111h-4h-16c-39 0 -56 -2 -86 -5c3 -35 3 -73 3 -114c0 -54 -1 -112 -1 -170h38c73 0 175 12 175 170v8zM479 638c-49 0 -46 -2 -119 -2h-44c-2 -242 -3 -360 -4 -438c49 -3 88 -6 126 -6c30 0 60 2 95 6c32 4 178 40 178 222c0 172 -112 218 -232 218z
" />
    <glyph glyph-name="Gamma" unicode="&#x393;" 
d="M149 1328h683c75 0 137 -18 184 -34l-71 -197c-44 15 -56 18 -115 21h-427v-1118h-254v1328z" />
    <glyph glyph-name="Epsilon" unicode="&#x395;" 
d="M102 1319c56 4 126 4 204 4h98h110c149 0 285 -3 359 -3h16v-202h-529v-269h338v-203h-338v-31c0 -207 -2 -332 -2 -411l416 2c56 0 125 27 125 27l72 -199c-48 -13 -89 -34 -187 -34h-682v1319z" />
    <glyph glyph-name="Zeta" unicode="&#x396;" 
d="M123 0l-95 136l644 983c-214 0 -469 -5 -583 -5l-1 210c120 0 542 4 730 4c75 0 121 -13 140 -16v-7c0 -39 16 -145 16 -179v-8l-578 -901l354 -1c85 0 112 5 177 26l71 -215c-45 -16 -114 -27 -189 -27h-679h-7z" />
    <glyph glyph-name="Eta" unicode="&#x397;" 
d="M317 1322l-1 -537c92 21 152 29 272 29h87c0 280 -1 338 -1 503h256v-1317h-255v599h-32c-146 0 -209 -3 -327 -29c0 -350 2 -385 2 -570h-258v1320z" />
    <glyph glyph-name="Theta" unicode="&#x398;" 
d="M539 1350c166 0 467 -73 472 -703v-11c0 -167 -32 -324 -81 -419c-78 -147 -233 -233 -404 -233c-126 0 -280 41 -364 143c-93 112 -126 268 -126 452c0 352 62 511 134 608c69 92 207 160 369 163zM362 277c48 -74 88 -90 164 -90c82 0 133 62 165 139
c28 59 49 215 51 314v17c0 107 -10 256 -47 352c-41 106 -95 138 -157 138c-68 0 -107 -25 -148 -96c-49 -83 -84 -216 -84 -459c0 -97 13 -250 56 -315zM364 818h320v-203h-320v203z" />
    <glyph glyph-name="Iota" unicode="&#x399;" 
d="M132 1324c156 4 257 5 353 5c105 0 205 -1 368 -3l-1 -211c-123 0 -135 5 -230 5v-901c46 0 31 1 82 1c45 0 92 -1 144 -4l1 -217c-85 5 -147 6 -210 6c-47 0 -96 -1 -155 -1c-74 0 -195 -7 -350 -7v216c85 4 123 5 180 5h52v901c-66 -1 -122 -1 -228 -7z" />
    <glyph glyph-name="Kappa" unicode="&#x39a;" 
d="M588 782c120 -119 407 -550 458 -688l-236 -126c-46 111 -252 477 -382 606c0 0 -56 -62 -86 -134v-440h-258v1335h258v-464c103 145 427 468 464 505l196 -177c-182 -135 -354 -343 -414 -417z" />
    <glyph glyph-name="Mu" unicode="&#x39c;" 
d="M62 1323h204c76 -114 174 -303 236 -489c54 182 147 356 228 489h216c0 -398 2 -1323 2 -1323h-247l-2 596c0 104 25 302 25 302c-63 -123 -133 -310 -144 -347l-150 -2s-102 268 -150 349c0 0 32 -189 32 -302v-596h-250v1323z" />
    <glyph glyph-name="Nu" unicode="&#x39d;" 
d="M691 0c-90 259 -237 559 -371 778v-208c0 -299 1 -418 1 -573h-246v1328l211 -7c126 -188 360 -580 410 -814l-7 274c0 190 3 377 12 551l244 -1c-6 -115 -8 -267 -8 -433c0 -231 4 -490 4 -725c0 -58 -1 -116 -1 -170h-249z" />
    <glyph glyph-name="Omicron" unicode="&#x39f;" 
d="M522 1350c161 0 452 -73 457 -703v-11c0 -167 -31 -324 -79 -419c-75 -147 -225 -233 -390 -233c-122 0 -271 41 -352 143c-90 112 -122 268 -122 452c0 352 60 511 130 608c66 92 200 160 356 163zM351 277c47 -74 85 -90 159 -90c79 0 128 62 159 139
c27 59 48 215 49 314v17c0 107 -9 256 -45 352c-40 106 -92 138 -152 138c-65 0 -103 -25 -143 -96c-47 -83 -81 -216 -81 -459c0 -97 13 -250 54 -315z" />
    <glyph glyph-name="Rho" unicode="&#x3a1;" 
d="M714 909c0 204 -117 208 -199 208h-9c-61 0 -105 -4 -150 -5v-71c0 -187 -2 -392 -2 -392c36 -1 71 -2 104 -2c116 0 256 29 256 262zM354 0h-250v1320c118 0 156 8 289 8c225 0 396 -13 511 -154c54 -66 72 -158 72 -250c0 -324 -124 -485 -468 -485
c-48 0 -100 1 -154 3v-442z" />
    <glyph glyph-name="Tau" unicode="&#x3a4;" 
d="M355 0v1118c-198 0 -240 -1 -316 -1v207c122 0 576 1 764 1c73 0 143 -9 167 -16l-60 -203s-52 12 -112 12h-183v-1118h-260z" />
    <glyph glyph-name="Upsilon" unicode="&#x3a5;" 
d="M368 0v138c0 92 7 354 7 475c-79 113 -310 501 -361 609l219 141c40 -79 191 -371 278 -511c98 142 215 435 253 524l228 -136c-47 -96 -297 -538 -367 -638c0 -48 -2 -97 -2 -152c-3 -135 -5 -279 -5 -322v-128h-250z" />
    <glyph glyph-name="Chi" unicode="&#x3a7;" 
d="M789 1371l208 -117l-346 -566c171 -272 214 -436 356 -576l-166 -157c-152 150 -176 252 -328 499l-284 -508l-210 132l346 592c-120 208 -226 389 -366 548l191 155c130 -149 214 -303 317 -478z" />
    <glyph glyph-name="Delta" unicode="&#x394;" 
d="M698 199c-30 152 -181 648 -182 799c-6 -166 -167 -655 -207 -799h389zM149 0l-158 38l419 1287h223l379 -1283l-137 -42h-726z" />
    <glyph glyph-name="Lambda" unicode="&#x39b;" 
d="M379 486l-144 -513l-244 65l419 1287h223l379 -1283l-259 -63l-125 525c-26 143 -111 340 -112 494c-6 -168 -99 -373 -137 -512z" />
    <glyph glyph-name="Xi" unicode="&#x39e;" 
d="M312 849h377v-203h-377v203zM93 1319c56 4 126 4 204 4h98h111c149 0 285 -3 359 -3h15v-202h-790zM93 201l673 2c56 0 124 27 124 27l73 -199c-48 -13 -90 -34 -188 -34h-682v204z" />
    <glyph glyph-name="Pi" unicode="&#x3a0;" 
d="M385 0h-255v1087c-29 -4 -56 -9 -86 -15l-43 194c92 21 210 30 330 30h676v-196h-103v-722c0 -127 10 -252 24 -369l-250 -13c-19 121 -28 259 -28 388v716h-143c-44 0 -82 0 -120 -1z" />
    <glyph glyph-name="Sigma" unicode="&#x3a3;" 
d="M534 658l-475 476l117 188c23 2 41 2 60 2c29 0 60 -1 107 -1h98h111c148 0 284 -3 359 -3h15v-202h-505l390 -392l-7 -160l-376 -365c127 1 256 1 384 2c56 0 124 27 124 27l73 -199c-48 -13 -90 -34 -188 -34l-645 3l-117 183z" />
    <glyph glyph-name="Phi" unicode="&#x3a6;" 
d="M364 352v584c-5 -4 -10 -8 -15 -13c-63 -58 -108 -151 -108 -322c0 -68 26 -169 77 -216c13 -13 29 -24 46 -33zM651 344c36 18 65 43 86 71c36 41 64 151 65 220v12c0 75 -17 175 -65 242c-26 37 -56 62 -88 78c1 -171 2 -320 2 -575v-48zM365 146
c-81 17 -157 47 -208 94c-94 86 -145 206 -145 348c0 271 79 394 153 469c43 44 113 81 199 103v157h284v-143c170 -28 380 -139 384 -533v-9c0 -129 -46 -250 -96 -323c-59 -85 -163 -144 -285 -168c0 -47 -1 -89 -6 -141l-285 1c4 71 5 95 5 145z" />
    <glyph glyph-name="Psi" unicode="&#x3a8;" 
d="M46 839v182c0 189 -2 321 -24 391l251 29c18 -78 20 -200 20 -391v-127c0 -164 5 -267 140 -267c2 240 5 455 5 669v102l235 1v-158c0 -197 -1 -383 -3 -614c135 0 139 116 139 465c-1 100 -5 209 -14 294l257 18c10 -89 14 -199 14 -271v-37c0 -383 -6 -682 -385 -682
c-2 -153 -4 -305 -7 -443h-249c4 68 5 239 5 299v141c-273 0 -384 198 -384 399z" />
    <glyph glyph-name="Omega" unicode="&#x3a9;" 
d="M405 1h-376l-2 216h175c-95 97 -192 214 -192 525c0 393 235 594 529 594c248 0 508 -140 508 -608v-12c0 -271 -127 -391 -221 -499l83 1c59 0 123 28 123 28l46 -213c-49 -14 -85 -33 -161 -33h-6h-282l-47 211c89 89 203 217 203 507v19c0 185 -86 382 -243 382
c-145 0 -265 -131 -265 -379c0 -261 40 -359 185 -525z" />
    <glyph glyph-name="tonos" unicode="&#x384;" 
d="M326 1334c95 117 119 189 158 342l236 -54c-33 -154 -116 -284 -211 -400z" />
    <glyph glyph-name="alphatonos" unicode="&#x3ac;" 
d="M391 1244c95 117 119 189 158 342l236 -54c-33 -154 -116 -284 -211 -400zM850 493c24 -77 31 -133 63 -230c19 -58 51 -84 117 -110l-102 -185c-128 32 -184 119 -202 179c-7 23 -14 46 -21 68c-65 -148 -138 -222 -269 -222c-288 0 -383 266 -383 534
c0 367 189 491 364 491c165 0 251 -95 299 -251c31 99 48 177 84 270l220 -70c-65 -126 -118 -306 -170 -474zM306 524c0 -319 119 -325 130 -325h8c53 0 93 127 133 296c-46 216 -77 320 -150 320c-49 0 -121 -85 -121 -291z" />
    <glyph glyph-name="Iotadieresis" unicode="&#x3aa;" 
d="M554 1713l282 -3v-238l-282 1v240zM134 1713h279v-240h-279v240zM132 1324c156 4 257 5 353 5c105 0 205 -1 368 -3l-1 -211c-123 0 -135 5 -230 5v-901c46 0 31 1 82 1c45 0 92 -1 144 -4l1 -217c-85 5 -147 6 -210 6c-47 0 -96 -1 -155 -1c-74 0 -195 -7 -350 -7v216
c85 4 123 5 180 5h52v901c-66 -1 -122 -1 -228 -7z" />
    <glyph glyph-name="Upsilondieresis" unicode="&#x3ab;" 
d="M583 1638l282 -3v-238l-282 1v240zM163 1638h279v-240h-279v240zM368 0v138c0 92 7 354 7 475c-79 113 -310 501 -361 609l219 141c40 -79 191 -371 278 -511c98 142 215 435 253 524l228 -136c-47 -96 -297 -538 -367 -638c0 -48 -2 -97 -2 -152
c-3 -135 -5 -279 -5 -322v-128h-250z" />
    <glyph glyph-name="epsilontonos" unicode="&#x3ad;" 
d="M431 1244c95 117 119 189 158 342l236 -54c-33 -154 -116 -284 -211 -400zM1051 138c-71 -53 -241 -142 -464 -142c-182 0 -275 18 -350 77c-77 61 -120 163 -120 228c0 130 58 247 210 283c-153 17 -211 107 -211 205c0 184 232 235 454 235h13c233 0 347 -61 365 -73
l-68 -176c-24 15 -163 50 -308 50c-115 0 -188 -12 -188 -64c0 -72 218 -96 317 -96h7h5h18v-197c-26 0 -52 1 -78 1c-201 0 -270 -51 -270 -163c0 -49 48 -113 229 -113c168 0 275 56 326 102z" />
    <glyph glyph-name="etatonos" unicode="&#x3ae;" 
d="M404 1244c95 117 119 189 158 342l236 -54c-33 -154 -116 -284 -211 -400zM953 296l1 -357c0 -66 14 -203 32 -251l-238 -62c-18 79 -47 144 -47 306v278l-1 507c0 74 -25 102 -92 102c-63 0 -162 -38 -247 -112l1 -707h-252v706c0 178 -8 204 -32 298l232 48
c10 -24 31 -76 38 -125c56 50 186 99 296 99c164 0 309 -48 309 -212v-518z" />
    <glyph glyph-name="iotatonos" unicode="&#x3af;" 
d="M363 1243c95 117 119 189 158 342l236 -54c-33 -154 -116 -284 -211 -400zM364 1013h255c0 -273 1 -717 1 -717c0 -64 34 -112 92 -112c65 0 107 41 132 151l205 -88c-68 -190 -171 -265 -371 -265c-96 0 -184 25 -222 58c-59 52 -92 117 -92 244v529
c-49 0 -139 -6 -234 -28l-29 186c94 28 183 42 263 42z" />
    <glyph glyph-name="upsilondieresistonos" unicode="&#x3b0;" 
d="M332.029 1461.54c88.0146 107.662 110.25 173.916 146.383 314.706l218.647 -49.6904c-30.5742 -141.71 -107.471 -261.335 -195.485 -368.077zM569 1385.64l282 -2.56055v-203.176l-282 0.853516v204.883zM149 1385.64h279v-204.883h-279v204.883zM92 364v183
c0 204 -1 392 -22 456l262 29c17 -72 18 -254 18 -459v-118c0 -120 29 -250 127 -250c58 0 118 23 173 104c58 86 62 122 62 360c0 92 -44 211 -70 294l252 86c62 -96 84 -293 84 -359v-12v-37c0 -191 -27 -338 -200 -518c-63 -66 -183 -127 -346 -127
c-193 0 -340 169 -340 368z" />
    <glyph glyph-name="omicrontonos" unicode="&#x3cc;" 
d="M381 1244c95 117 119 189 158 342l236 -54c-33 -154 -116 -284 -211 -400zM625 247c47 52 60 156 60 283v16c-2 157 -37 284 -165 284c-151 0 -196 -140 -196 -348c0 -166 63 -285 184 -285c55 1 81 14 117 50zM507 -6c-310 0 -435 190 -435 470c0 371 141 568 433 568
c197 0 307 -69 377 -201c41 -79 59 -192 59 -288c0 -285 -96 -549 -432 -549h-2z" />
    <glyph glyph-name="upsilontonos" unicode="&#x3cd;" 
d="M369 1244c95 117 119 189 158 342l236 -54c-33 -154 -116 -284 -211 -400zM92 364v183c0 204 -1 392 -22 456l262 29c17 -72 18 -254 18 -459v-118c0 -120 29 -250 127 -250c58 0 118 23 173 104c58 86 62 122 62 360c0 92 -44 211 -70 294l252 86
c62 -96 84 -293 84 -359v-12v-37c0 -191 -27 -338 -200 -518c-63 -66 -183 -127 -346 -127c-193 0 -340 169 -340 368z" />
    <glyph glyph-name="omegatonos" unicode="&#x3ce;" 
d="M330 1244c95 117 119 189 158 342l236 -54c-33 -154 -116 -284 -211 -400zM399 684l232 19c-2 -85 -1 -179 -2 -272c1 -8 1 -17 1 -26c2 -181 7 -205 36 -205c77 0 117 70 117 220c0 213 -17 395 -102 527l232 92c108 -181 110 -457 110 -598c0 -223 -67 -453 -312 -453
c-114 0 -164 32 -189 116c-29 -72 -61 -114 -195 -114c-226 0 -294 230 -294 454c0 168 14 422 124 605l222 -100c-81 -127 -114 -274 -114 -481c0 -169 38 -272 92 -272c42 0 44 91 44 199v29c-1 106 0 160 -2 260z" />
    <glyph glyph-name="Upsilontonos" unicode="&#x38e;" 
d="M-21.7832 1309c73.791 117 92.4326 189 122.726 342l183.311 -54c-25.6328 -154 -90.1016 -284 -163.893 -400zM528.301 0v138c0 92 6.03516 354 6.03516 475c-68.1162 113 -267.291 501 -311.265 609l188.828 141c34.4893 -79 164.687 -371 239.7 -511
c84.498 142 185.379 435 218.145 524l196.588 -136c-40.5244 -96 -256.082 -538 -316.438 -638c0 -48 -1.72461 -97 -1.72461 -152c-2.58594 -135 -4.31055 -279 -4.31055 -322v-128h-215.558z" />
    <glyph glyph-name="Omegatonos" unicode="&#x38f;" 
d="M-21.7832 1309c73.791 117 92.4326 189 122.726 342l183.311 -54c-25.6328 -154 -90.1016 -284 -163.893 -400zM468.788 1h-346.095l-1.84082 216h161.081c-87.4443 97 -176.729 214 -176.729 525c0 393 216.309 594 486.925 594c228.275 0 467.596 -140 467.596 -608
v-12c0 -271 -116.898 -391 -203.422 -499l76.3984 1c54.3066 0 113.217 28 113.217 28l42.3408 -213c-45.1025 -14 -78.2393 -33 -148.194 -33h-5.52246h-259.571l-43.2617 211c81.9209 89 186.854 217 186.854 507v19c0 185 -79.1602 382 -223.673 382
c-133.468 0 -243.923 -131 -243.923 -379c0 -261 36.8184 -359 170.285 -525z" />
    <glyph glyph-name="iotadieresistonos" unicode="&#x390;" 
d="M326.029 1460.54c88.0146 107.662 110.25 173.916 146.383 314.706l218.647 -49.6904c-30.5742 -141.71 -107.471 -261.335 -195.485 -368.077zM563 1384.64l282 -2.56055v-203.176l-282 0.853516v204.883zM143 1384.64h279v-204.883h-279v204.883zM364 1013h255
c0 -273 1 -717 1 -717c0 -64 34 -112 92 -112c65 0 107 41 132 151l205 -88c-68 -190 -171 -265 -371 -265c-96 0 -184 25 -222 58c-59 52 -92 117 -92 244v529c-49 0 -139 -6 -234 -28l-29 186c94 28 183 42 263 42z" />
    <glyph glyph-name="Omicrontonos" unicode="&#x38c;" 
d="M-14.8311 1306c74.0674 117 92.7793 189 123.186 342l184 -54c-25.7285 -154 -90.4404 -284 -164.508 -400zM584.415 1350c153.108 0 429.846 -73 434.601 -703v-11c0 -167 -29.4805 -324 -75.1279 -419c-71.3242 -147 -213.972 -233 -370.885 -233
c-116.021 0 -257.717 41 -334.747 143c-85.5889 112 -116.021 268 -116.021 452c0 352 57.0596 511 123.628 608c62.7656 92 190.197 160 338.552 163zM421.796 277c44.6963 -74 80.834 -90 151.207 -90c75.1279 0 121.727 62 151.207 139
c25.6768 59 45.6475 215 46.5977 314v17c0 107 -8.55859 256 -42.7939 352c-38.0391 106 -87.4912 138 -144.55 138c-61.8145 0 -97.9521 -25 -135.991 -96c-44.6963 -83 -77.0303 -216 -77.0303 -459c0 -97 12.3633 -250 51.3535 -315z" />
    <glyph glyph-name="Epsilontonos" unicode="&#x388;" 
d="M-87.5322 1309c75.9033 117 95.0791 189 126.239 342l188.56 -54c-26.3662 -154 -92.6816 -284 -168.585 -400zM272.234 1319c49.54 4 111.466 4 180.468 4h86.6953h97.3115c131.812 0 252.125 -3 317.589 -3h14.1543v-202h-467.979v-269h299.011v-203h-299.011v-31
c0 -207 -1.76953 -332 -1.76953 -411l368.014 2c49.54 0 110.581 27 110.581 27l63.6943 -199c-42.4629 -13 -78.7334 -34 -165.429 -34h-603.33v1319z" />
    <glyph glyph-name="Etatonos" unicode="&#x389;" 
d="M-14.0283 1345c74.5938 117 93.4375 189 124.061 342l185.305 -54c-25.9111 -154 -91.082 -284 -165.675 -400zM484.564 1322l-0.901367 -537c82.877 21 136.927 29 245.027 29h78.3721c0 280 -0.900391 338 -0.900391 503h230.613v-1317h-229.713v599h-28.8262
c-131.521 0 -188.274 -3 -294.573 -29c0 -350 1.80176 -385 1.80176 -570h-232.415v1320z" />
    <glyph glyph-name="Iotatonos" unicode="&#x38a;" 
d="M11.1455 1327c79.5977 117 99.707 189 132.384 342l197.737 -54c-27.6504 -154 -97.1934 -284 -176.791 -400zM309 1324c156 4 257 5 353 5c105 0 205 -1 368 -3l-1 -211c-123 0 -135 5 -230 5v-901c46 0 31 1 82 1c45 0 92 -1 144 -4l1 -217c-85 5 -147 6 -210 6
c-47 0 -96 -1 -155 -1c-74 0 -195 -7 -350 -7v216c85 4 123 5 180 5h52v901c-66 -1 -122 -1 -228 -7z" />
    <glyph glyph-name="Alphatonos" unicode="&#x386;" 
d="M29 1301c95 117 119 189 158 342l236 -54c-33 -154 -116 -284 -211 -400zM651 504c-26 143 -125 340 -126 494c-6 -168 -99 -373 -137 -512c60 13 180 13 263 18zM418 1325h224l334 -1081c24 -81 50 -165 50 -244h-276c0 59 -10 114 -25 167l-32 114
c-152 -3 -237 1 -357 -29l-30 -90c-20 -61 -37 -119 -40 -162h-260c4 61 28 143 54 223z" />
    <glyph glyph-name="dieresistonos" unicode="&#x385;" 
d="M329.029 1453.54c88.0146 107.662 110.25 173.916 146.383 314.706l218.647 -49.6904c-30.5742 -141.71 -107.471 -261.335 -195.485 -368.077zM566 1377.64l282 -2.56055v-203.176l-282 0.853516v204.883zM146 1377.64h279v-204.883h-279v204.883z" />
    <glyph glyph-name="anoteleia" unicode="&#x387;" 
d="M428 700h315v-313h-315v313z" />
    <glyph glyph-name="uni03D0" unicode="&#x3d0;" 
d="M79 736c0 420 121 592 345 592c183 0 386 -70 386 -317c0 -102 -34 -195 -130 -232c172 -27 306 -149 306 -398c0 -275 -101 -381 -433 -381c-418 0 -474 332 -474 736zM328 838c159 0 238 16 238 167c0 79 -68 115 -142 115c-58 0 -96 -112 -96 -282zM331 619
c0 -304 119 -417 237 -417c148 0 170 59 170 193c0 162 -143 237 -279 237c-33 0 -80 -3 -128 -13z" />
    <glyph glyph-name="theta1" unicode="&#x3d1;" 
d="M746 786c-17 207 -9 354 -209 354c-123 0 -235 -91 -235 -213c0 -114 84 -135 196 -135c180 0 197 -1 248 -6zM61 922c0 243 182 428 471 428c161 0 465 -73 470 -703v-11c0 -167 -44 -324 -92 -419c-75 -147 -225 -233 -390 -233c-122 0 -271 41 -352 143
c-70 87 -118 248 -134 381l257 50c8 -84 31 -224 62 -274c37 -60 87 -97 167 -97c85 0 139 62 172 139c22 45 41 146 49 236c-26 1 -55 2 -85 2c-316 0 -595 34 -595 358z" />
    <glyph glyph-name="Upsilon1" unicode="&#x3d2;" 
d="M512 1020c63 145 165 356 331 356c178 0 201 -118 201 -300v-6l-191 -32c-2 42 -5 97 -6 110c-18 -13 -198 -241 -198 -502v-646h-261v637c0 181 -162 476 -361 525l69 243c198 -42 362 -243 416 -385z" />
    <glyph glyph-name="uni03D3" unicode="&#x3d3;" 
d="M-52.0391 1293c73.1328 117 91.6084 189 121.632 342l181.677 -54c-25.4043 -154 -89.2988 -284 -162.432 -400zM608.513 1020c53.958 145 141.318 356 283.492 356c152.452 0 172.15 -118 172.15 -300v-6l-163.586 -32c-1.71289 42 -4.28223 97 -5.13867 110
c-15.416 -13 -169.581 -241 -169.581 -502v-646h-223.539v637c0 181 -138.748 476 -309.186 525l59.0967 243c169.581 -42 310.042 -243 356.291 -385z" />
    <glyph glyph-name="uni03D4" unicode="&#x3d4;" 
d="M593 1696l282 -3v-238l-282 1v240zM173 1696h279v-240h-279v240zM512 1020c63 145 165 356 331 356c178 0 201 -118 201 -300v-6l-191 -32c-2 42 -5 97 -6 110c-18 -13 -198 -241 -198 -502v-646h-261v637c0 181 -162 476 -361 525l69 243c198 -42 362 -243 416 -385z
" />
    <glyph glyph-name="phi1" unicode="&#x3d5;" 
d="M373 794c-93 -54 -125 -167 -125 -312c0 -116 44 -208 130 -254c-1 177 -3 378 -5 566zM379 5c-259 44 -367 218 -367 459c0 315 117 504 359 554c-1 102 -1 193 -1 265v93h271v-145c0 -60 0 -131 1 -208c150 -22 243 -87 307 -192c47 -79 69 -192 69 -288
c0 -249 -85 -482 -365 -537v-48c0 -115 -1 -261 -6 -362l-272 1c4 62 5 195 5 250c0 41 -1 89 -1 158zM683 247c68 52 86 156 86 283v16c-2 118 -31 219 -124 262c3 -193 6 -402 7 -580c10 6 20 12 31 19z" />
    <glyph glyph-name="omega1" unicode="&#x3d6;" 
d="M35 1018c56 4 139 4 217 4h98h110c149 0 477 -4 551 -4h16v-197h-82c53 -138 78 -280 78 -380c0 -223 -67 -453 -312 -453c-114 0 -164 32 -189 116c-29 -72 -61 -114 -195 -114c-226 0 -294 230 -294 454c0 116 24 247 75 377h-71zM399 684l232 19
c-2 -85 -1 -179 -2 -272c1 -8 1 -17 1 -26c2 -181 7 -205 36 -205c77 0 117 70 117 220c0 157 -36 289 -89 401h-336c-52 -96 -93 -205 -93 -353c0 -169 38 -272 92 -272c42 0 44 91 44 199v29c-1 106 0 160 -2 260z" />
    <glyph glyph-name="uni03D7" unicode="&#x3d7;" 
d="M21 838c0 0 77 182 303 182c168 0 232 -96 232 -242c0 -66 -16 -123 -38 -169c0 0 63 66 126 117l17 14c34 140 99 281 235 281c108 0 134 -76 134 -142c0 -110 -147 -211 -249 -291c-29 -77 -37 -152 -37 -242v-10c0 -68 1 -137 39 -137c32 0 71 38 103 88l144 -96v-22
c0 -45 1 -88 1 -128c0 -257 -25 -406 -391 -406l2 187c203 0 214 22 214 204v10c-27 -20 -62 -36 -119 -36c-96 0 -233 13 -233 193c0 98 22 176 44 222c-47 -34 -55 -38 -118 -89l-14 -13c-46 -142 -146 -312 -283 -312h-1c-64 0 -110 47 -110 137c0 156 108 214 210 294
c29 77 83 204 83 294c0 93 -19 98 -46 98s-69 -55 -110 -120z" />
    <glyph glyph-name="uni03CF" unicode="&#x3cf;" 
d="M75 -5v1340h258v-464c103 145 427 468 464 505l196 -177c-182 -135 -354 -343 -414 -417c120 -119 402 -550 453 -688c-4 -225 -35 -458 -407 -458v177c162 0 177 62 177 155c-46 111 -253 477 -383 606c0 0 -56 -62 -86 -134v-445h-258z" />
    <glyph glyph-name="uni03D8" unicode="&#x3d8;" 
d="M334 284c37 -60 88 -97 168 -97c86 0 138 62 171 139c30 59 53 215 54 314v17c0 107 -15 249 -54 345c-43 106 -95 145 -160 145c-70 0 -111 -25 -154 -96c-50 -83 -88 -216 -88 -459c0 -97 22 -241 63 -308zM513 1350c161 0 466 -73 471 -703v-11
c0 -167 -45 -324 -93 -419c-56 -109 -154 -186 -268 -217v-316h-246v313c-88 19 -173 61 -227 130c-90 112 -139 268 -139 452c0 352 76 511 146 608c66 92 200 160 356 163z" />
    <glyph glyph-name="uni03D9" unicode="&#x3d9;" 
d="M380 9c-210 50 -298 221 -298 455c0 371 141 568 433 568c197 0 307 -69 377 -201c41 -79 59 -192 59 -288c0 -252 -75 -488 -325 -539v-319h-246v324zM635 247c47 52 60 156 60 283v16c-2 157 -37 284 -165 284c-151 0 -196 -140 -196 -348c0 -166 63 -285 184 -285
c55 1 81 14 117 50z" />
    <glyph glyph-name="uni03DB" unicode="&#x3db;" 
d="M446 -3c-40 7 -134 32 -195 76c-134 96 -170 255 -170 454c0 340 178 491 493 491c144 0 233 3 328 3c32 0 64 0 99 -1l2 -218c-25 4 -143 5 -261 5h-186c-147 0 -219 -136 -219 -279c0 -274 133 -316 192 -331c260 -67 421 -121 421 -292c0 -129 -96 -283 -392 -285
l-24 198c114 14 184 30 184 83c0 72 -184 81 -272 96z" />
    <glyph glyph-name="uni03DA" unicode="&#x3da;" 
d="M484 187c243 -50 435 -81 435 -282c0 -129 -96 -283 -392 -285l-24 198c114 14 185 30 185 83c0 72 -189 79 -273 96c-260 61 -367 323 -367 639c0 259 80 418 132 496c72 108 209 200 384 200c126 0 208 -9 358 -9h54l3 -213c-133 14 -336 18 -422 18
c-115 0 -247 -136 -247 -500c0 -256 77 -421 174 -441z" />
    <glyph glyph-name="uni03DC" unicode="&#x3dc;" 
d="M382 0l-266 3v1321h685c102 0 147 -17 181 -34l-78 -203c-26 14 -48 27 -146 28h-70c-104 0 -128 0 -311 -1v-258c120 0 82 2 204 2c90 0 157 -18 197 -36l-68 -202c-37 17 -87 22 -132 22h-85c-30 0 -51 0 -116 -2c0 -123 5 -545 5 -640z" />
    <glyph glyph-name="uni03DD" unicode="&#x3dd;" 
d="M574 150c0 -253 -54 -497 -430 -497c-30 0 -62 1 -96 5l12 243c28 -4 54 -6 78 -6c124 0 178 97 178 255v914c0 130 66 354 382 354c196 0 222 -15 311 -61l-91 -194c-73 45 -112 54 -202 54c-132 0 -144 -74 -144 -134c0 -27 2 -71 2 -71h184c105 0 146 -12 176 -21
l-44 -197c-21 7 -42 13 -98 13h-220z" />
    <glyph glyph-name="uni0190" unicode="&#x190;" 
d="M990 158c-71 -53 -212 -158 -470 -158c-182 0 -276 34 -357 106c-92 83 -127 183 -127 284c0 178 84 304 236 340c-112 36 -182 147 -182 255c0 195 175 312 465 312h13c233 0 339 -63 413 -104l-111 -171c-72 42 -168 86 -313 86c-120 0 -214 -48 -214 -123
c0 -112 151 -150 262 -150h5h18v-206c-26 0 -52 1 -78 1c-192 0 -259 -81 -259 -242c0 -113 49 -201 230 -201c191 0 297 84 348 130z" />
    <glyph glyph-name="uni01CD" unicode="&#x1cd;" 
d="M515 1359l-366 297l144 138l222 -189l240 201l138 -156zM651 504c-26 143 -125 340 -126 494c-6 -168 -99 -373 -137 -512c60 13 180 13 263 18zM418 1325h224l334 -1081c24 -81 50 -165 50 -244h-276c0 59 -10 114 -25 167l-32 114c-152 -3 -237 1 -357 -29l-30 -90
c-20 -61 -37 -119 -40 -162h-260c4 61 28 143 54 223z" />
    <glyph glyph-name="uni01CE" unicode="&#x1ce;" 
d="M495 1144l-366 297l144 138l222 -189l240 201l138 -156zM318 317c0 -98 69 -128 133 -128c110 0 192 102 210 158v47c-36 42 -104 76 -168 76c-66 0 -175 -43 -175 -153zM917 316c0 -92 19 -144 76 -189l-125 -149c-52 40 -86 51 -128 123c-76 -78 -158 -112 -340 -112
c-171 0 -344 131 -344 313c0 90 30 177 89 238c95 97 206 130 348 130c64 0 130 -21 168 -47c0 166 -116 197 -176 197c-115 0 -209 -33 -283 -111l-122 208c174 110 235 108 413 111c225 0 424 -135 424 -373v-339z" />
    <glyph glyph-name="uni01CF" unicode="&#x1cf;" 
d="M493 1359l-366 297l144 138l222 -189l240 201l138 -156zM132 1324c156 4 257 5 353 5c105 0 205 -1 368 -3l-1 -211c-123 0 -135 5 -230 5v-901c46 0 31 1 82 1c45 0 92 -1 144 -4l1 -217c-85 5 -147 6 -210 6c-47 0 -96 -1 -155 -1c-74 0 -195 -7 -350 -7v216
c85 4 123 5 180 5h52v901c-66 -1 -122 -1 -228 -7z" />
    <glyph glyph-name="uni01D0" unicode="&#x1d0;" 
d="M489 1144l-366 297l144 138l222 -189l240 201l138 -156zM354 1013h255c0 -273 1 -739 1 -739c0 -64 17 -92 109 -92c93 0 153 33 213 91l97 -190c-86 -71 -237 -101 -361 -101c-85 0 -177 14 -221 38c-85 47 -93 127 -93 186v607c-49 0 -139 -6 -234 -28l-29 186
c94 28 183 42 263 42z" />
    <glyph glyph-name="uni01D1" unicode="&#x1d1;" 
d="M517 1359l-366 297l144 138l222 -189l240 201l138 -156zM522 1350c161 0 452 -73 457 -703v-11c0 -167 -31 -324 -79 -419c-75 -147 -225 -233 -390 -233c-122 0 -271 41 -352 143c-90 112 -122 268 -122 452c0 352 60 511 130 608c66 92 200 160 356 163zM351 277
c47 -74 85 -90 159 -90c79 0 128 62 159 139c27 59 48 215 49 314v17c0 107 -9 256 -45 352c-40 106 -92 138 -152 138c-65 0 -103 -25 -143 -96c-47 -83 -81 -216 -81 -459c0 -97 13 -250 54 -315z" />
    <glyph glyph-name="uni01D2" unicode="&#x1d2;" 
d="M512 1144l-366 297l144 138l222 -189l240 201l138 -156zM625 247c47 52 60 156 60 283v16c-2 157 -37 284 -165 284c-151 0 -196 -140 -196 -348c0 -166 63 -285 184 -285c55 1 81 14 117 50zM507 -6c-310 0 -435 190 -435 470c0 371 141 568 433 568
c197 0 307 -69 377 -201c41 -79 59 -192 59 -288c0 -285 -96 -549 -432 -549h-2z" />
    <glyph glyph-name="uni01D3" unicode="&#x1d3;" 
d="M504 1360l-366 297l144 138l222 -189l240 201l138 -156zM701 1350l253 -28c-7 -50 -8 -85 -8 -127v-29c0 -148 3 -278 3 -391v-59c0 -237 -5 -463 -117 -595c-82 -97 -211 -126 -340 -131c-308 0 -406 169 -424 466c-5 77 -7 201 -7 339c0 175 3 373 9 534h258
c-4 -168 -8 -397 -8 -586v-141c0 -64 1 -117 6 -154c14 -94 24 -244 164 -248c200 9 203 231 203 518c0 126 -5 275 -5 448c0 72 3 121 13 184z" />
    <glyph glyph-name="uni01D4" unicode="&#x1d4;" 
d="M498 1144l-366 297l144 138l222 -189l240 201l138 -156zM893 -17c-64 29 -106 75 -127 125c-75 -77 -190 -103 -340 -106h-9c-152 0 -338 51 -338 227c0 82 1 179 1 275c0 216 -3 431 -22 488l254 28c22 -92 16 -356 18 -722c12 -67 31 -92 116 -92c152 7 221 85 221 212
v595h251v-707c2 -52 67 -119 118 -140z" />
    <glyph glyph-name="uni01D5" unicode="&#x1d5;" 
d="M775 1902v-194h-17c-58 -2 -156 -7 -230 -7s-167 1 -235 3l-18 1v197l19 -2c65 -2 180 -3 272 -3c61 0 147 5 192 5h17zM585 1639l282 -3v-238l-282 1v240zM165 1639h279v-240h-279v240zM701 1350l253 -28c-7 -50 -8 -85 -8 -127v-29c0 -148 3 -278 3 -391v-59
c0 -237 -5 -463 -117 -595c-82 -97 -211 -126 -340 -131c-308 0 -406 169 -424 466c-5 77 -7 201 -7 339c0 175 3 373 9 534h258c-4 -168 -8 -397 -8 -586v-141c0 -64 1 -117 6 -154c14 -94 24 -244 164 -248c200 9 203 231 203 518c0 126 -5 275 -5 448c0 72 3 121 13 184z
" />
    <glyph glyph-name="uni01D6" unicode="&#x1d6;" 
d="M771 1708v-194h-17c-58 -2 -156 -7 -230 -7s-167 1 -235 3l-18 1v197l19 -2c65 -2 180 -3 272 -3c61 0 147 5 192 5h17zM579 1423l282 -3v-238l-282 1v240zM159 1423h279v-240h-279v240zM893 -17c-64 29 -106 75 -127 125c-75 -77 -190 -103 -340 -106h-9
c-152 0 -338 51 -338 227c0 82 1 179 1 275c0 216 -3 431 -22 488l254 28c22 -92 16 -356 18 -722c12 -67 31 -92 116 -92c152 7 221 85 221 212v595h251v-707c2 -52 67 -119 118 -140z" />
    <glyph glyph-name="uni01D7" unicode="&#x1d7;" 
d="M216 1826c143 48 317 160 432 268l134 -172c-111 -112 -333 -223 -476 -270zM585 1639l282 -3v-238l-282 1v240zM165 1639h279v-240h-279v240zM701 1350l253 -28c-7 -50 -8 -85 -8 -127v-29c0 -148 3 -278 3 -391v-59c0 -237 -5 -463 -117 -595
c-82 -97 -211 -126 -340 -131c-308 0 -406 169 -424 466c-5 77 -7 201 -7 339c0 175 3 373 9 534h258c-4 -168 -8 -397 -8 -586v-141c0 -64 1 -117 6 -154c14 -94 24 -244 164 -248c200 9 203 231 203 518c0 126 -5 275 -5 448c0 72 3 121 13 184z" />
    <glyph glyph-name="uni01D8" unicode="&#x1d8;" 
d="M196 1602c143 48 317 160 432 268l134 -172c-111 -112 -333 -223 -476 -270zM579 1423l282 -3v-238l-282 1v240zM159 1423h279v-240h-279v240zM893 -17c-64 29 -106 75 -127 125c-75 -77 -190 -103 -340 -106h-9c-152 0 -338 51 -338 227c0 82 1 179 1 275
c0 216 -3 431 -22 488l254 28c22 -92 16 -356 18 -722c12 -67 31 -92 116 -92c152 7 221 85 221 212v595h251v-707c2 -52 67 -119 118 -140z" />
    <glyph glyph-name="uni01D9" unicode="&#x1d9;" 
d="M515 1641l-366 297l144 138l222 -189l240 201l138 -156zM585 1639l282 -3v-238l-282 1v240zM165 1639h279v-240h-279v240zM701 1350l253 -28c-7 -50 -8 -85 -8 -127v-29c0 -148 3 -278 3 -391v-59c0 -237 -5 -463 -117 -595c-82 -97 -211 -126 -340 -131
c-308 0 -406 169 -424 466c-5 77 -7 201 -7 339c0 175 3 373 9 534h258c-4 -168 -8 -397 -8 -586v-141c0 -64 1 -117 6 -154c14 -94 24 -244 164 -248c200 9 203 231 203 518c0 126 -5 275 -5 448c0 72 3 121 13 184z" />
    <glyph glyph-name="uni01DA" unicode="&#x1da;" 
d="M511 1447l-366 297l144 138l222 -189l240 201l138 -156zM579 1423l282 -3v-238l-282 1v240zM159 1423h279v-240h-279v240zM893 -17c-64 29 -106 75 -127 125c-75 -77 -190 -103 -340 -106h-9c-152 0 -338 51 -338 227c0 82 1 179 1 275c0 216 -3 431 -22 488l254 28
c22 -92 16 -356 18 -722c12 -67 31 -92 116 -92c152 7 221 85 221 212v595h251v-707c2 -52 67 -119 118 -140z" />
    <glyph glyph-name="uni01DB" unicode="&#x1db;" 
d="M802 1820l-90 -174c-143 47 -365 158 -476 270l134 172c115 -108 289 -220 432 -268zM585 1639l282 -3v-238l-282 1v240zM165 1639h279v-240h-279v240zM701 1350l253 -28c-7 -50 -8 -85 -8 -127v-29c0 -148 3 -278 3 -391v-59c0 -237 -5 -463 -117 -595
c-82 -97 -211 -126 -340 -131c-308 0 -406 169 -424 466c-5 77 -7 201 -7 339c0 175 3 373 9 534h258c-4 -168 -8 -397 -8 -586v-141c0 -64 1 -117 6 -154c14 -94 24 -244 164 -248c200 9 203 231 203 518c0 126 -5 275 -5 448c0 72 3 121 13 184z" />
    <glyph glyph-name="uni01DC" unicode="&#x1dc;" 
d="M800 1602l-90 -174c-143 47 -365 158 -476 270l134 172c115 -108 289 -220 432 -268zM579 1423l282 -3v-238l-282 1v240zM159 1423h279v-240h-279v240zM893 -17c-64 29 -106 75 -127 125c-75 -77 -190 -103 -340 -106h-9c-152 0 -338 51 -338 227c0 82 1 179 1 275
c0 216 -3 431 -22 488l254 28c22 -92 16 -356 18 -722c12 -67 31 -92 116 -92c152 7 221 85 221 212v595h251v-707c2 -52 67 -119 118 -140z" />
    <glyph glyph-name="uni01DE" unicode="&#x1de;" 
d="M775 1902v-194h-17c-58 -2 -156 -7 -230 -7s-167 1 -235 3l-18 1v197l19 -2c65 -2 180 -3 272 -3c61 0 147 5 192 5h17zM596 1638l282 -3v-238l-282 1v240zM176 1638h279v-240h-279v240zM651 504c-26 143 -125 340 -126 494c-6 -168 -99 -373 -137 -512
c60 13 180 13 263 18zM418 1325h224l334 -1081c24 -81 50 -165 50 -244h-276c0 59 -10 114 -25 167l-32 114c-152 -3 -237 1 -357 -29l-30 -90c-20 -61 -37 -119 -40 -162h-260c4 61 28 143 54 223z" />
    <glyph glyph-name="uni01DF" unicode="&#x1df;" 
d="M768 1708v-194h-17c-58 -2 -156 -7 -230 -7s-167 1 -235 3l-18 1v197l19 -2c65 -2 180 -3 272 -3c61 0 147 5 192 5h17zM576 1423l282 -3v-238l-282 1v240zM156 1423h279v-240h-279v240zM318 317c0 -98 69 -128 133 -128c110 0 192 102 210 158v47
c-36 42 -104 76 -168 76c-66 0 -175 -43 -175 -153zM917 316c0 -92 19 -144 76 -189l-125 -149c-52 40 -86 51 -128 123c-76 -78 -158 -112 -340 -112c-171 0 -344 131 -344 313c0 90 30 177 89 238c95 97 206 130 348 130c64 0 130 -21 168 -47c0 166 -116 197 -176 197
c-115 0 -209 -33 -283 -111l-122 208c174 110 235 108 413 111c225 0 424 -135 424 -373v-339z" />
    <glyph glyph-name="uni01E2" unicode="&#x1e2;" 
d="M864 1620v-194h-17c-58 -2 -156 -7 -230 -7s-167 1 -235 3l-18 1v197l19 -2c65 -2 180 -3 272 -3c61 0 147 5 192 5h17zM1008 32c-47 -25 -112 -37 -187 -37h-342c-11 155 -21 227 -21 227c-18 2 -33 3 -47 3c-28 0 -109 -2 -143 -10c-17 -71 -24 -144 -34 -215h-234
c22 182 177 894 272 1323l145 -3c43 2 97 2 157 2h125h260v-206h-17c-83 0 -71 -2 -194 -2h-142l24 -268c51 1 40 4 125 4h106v-208h-106c-82 0 -64 -3 -109 -4l48 -435h157c61 0 99 25 99 25zM441 434l-43 563c-43 -195 -79 -385 -106 -569c29 3 98 6 149 6z" />
    <glyph glyph-name="uni01E3" unicode="&#x1e3;" 
d="M777 1405v-194h-17c-58 -2 -156 -7 -230 -7s-167 1 -235 3l-18 1v197l19 -2c65 -2 180 -3 272 -3c61 0 147 5 192 5h17zM648 675v-21c38 0 100 0 144 6c-6 104 -31 148 -90 148c-40 0 -54 -48 -54 -133zM256 322c0 -108 28 -160 66 -160c90 0 85 137 96 165v147
c-43 25 -50 34 -104 34c-33 0 -58 -85 -58 -186zM722 0c-158 0 -196 75 -217 97c-30 -34 -90 -93 -193 -93c-63 0 -128 15 -182 53c-81 57 -107 154 -107 252c0 167 64 352 268 352c77 0 89 -16 127 -32c0 97 -5 179 -111 179h-9c-53 0 -71 -20 -100 -106l-198 82
c70 186 182 234 300 234c56 0 102 -3 163 -50c19 -16 38 -40 50 -59c17 26 76 109 178 109c201 0 299 -222 307 -448v-116c-98 -4 -236 -7 -318 -7h-32l-2 -173c16 -42 27 -66 66 -66c75 0 88 36 94 82l190 -72s-49 -218 -274 -218z" />
    <glyph glyph-name="Gcaron" unicode="&#x1e6;" 
d="M546 1359l-366 297l144 138l222 -189l240 201l138 -156zM861 772c46 0 89 3 131 7v-193c0 -444 -123 -536 -301 -583c-45 -10 -109 -11 -151 -11c-364 0 -520 294 -520 649c0 242 53 439 184 569c100 90 214 118 329 118h20c214 -5 362 -91 437 -257l-234 -116
c-36 118 -84 166 -216 166c-168 0 -259 -202 -259 -491c0 -264 77 -432 249 -432s198 176 198 370l-64 -1c-71 0 -140 -5 -230 -39l-40 203c96 37 200 43 301 43c56 0 112 -2 166 -2z" />
    <glyph glyph-name="gcaron" unicode="&#x1e7;" 
d="M498 1141l-366 297l144 138l222 -189l240 201l138 -156zM541 -184c62 0 193 70 193 168c0 41 -22 74 -136 74l-267 -1c-23 -30 -23 -86 -23 -130c0 -62 74 -111 143 -111h90zM645 726c0 86 -75 96 -161 96c-88 0 -157 -30 -157 -105c0 -90 68 -118 158 -118
c118 0 160 52 160 127zM870 819c0 0 21 -22 21 -103c0 -176 -104 -317 -384 -317h-3c-75 0 -133 7 -147 13c-19 -22 -30 -49 -30 -79c0 -35 23 -85 129 -85h179c153 0 349 -46 349 -247c0 -223 -216 -385 -389 -385h-155c-204 0 -360 91 -360 306c0 101 34 174 87 221
c-47 35 -87 114 -87 200c0 101 39 149 76 190c-39 50 -76 87 -76 161c0 235 161 332 415 332c100 0 196 -14 272 -61c49 46 104 61 220 61v-204c-12 2 -31 5 -41 5c-34 0 -52 -2 -76 -8z" />
    <glyph glyph-name="uni01E8" unicode="&#x1e8;" 
d="M493 1359l-366 297l144 138l222 -189l240 201l138 -156zM588 782c120 -119 407 -550 458 -688l-236 -126c-46 111 -252 477 -382 606c0 0 -56 -62 -86 -134v-440h-258v1335h258v-464c103 145 427 468 464 505l196 -177c-182 -135 -354 -343 -414 -417z" />
    <glyph glyph-name="uni01E9" unicode="&#x1e9;" 
d="M255 1450l-366 297l144 138l222 -189l240 201l138 -156zM982 823c-164 -56 -288 -144 -366 -227c182 -119 290 -255 418 -496l-226 -128c-112 233 -184 349 -352 476c-31 -35 -59 -76 -73 -104v-344h-249v1222c0 55 -6 110 -24 161l246 44c20 -51 27 -96 27 -169v-389
c0 -78 -10 -146 -34 -222c125 156 291 306 528 401z" />
    <glyph glyph-name="uni01F0" unicode="&#x1f0;" 
d="M702 1140l-366 297l144 138l222 -189l240 201l138 -156zM842 -78c0 -153 -81 -311 -367 -311c-123 0 -279 28 -405 233l164 148c86 -145 155 -180 218 -180h18c120 0 116 105 118 140v861c-49 0 -140 -6 -235 -28l-29 186c94 28 184 42 264 42h254v-1091z" />
    <glyph glyph-name="uni01F4" unicode="&#x1f4;" 
d="M243 1499c143 48 317 160 432 268l134 -172c-111 -112 -333 -223 -476 -270zM861 772c46 0 89 3 131 7v-193c0 -444 -123 -536 -301 -583c-45 -10 -109 -11 -151 -11c-364 0 -520 294 -520 649c0 242 53 439 184 569c100 90 214 118 329 118h20c214 -5 362 -91 437 -257
l-234 -116c-36 118 -84 166 -216 166c-168 0 -259 -202 -259 -491c0 -264 77 -432 249 -432s198 176 198 370l-64 -1c-71 0 -140 -5 -230 -39l-40 203c96 37 200 43 301 43c56 0 112 -2 166 -2z" />
    <glyph glyph-name="uni01F5" unicode="&#x1f5;" 
d="M195 1281c143 48 317 160 432 268l134 -172c-111 -112 -333 -223 -476 -270zM541 -184c62 0 193 70 193 168c0 41 -22 74 -136 74l-267 -1c-23 -30 -23 -86 -23 -130c0 -62 74 -111 143 -111h90zM645 726c0 86 -75 96 -161 96c-88 0 -157 -30 -157 -105
c0 -90 68 -118 158 -118c118 0 160 52 160 127zM870 819c0 0 21 -22 21 -103c0 -176 -104 -317 -384 -317h-3c-75 0 -133 7 -147 13c-19 -22 -30 -49 -30 -79c0 -35 23 -85 129 -85h179c153 0 349 -46 349 -247c0 -223 -216 -385 -389 -385h-155c-204 0 -360 91 -360 306
c0 101 34 174 87 221c-47 35 -87 114 -87 200c0 101 39 149 76 190c-39 50 -76 87 -76 161c0 235 161 332 415 332c100 0 196 -14 272 -61c49 46 104 61 220 61v-204c-12 2 -31 5 -41 5c-34 0 -52 -2 -76 -8z" />
    <glyph glyph-name="uni01F8" unicode="&#x1f8;" 
d="M801 1509l-90 -174c-143 47 -365 158 -476 270l134 172c115 -108 289 -220 432 -268zM691 0c-90 259 -237 559 -371 778v-208c0 -299 1 -418 1 -573h-246v1328l211 -7c126 -188 360 -580 410 -814l-7 274c0 190 3 377 12 551l244 -1c-6 -115 -8 -267 -8 -433
c0 -231 4 -490 4 -725c0 -58 -1 -116 -1 -170h-249z" />
    <glyph glyph-name="uni01F9" unicode="&#x1f9;" 
d="M829 1294l-90 -174c-143 47 -365 158 -476 270l134 172c115 -108 289 -220 432 -268zM338 927c56 50 190 99 300 99c164 0 300 -66 300 -230v-518c0 -66 50 -88 106 -118l-116 -200c-95 30 -241 104 -241 262v477c0 74 -15 120 -82 120c-63 0 -169 -38 -254 -112v-707
h-251v706c0 178 -8 204 -32 298l232 48c10 -24 31 -76 38 -125z" />
    <glyph glyph-name="Aringacute" unicode="&#x1fa;" 
d="M747.425 1367.42c84.2812 59.7197 176.675 172.966 231.3 273.539l120.102 -108.332c-51.2539 -102.948 -175.182 -223.283 -259.651 -282.245zM521 1561c-53 0 -86 -31 -86 -62s34 -63 86 -63s86 32 86 63s-33 62 -86 62zM651 504c-26 143 -125 340 -126 494
c-6 -168 -99 -373 -137 -512c60 13 180 13 263 18zM246 1499c0 116 128 204 276 204s275 -88 275 -204c0 -83 -60 -148 -154 -178l333 -1077c24 -81 50 -165 50 -244h-276c0 59 -10 114 -25 167l-32 114c-152 -3 -237 1 -357 -29l-30 -90c-20 -61 -37 -119 -40 -162h-260
c4 61 28 143 54 223l356 1095c-100 28 -170 95 -170 181z" />
    <glyph glyph-name="aringacute" unicode="&#x1fb;" 
d="M783.087 1268.17c72.9883 73.0918 144.935 200.312 181.795 308.663l136.668 -86.498c-33.1367 -110.124 -134.967 -249.655 -208.27 -322.032zM498 1385c-53 0 -86 -31 -86 -62s34 -63 86 -63s86 32 86 63s-33 62 -86 62zM223 1323c0 116 128 204 276 204
s275 -88 275 -204c0 -115 -115 -195 -275 -195c-153 0 -276 81 -276 195zM318 317c0 -98 69 -128 133 -128c110 0 192 102 210 158v47c-36 42 -104 76 -168 76c-66 0 -175 -43 -175 -153zM917 316c0 -92 19 -144 76 -189l-125 -149c-52 40 -86 51 -128 123
c-76 -78 -158 -112 -340 -112c-171 0 -344 131 -344 313c0 90 30 177 89 238c95 97 206 130 348 130c64 0 130 -21 168 -47c0 166 -116 197 -176 197c-115 0 -209 -33 -283 -111l-122 208c174 110 235 108 413 111c225 0 424 -135 424 -373v-339z" />
    <glyph glyph-name="AEacute" unicode="&#x1fc;" 
d="M301 1509c143 48 317 160 432 268l134 -172c-111 -112 -333 -223 -476 -270zM1008 32c-47 -25 -112 -37 -187 -37h-342c-11 155 -21 227 -21 227c-18 2 -33 3 -47 3c-28 0 -109 -2 -143 -10c-17 -71 -24 -144 -34 -215h-234c22 182 177 894 272 1323l145 -3
c43 2 97 2 157 2h125h260v-206h-17c-83 0 -71 -2 -194 -2h-142l24 -268c51 1 40 4 125 4h106v-208h-106c-82 0 -64 -3 -109 -4l48 -435h157c61 0 99 25 99 25zM441 434l-43 563c-43 -195 -79 -385 -106 -569c29 3 98 6 149 6z" />
    <glyph glyph-name="aeacute" unicode="&#x1fd;" 
d="M214 1294c143 48 317 160 432 268l134 -172c-111 -112 -333 -223 -476 -270zM648 675v-21c38 0 100 0 144 6c-6 104 -31 148 -90 148c-40 0 -54 -48 -54 -133zM256 322c0 -108 28 -160 66 -160c90 0 85 137 96 165v147c-43 25 -50 34 -104 34c-33 0 -58 -85 -58 -186z
M722 0c-158 0 -196 75 -217 97c-30 -34 -90 -93 -193 -93c-63 0 -128 15 -182 53c-81 57 -107 154 -107 252c0 167 64 352 268 352c77 0 89 -16 127 -32c0 97 -5 179 -111 179h-9c-53 0 -71 -20 -100 -106l-198 82c70 186 182 234 300 234c56 0 102 -3 163 -50
c19 -16 38 -40 50 -59c17 26 76 109 178 109c201 0 299 -222 307 -448v-116c-98 -4 -236 -7 -318 -7h-32l-2 -173c16 -42 27 -66 66 -66c75 0 88 36 94 82l190 -72s-49 -218 -274 -218z" />
    <glyph glyph-name="Oslashacute" unicode="&#x1fe;" 
d="M214 1509c143 48 317 160 432 268l134 -172c-111 -112 -333 -223 -476 -270zM884 1128c56 -104 93 -258 95 -481v-11c0 -167 -31 -324 -79 -419c-75 -147 -225 -233 -390 -233c-75 0 -161 16 -234 51l-84 -150l-159 104c33 58 65 117 98 175c-69 109 -95 251 -95 415
c0 352 60 511 130 608c66 92 200 160 356 163c65 0 152 -12 232 -68c27 49 54 97 81 146l160 -101zM385 232c34 -36 69 -45 125 -45c79 0 128 62 159 139c27 59 48 215 49 314v17c0 48 -2 104 -7 160zM640 1076c-34 53 -74 71 -119 71c-65 0 -103 -25 -143 -96
c-47 -83 -81 -216 -81 -459c0 -35 2 -78 6 -121c113 202 226 404 337 605z" />
    <glyph glyph-name="oslashacute" unicode="&#x1ff;" 
d="M209 1294c143 48 317 160 432 268l134 -172c-111 -112 -333 -223 -476 -270zM625 247c47 52 60 156 60 283v16c0 14 0 27 -1 40l-301 -327c30 -39 72 -62 125 -62c55 1 81 14 117 50zM848 1067l150 -140l-107 -115c34 -77 50 -181 50 -269c0 -285 -96 -549 -432 -549h-2
c-125 0 -219 31 -288 86l-73 -80l-146 133l104 115c-22 63 -32 136 -32 216c0 371 141 568 433 568c109 0 190 -21 254 -62zM607 802c-23 18 -51 28 -87 28c-149 0 -195 -137 -196 -340z" />
    <glyph glyph-name="uni0200" unicode="&#x200;" 
d="M580 1495l-148 -143c-118 94 -288 274 -353 418l201 127c70 -141 183 -307 300 -402zM963 1502l-147 -142c-118 94 -289 274 -354 418l201 126c70 -141 183 -307 300 -402zM651 504c-26 143 -125 340 -126 494c-6 -168 -99 -373 -137 -512c60 13 180 13 263 18zM418 1325
h224l334 -1081c24 -81 50 -165 50 -244h-276c0 59 -10 114 -25 167l-32 114c-152 -3 -237 1 -357 -29l-30 -90c-20 -61 -37 -119 -40 -162h-260c4 61 28 143 54 223z" />
    <glyph glyph-name="uni0201" unicode="&#x201;" 
d="M560 1280l-148 -143c-118 94 -288 274 -353 418l201 127c70 -141 183 -307 300 -402zM943 1287l-147 -142c-118 94 -289 274 -354 418l201 126c70 -141 183 -307 300 -402zM318 317c0 -98 69 -128 133 -128c110 0 192 102 210 158v47c-36 42 -104 76 -168 76
c-66 0 -175 -43 -175 -153zM917 316c0 -92 19 -144 76 -189l-125 -149c-52 40 -86 51 -128 123c-76 -78 -158 -112 -340 -112c-171 0 -344 131 -344 313c0 90 30 177 89 238c95 97 206 130 348 130c64 0 130 -21 168 -47c0 166 -116 197 -176 197c-115 0 -209 -33 -283 -111
l-122 208c174 110 235 108 413 111c225 0 424 -135 424 -373v-339z" />
    <glyph glyph-name="uni0204" unicode="&#x204;" 
d="M541 1495l-148 -143c-118 94 -288 274 -353 418l201 127c70 -141 183 -307 300 -402zM924 1502l-147 -142c-118 94 -289 274 -354 418l201 126c70 -141 183 -307 300 -402zM102 1319c56 4 126 4 204 4h98h110c149 0 285 -3 359 -3h16v-202h-529v-269h338v-203h-338v-31
c0 -207 -2 -332 -2 -411l416 2c56 0 125 27 125 27l72 -199c-48 -13 -89 -34 -187 -34h-682v1319z" />
    <glyph glyph-name="uni0205" unicode="&#x205;" 
d="M593 1280l-148 -143c-118 94 -288 274 -353 418l201 127c70 -141 183 -307 300 -402zM976 1287l-147 -142c-118 94 -289 274 -354 418l201 126c70 -141 183 -307 300 -402zM336 606c113 20 207 24 340 24c-5 131 -77 188 -165 188c-102 0 -169 -96 -175 -212zM509 1021
c319 0 428 -208 428 -544c0 -20 -1 -43 -1 -43c-285 -4 -498 -18 -600 -38c16 -111 104 -200 196 -200c106 0 154 36 222 110l178 -156c-101 -112 -167 -160 -406 -160c-286 0 -448 213 -448 526c0 286 148 505 431 505z" />
    <glyph glyph-name="uni0208" unicode="&#x208;" 
d="M558 1495l-148 -143c-118 94 -288 274 -353 418l201 127c70 -141 183 -307 300 -402zM941 1502l-147 -142c-118 94 -289 274 -354 418l201 126c70 -141 183 -307 300 -402zM132 1324c156 4 257 5 353 5c105 0 205 -1 368 -3l-1 -211c-123 0 -135 5 -230 5v-901
c46 0 31 1 82 1c45 0 92 -1 144 -4l1 -217c-85 5 -147 6 -210 6c-47 0 -96 -1 -155 -1c-74 0 -195 -7 -350 -7v216c85 4 123 5 180 5h52v901c-66 -1 -122 -1 -228 -7z" />
    <glyph glyph-name="uni0209" unicode="&#x209;" 
d="M554 1280l-148 -143c-118 94 -288 274 -353 418l201 127c70 -141 183 -307 300 -402zM937 1287l-147 -142c-118 94 -289 274 -354 418l201 126c70 -141 183 -307 300 -402zM354 1013h255c0 -273 1 -739 1 -739c0 -64 17 -92 109 -92c93 0 153 33 213 91l97 -190
c-86 -71 -237 -101 -361 -101c-85 0 -177 14 -221 38c-85 47 -93 127 -93 186v607c-49 0 -139 -6 -234 -28l-29 186c94 28 183 42 263 42z" />
    <glyph glyph-name="uni020C" unicode="&#x20c;" 
d="M582 1495l-148 -143c-118 94 -288 274 -353 418l201 127c70 -141 183 -307 300 -402zM965 1502l-147 -142c-118 94 -289 274 -354 418l201 126c70 -141 183 -307 300 -402zM522 1350c161 0 452 -73 457 -703v-11c0 -167 -31 -324 -79 -419c-75 -147 -225 -233 -390 -233
c-122 0 -271 41 -352 143c-90 112 -122 268 -122 452c0 352 60 511 130 608c66 92 200 160 356 163zM351 277c47 -74 85 -90 159 -90c79 0 128 62 159 139c27 59 48 215 49 314v17c0 107 -9 256 -45 352c-40 106 -92 138 -152 138c-65 0 -103 -25 -143 -96
c-47 -83 -81 -216 -81 -459c0 -97 13 -250 54 -315z" />
    <glyph glyph-name="uni020D" unicode="&#x20d;" 
d="M577 1280l-148 -143c-118 94 -288 274 -353 418l201 127c70 -141 183 -307 300 -402zM960 1287l-147 -142c-118 94 -289 274 -354 418l201 126c70 -141 183 -307 300 -402zM625 247c47 52 60 156 60 283v16c-2 157 -37 284 -165 284c-151 0 -196 -140 -196 -348
c0 -166 63 -285 184 -285c55 1 81 14 117 50zM507 -6c-310 0 -435 190 -435 470c0 371 141 568 433 568c197 0 307 -69 377 -201c41 -79 59 -192 59 -288c0 -285 -96 -549 -432 -549h-2z" />
    <glyph glyph-name="uni0210" unicode="&#x210;" 
d="M581 1495l-148 -143c-118 94 -288 274 -353 418l201 127c70 -141 183 -307 300 -402zM964 1502l-147 -142c-118 94 -289 274 -354 418l201 126c70 -141 183 -307 300 -402zM699 552c78 -124 181 -275 237 -341c18 -16 66 -52 108 -63l-122 -192c-58 9 -118 59 -152 102
c-97 109 -264 376 -320 472c-36 3 -73 10 -117 28v-558h-243v1136c0 68 -1 116 -5 178c42 4 157 15 218 15c250 0 469 -8 591 -161c48 -60 74 -154 74 -240c0 -224 -125 -355 -269 -376zM706 906c0 170 -116 218 -310 218c-26 0 -34 0 -63 -1v-355c64 -27 123 -42 166 -42h8
c170 0 199 78 199 180z" />
    <glyph glyph-name="uni0211" unicode="&#x211;" 
d="M605 1280l-148 -143c-118 94 -288 274 -353 418l201 127c70 -141 183 -307 300 -402zM988 1287l-147 -142c-118 94 -289 274 -354 418l201 126c70 -141 183 -307 300 -402zM404 864c75 98 179 156 340 156c167 0 272 -102 272 -292v-30l-252 -2c1 11 2 27 2 44
c0 37 -10 78 -66 78s-136 -73 -232 -258v-560h-252v704c0 57 -48 99 -110 154l148 186c61 -49 116 -77 150 -180z" />
    <glyph glyph-name="uni0214" unicode="&#x214;" 
d="M569 1496l-148 -143c-118 94 -288 274 -353 418l201 127c70 -141 183 -307 300 -402zM952 1503l-147 -142c-118 94 -289 274 -354 418l201 126c70 -141 183 -307 300 -402zM701 1350l253 -28c-7 -50 -8 -85 -8 -127v-29c0 -148 3 -278 3 -391v-59
c0 -237 -5 -463 -117 -595c-82 -97 -211 -126 -340 -131c-308 0 -406 169 -424 466c-5 77 -7 201 -7 339c0 175 3 373 9 534h258c-4 -168 -8 -397 -8 -586v-141c0 -64 1 -117 6 -154c14 -94 24 -244 164 -248c200 9 203 231 203 518c0 126 -5 275 -5 448c0 72 3 121 13 184z
" />
    <glyph glyph-name="uni0215" unicode="&#x215;" 
d="M563 1280l-148 -143c-118 94 -288 274 -353 418l201 127c70 -141 183 -307 300 -402zM946 1287l-147 -142c-118 94 -289 274 -354 418l201 126c70 -141 183 -307 300 -402zM893 -17c-64 29 -106 75 -127 125c-75 -77 -190 -103 -340 -106h-9c-152 0 -338 51 -338 227
c0 82 1 179 1 275c0 216 -3 431 -22 488l254 28c22 -92 16 -356 18 -722c12 -67 31 -92 116 -92c152 7 221 85 221 212v595h251v-707c2 -52 67 -119 118 -140z" />
    <glyph glyph-name="Scommaaccent" unicode="&#x218;" 
d="M387 -49h270v-215c0 -151 -30 -215 -156 -317l-134 125c53 42 76 75 76 186h-56v221zM231 702c-110 50 -180 142 -180 304c0 220 164 322 419 322h9c240 0 436 -82 481 -250l-273 -102c-46 101 -132 142 -202 142c-86 0 -166 -36 -166 -104c0 -98 56 -122 114 -144
c123 -48 194 -57 326 -118c108 -53 216 -158 216 -356c0 -300 -214 -405 -454 -405h-19c-353 9 -475 203 -475 431l266 -2c0 -143 62 -220 214 -220c108 0 210 36 210 182c0 109 -71 165 -150 200c-116 51 -203 59 -336 120z" />
    <glyph glyph-name="scommaaccent" unicode="&#x219;" 
d="M402 -49h270v-215c0 -151 -30 -215 -156 -317l-134 125c53 42 76 75 76 186h-56v221zM279 549c-82 40 -137 121 -137 232c0 186 190 248 365 248c139 0 292 -15 403 -136l-177 -163c-54 58 -127 99 -223 99c-82 0 -114 -22 -114 -61c0 -29 6 -49 34 -67
c256 -104 500 -139 500 -423c0 -162 -144 -250 -251 -278c-56 -13 -116 -20 -173 -20c-256 0 -412 135 -412 350h253c0 -108 48 -148 157 -148c59 0 172 20 172 108c0 59 -21 92 -70 125c-69 44 -234 89 -327 134z" />
    <glyph glyph-name="uni021A" unicode="&#x21a;" 
d="M352 -49h270v-215c0 -151 -30 -215 -156 -317l-134 125c53 42 76 75 76 186h-56v221zM355 0v1118c-198 0 -240 -1 -316 -1v207c122 0 576 1 764 1c73 0 143 -9 167 -16l-60 -203s-52 12 -112 12h-183v-1118h-260z" />
    <glyph glyph-name="uni021B" unicode="&#x21b;" 
d="M459 -49h270v-215c0 -151 -30 -215 -156 -317l-134 125c53 42 76 75 76 186h-56v221zM430 436v-40c0 -134 39 -182 123 -196c18 -2 52 -4 65 -4c65 0 95 14 120 28c52 28 63 96 70 116l208 -100c-10 -28 -64 -140 -176 -204c-58 -34 -135 -42 -220 -42
c-184 0 -332 22 -403 170c-35 72 -39 148 -39 234v42c2 90 4 201 9 365h-14c-28 0 -56 -4 -82 -12l-17 204c24 8 69 12 102 12h15c0 70 1 171 1 241l251 -6c0 -66 -1 -163 -2 -231c109 0 421 -4 429 -4l-3 -204c-137 0 -295 2 -428 2c-6 -166 -5 -271 -9 -371z" />
    <glyph glyph-name="uni021E" unicode="&#x21e;" 
d="M496 1359l-366 297l144 138l222 -189l240 201l138 -156zM317 1322l-1 -537c92 21 152 29 272 29h87c0 280 -1 338 -1 503h256v-1317h-255v599h-32c-146 0 -209 -3 -327 -29c0 -350 2 -385 2 -570h-258v1320z" />
    <glyph glyph-name="uni021F" unicode="&#x21f;" 
d="M201 1437l-366 297l144 138l222 -189l240 201l138 -156zM942 566v-348c0 -82 19 -142 44 -178l-226 -80c-23 32 -64 106 -64 216v315c0 309 -96 322 -188 322c-77 0 -142 -76 -175 -131v-682h-245v1156c0 94 -9 178 -16 246l248 9c9 -73 14 -169 14 -260
c0 -90 -6 -145 -24 -222c37 28 113 84 232 84c250 0 400 -125 400 -447z" />
    <glyph glyph-name="uni0226" unicode="&#x226;" 
d="M364 1645h284l2 -246h-285zM651 504c-26 143 -125 340 -126 494c-6 -168 -99 -373 -137 -512c60 13 180 13 263 18zM418 1325h224l334 -1081c24 -81 50 -165 50 -244h-276c0 59 -10 114 -25 167l-32 114c-152 -3 -237 1 -357 -29l-30 -90c-20 -61 -37 -119 -40 -162h-260
c4 61 28 143 54 223z" />
    <glyph glyph-name="uni0227" unicode="&#x227;" 
d="M344 1430h284l2 -246h-285zM318 317c0 -98 69 -128 133 -128c110 0 192 102 210 158v47c-36 42 -104 76 -168 76c-66 0 -175 -43 -175 -153zM917 316c0 -92 19 -144 76 -189l-125 -149c-52 40 -86 51 -128 123c-76 -78 -158 -112 -340 -112c-171 0 -344 131 -344 313
c0 90 30 177 89 238c95 97 206 130 348 130c64 0 130 -21 168 -47c0 166 -116 197 -176 197c-115 0 -209 -33 -283 -111l-122 208c174 110 235 108 413 111c225 0 424 -135 424 -373v-339z" />
    <glyph glyph-name="uni0228" unicode="&#x228;" 
d="M98 1438c59 4 132 4 214 4h103h116c156 0 299 -3 377 -3h16v-220h-555v-294h355v-221h-355v-34c0 -226 -2 -365 -2 -451l437 2c59 0 131 30 131 30l76 -217c-50 -14 -94 -37 -197 -37h-160c-1 -21 -1 -59 -1 -61c97 -5 184 -62 184 -176c0 -130 -114 -203 -272 -203
c-66 0 -158 18 -214 54l60 148c33 -18 77 -30 128 -30c36 0 71 12 74 50v2c0 29 -24 55 -72 55s-81 -2 -109 -12v173h-334v1441z" />
    <glyph glyph-name="uni0229" unicode="&#x229;" 
d="M346 606c113 20 207 24 340 24c-5 131 -77 188 -165 188c-102 0 -169 -96 -175 -212zM519 1021c319 0 428 -208 428 -544c0 -20 -1 -43 -1 -43c-285 -4 -498 -18 -600 -38c16 -111 80 -200 172 -200c106 0 141 9 202 98l200 -128c-55 -86 -133 -149 -289 -169
c-1 -19 -2 -65 -2 -68c97 -5 184 -62 184 -176c0 -130 -114 -203 -272 -203c-66 0 -158 18 -214 54l60 148c33 -18 77 -30 128 -30c36 0 71 12 74 50v2c0 29 -24 55 -72 55s-81 -2 -109 -12v183c-216 46 -320 243 -320 516c0 286 148 505 431 505z" />
    <glyph glyph-name="uni022A" unicode="&#x22a;" 
d="M793 1902v-194h-17c-58 -2 -156 -7 -230 -7s-167 1 -235 3l-18 1v197l19 -2c65 -2 180 -3 272 -3c61 0 147 5 192 5h17zM598 1638l282 -3v-238l-282 1v240zM178 1638h279v-240h-279v240zM522 1350c161 0 452 -73 457 -703v-11c0 -167 -31 -324 -79 -419
c-75 -147 -225 -233 -390 -233c-122 0 -271 41 -352 143c-90 112 -122 268 -122 452c0 352 60 511 130 608c66 92 200 160 356 163zM351 277c47 -74 85 -90 159 -90c79 0 128 62 159 139c27 59 48 215 49 314v17c0 107 -9 256 -45 352c-40 106 -92 138 -152 138
c-65 0 -103 -25 -143 -96c-47 -83 -81 -216 -81 -459c0 -97 13 -250 54 -315z" />
    <glyph glyph-name="uni022B" unicode="&#x22b;" 
d="M788 1708v-194h-17c-58 -2 -156 -7 -230 -7s-167 1 -235 3l-18 1v197l19 -2c65 -2 180 -3 272 -3c61 0 147 5 192 5h17zM593 1423l282 -3v-238l-282 1v240zM173 1423h279v-240h-279v240zM625 247c47 52 60 156 60 283v16c-2 157 -37 284 -165 284
c-151 0 -196 -140 -196 -348c0 -166 63 -285 184 -285c55 1 81 14 117 50zM507 -6c-310 0 -435 190 -435 470c0 371 141 568 433 568c197 0 307 -69 377 -201c41 -79 59 -192 59 -288c0 -285 -96 -549 -432 -549h-2z" />
    <glyph glyph-name="uni022C" unicode="&#x22c;" 
d="M793 1902v-194h-17c-58 -2 -156 -7 -230 -7s-167 1 -235 3l-18 1v197l19 -2c65 -2 180 -3 272 -3c61 0 147 5 192 5h17zM355 1677c216 0 235 -132 325 -132c50 0 80 31 86 100l177 -54c-21 -96 -79 -224 -241 -224c-198 0 -219 130 -320 130c-42 0 -79 -37 -88 -100
l-184 78c33 93 104 202 245 202zM522 1350c161 0 452 -73 457 -703v-11c0 -167 -31 -324 -79 -419c-75 -147 -225 -233 -390 -233c-122 0 -271 41 -352 143c-90 112 -122 268 -122 452c0 352 60 511 130 608c66 92 200 160 356 163zM351 277c47 -74 85 -90 159 -90
c79 0 128 62 159 139c27 59 48 215 49 314v17c0 107 -9 256 -45 352c-40 106 -92 138 -152 138c-65 0 -103 -25 -143 -96c-47 -83 -81 -216 -81 -459c0 -97 13 -250 54 -315z" />
    <glyph glyph-name="uni022D" unicode="&#x22d;" 
d="M788 1708v-194h-17c-58 -2 -156 -7 -230 -7s-167 1 -235 3l-18 1v197l19 -2c65 -2 180 -3 272 -3c61 0 147 5 192 5h17zM350 1462c216 0 235 -132 325 -132c50 0 80 31 86 100l177 -54c-21 -96 -79 -224 -241 -224c-198 0 -219 130 -320 130c-42 0 -79 -37 -88 -100
l-184 78c33 93 104 202 245 202zM625 247c47 52 60 156 60 283v16c-2 157 -37 284 -165 284c-151 0 -196 -140 -196 -348c0 -166 63 -285 184 -285c55 1 81 14 117 50zM507 -6c-310 0 -435 190 -435 470c0 371 141 568 433 568c197 0 307 -69 377 -201
c41 -79 59 -192 59 -288c0 -285 -96 -549 -432 -549h-2z" />
    <glyph glyph-name="uni022E" unicode="&#x22e;" 
d="M366 1645h284l2 -246h-285zM522 1350c161 0 452 -73 457 -703v-11c0 -167 -31 -324 -79 -419c-75 -147 -225 -233 -390 -233c-122 0 -271 41 -352 143c-90 112 -122 268 -122 452c0 352 60 511 130 608c66 92 200 160 356 163zM351 277c47 -74 85 -90 159 -90
c79 0 128 62 159 139c27 59 48 215 49 314v17c0 107 -9 256 -45 352c-40 106 -92 138 -152 138c-65 0 -103 -25 -143 -96c-47 -83 -81 -216 -81 -459c0 -97 13 -250 54 -315z" />
    <glyph glyph-name="uni022F" unicode="&#x22f;" 
d="M361 1430h284l2 -246h-285zM625 247c47 52 60 156 60 283v16c-2 157 -37 284 -165 284c-151 0 -196 -140 -196 -348c0 -166 63 -285 184 -285c55 1 81 14 117 50zM507 -6c-310 0 -435 190 -435 470c0 371 141 568 433 568c197 0 307 -69 377 -201c41 -79 59 -192 59 -288
c0 -285 -96 -549 -432 -549h-2z" />
    <glyph glyph-name="uni0230" unicode="&#x230;" 
d="M793 1902v-194h-17c-58 -2 -156 -7 -230 -7s-167 1 -235 3l-18 1v197l19 -2c65 -2 180 -3 272 -3c61 0 147 5 192 5h17zM366 1645h284l2 -246h-285zM522 1350c161 0 452 -73 457 -703v-11c0 -167 -31 -324 -79 -419c-75 -147 -225 -233 -390 -233
c-122 0 -271 41 -352 143c-90 112 -122 268 -122 452c0 352 60 511 130 608c66 92 200 160 356 163zM351 277c47 -74 85 -90 159 -90c79 0 128 62 159 139c27 59 48 215 49 314v17c0 107 -9 256 -45 352c-40 106 -92 138 -152 138c-65 0 -103 -25 -143 -96
c-47 -83 -81 -216 -81 -459c0 -97 13 -250 54 -315z" />
    <glyph glyph-name="uni0231" unicode="&#x231;" 
d="M768 1708v-194h-17c-58 -2 -156 -7 -230 -7s-167 1 -235 3l-18 1v197l19 -2c65 -2 180 -3 272 -3c61 0 147 5 192 5h17zM361 1430h284l2 -246h-285zM625 247c47 52 60 156 60 283v16c-2 157 -37 284 -165 284c-151 0 -196 -140 -196 -348c0 -166 63 -285 184 -285
c55 1 81 14 117 50zM507 -6c-310 0 -435 190 -435 470c0 371 141 568 433 568c197 0 307 -69 377 -201c41 -79 59 -192 59 -288c0 -285 -96 -549 -432 -549h-2z" />
    <glyph glyph-name="uni0311" unicode="&#x311;" 
d="M520 1508c-75 0 -153 -33 -180 -150l-219 30c48 225 180 303 405 303c240 0 369 -117 393 -294l-219 -30c-6 78 -72 141 -180 141z" />
    <glyph glyph-name="uni0310" unicode="&#x310;" 
 />
    <glyph glyph-name="uni0313" unicode="&#x313;" 
d="M438 1597h220v-215c0 -151 -67 -227 -196 -283l-53 127c60 28 86 51 86 150h-57v221z" />
    <glyph glyph-name="uni0314" unicode="&#x314;" 
d="M641 1597v-221h-57c0 -99 26 -122 86 -150l-53 -127c-129 56 -196 132 -196 283v215h220z" />
    <glyph glyph-name="uni0202" unicode="&#x202;" 
d="M523 1540c-75 0 -153 -33 -180 -150l-219 30c48 225 180 303 405 303c240 0 369 -117 393 -294l-219 -30c-6 78 -72 141 -180 141zM651 504c-26 143 -125 340 -126 494c-6 -168 -99 -373 -137 -512c60 13 180 13 263 18zM418 1325h224l334 -1081c24 -81 50 -165 50 -244
h-276c0 59 -10 114 -25 167l-32 114c-152 -3 -237 1 -357 -29l-30 -90c-20 -61 -37 -119 -40 -162h-260c4 61 28 143 54 223z" />
    <glyph glyph-name="uni0203" unicode="&#x203;" 
d="M503 1325c-75 0 -153 -33 -180 -150l-219 30c48 225 180 303 405 303c240 0 369 -117 393 -294l-219 -30c-6 78 -72 141 -180 141zM318 317c0 -98 69 -128 133 -128c110 0 192 102 210 158v47c-36 42 -104 76 -168 76c-66 0 -175 -43 -175 -153zM917 316
c0 -92 19 -144 76 -189l-125 -149c-52 40 -86 51 -128 123c-76 -78 -158 -112 -340 -112c-171 0 -344 131 -344 313c0 90 30 177 89 238c95 97 206 130 348 130c64 0 130 -21 168 -47c0 166 -116 197 -176 197c-115 0 -209 -33 -283 -111l-122 208c174 110 235 108 413 111
c225 0 424 -135 424 -373v-339z" />
    <glyph glyph-name="uni0206" unicode="&#x206;" 
d="M484 1540c-75 0 -153 -33 -180 -150l-219 30c48 225 180 303 405 303c240 0 369 -117 393 -294l-219 -30c-6 78 -72 141 -180 141zM102 1319c56 4 126 4 204 4h98h110c149 0 285 -3 359 -3h16v-202h-529v-269h338v-203h-338v-31c0 -207 -2 -332 -2 -411l416 2
c56 0 125 27 125 27l72 -199c-48 -13 -89 -34 -187 -34h-682v1319z" />
    <glyph glyph-name="uni0207" unicode="&#x207;" 
d="M536 1325c-75 0 -153 -33 -180 -150l-219 30c48 225 180 303 405 303c240 0 369 -117 393 -294l-219 -30c-6 78 -72 141 -180 141zM336 606c113 20 207 24 340 24c-5 131 -77 188 -165 188c-102 0 -169 -96 -175 -212zM509 1021c319 0 428 -208 428 -544
c0 -20 -1 -43 -1 -43c-285 -4 -498 -18 -600 -38c16 -111 104 -200 196 -200c106 0 154 36 222 110l178 -156c-101 -112 -167 -160 -406 -160c-286 0 -448 213 -448 526c0 286 148 505 431 505z" />
    <glyph glyph-name="uni020A" unicode="&#x20a;" 
d="M501 1540c-75 0 -153 -33 -180 -150l-219 30c48 225 180 303 405 303c240 0 369 -117 393 -294l-219 -30c-6 78 -72 141 -180 141zM132 1324c156 4 257 5 353 5c105 0 205 -1 368 -3l-1 -211c-123 0 -135 5 -230 5v-901c46 0 31 1 82 1c45 0 92 -1 144 -4l1 -217
c-85 5 -147 6 -210 6c-47 0 -96 -1 -155 -1c-74 0 -195 -7 -350 -7v216c85 4 123 5 180 5h52v901c-66 -1 -122 -1 -228 -7z" />
    <glyph glyph-name="uni020B" unicode="&#x20b;" 
d="M497 1325c-75 0 -153 -33 -180 -150l-219 30c48 225 180 303 405 303c240 0 369 -117 393 -294l-219 -30c-6 78 -72 141 -180 141zM354 1013h255c0 -273 1 -739 1 -739c0 -64 17 -92 109 -92c93 0 153 33 213 91l97 -190c-86 -71 -237 -101 -361 -101
c-85 0 -177 14 -221 38c-85 47 -93 127 -93 186v607c-49 0 -139 -6 -234 -28l-29 186c94 28 183 42 263 42z" />
    <glyph glyph-name="uni020E" unicode="&#x20e;" 
d="M525 1540c-75 0 -153 -33 -180 -150l-219 30c48 225 180 303 405 303c240 0 369 -117 393 -294l-219 -30c-6 78 -72 141 -180 141zM522 1350c161 0 452 -73 457 -703v-11c0 -167 -31 -324 -79 -419c-75 -147 -225 -233 -390 -233c-122 0 -271 41 -352 143
c-90 112 -122 268 -122 452c0 352 60 511 130 608c66 92 200 160 356 163zM351 277c47 -74 85 -90 159 -90c79 0 128 62 159 139c27 59 48 215 49 314v17c0 107 -9 256 -45 352c-40 106 -92 138 -152 138c-65 0 -103 -25 -143 -96c-47 -83 -81 -216 -81 -459
c0 -97 13 -250 54 -315z" />
    <glyph glyph-name="uni020F" unicode="&#x20f;" 
d="M520 1325c-75 0 -153 -33 -180 -150l-219 30c48 225 180 303 405 303c240 0 369 -117 393 -294l-219 -30c-6 78 -72 141 -180 141zM625 247c47 52 60 156 60 283v16c-2 157 -37 284 -165 284c-151 0 -196 -140 -196 -348c0 -166 63 -285 184 -285c55 1 81 14 117 50z
M507 -6c-310 0 -435 190 -435 470c0 371 141 568 433 568c197 0 307 -69 377 -201c41 -79 59 -192 59 -288c0 -285 -96 -549 -432 -549h-2z" />
    <glyph glyph-name="uni0212" unicode="&#x212;" 
d="M524 1540c-75 0 -153 -33 -180 -150l-219 30c48 225 180 303 405 303c240 0 369 -117 393 -294l-219 -30c-6 78 -72 141 -180 141zM699 552c78 -124 181 -275 237 -341c18 -16 66 -52 108 -63l-122 -192c-58 9 -118 59 -152 102c-97 109 -264 376 -320 472
c-36 3 -73 10 -117 28v-558h-243v1136c0 68 -1 116 -5 178c42 4 157 15 218 15c250 0 469 -8 591 -161c48 -60 74 -154 74 -240c0 -224 -125 -355 -269 -376zM706 906c0 170 -116 218 -310 218c-26 0 -34 0 -63 -1v-355c64 -27 123 -42 166 -42h8c170 0 199 78 199 180z" />
    <glyph glyph-name="uni0213" unicode="&#x213;" 
d="M548 1325c-75 0 -153 -33 -180 -150l-219 30c48 225 180 303 405 303c240 0 369 -117 393 -294l-219 -30c-6 78 -72 141 -180 141zM404 864c75 98 179 156 340 156c167 0 272 -102 272 -292v-30l-252 -2c1 11 2 27 2 44c0 37 -10 78 -66 78s-136 -73 -232 -258v-560h-252
v704c0 57 -48 99 -110 154l148 186c61 -49 116 -77 150 -180z" />
    <glyph glyph-name="uni0312" unicode="&#x312;" 
d="M287 1283c38 112 64 221 109 372l190 -33c-18 -142 -45 -283 -66 -386z" />
    <glyph glyph-name="uni0217" unicode="&#x217;" 
d="M506 1325c-75 0 -153 -33 -180 -150l-219 30c48 225 180 303 405 303c240 0 369 -117 393 -294l-219 -30c-6 78 -72 141 -180 141zM893 -17c-64 29 -106 75 -127 125c-75 -77 -190 -103 -340 -106h-9c-152 0 -338 51 -338 227c0 82 1 179 1 275c0 216 -3 431 -22 488
l254 28c22 -92 16 -356 18 -722c12 -67 31 -92 116 -92c152 7 221 85 221 212v595h251v-707c2 -52 67 -119 118 -140z" />
    <glyph glyph-name="uni0327" unicode="&#x327;" 
d="M672 56c-1 -8 -2 -72 -2 -75c97 -5 184 -62 184 -176c0 -130 -114 -203 -272 -203c-66 0 -158 18 -214 54l60 148c33 -18 77 -30 128 -30c36 0 71 12 74 50v2c0 29 -24 55 -72 55s-81 -2 -109 -12v188z" />
    <glyph glyph-name="uni0328" unicode="&#x328;" 
d="M821 107c-179 -225 -372 -212 -372 -314c0 -43 56 -57 120 -57c58 0 98 29 128 51l124 -141c-44 -48 -162 -106 -262 -106c-182 0 -360 56 -360 244c0 198 242 176 386 324z" />
    <glyph glyph-name="ogonek" unicode="&#x2db;" 
d="M821 107c-179 -225 -372 -212 -372 -314c0 -43 56 -57 120 -57c58 0 98 29 128 51l124 -141c-44 -48 -162 -106 -262 -106c-182 0 -360 56 -360 244c0 198 242 176 386 324z" />
    <glyph glyph-name="uni01E0" unicode="&#x1e0;" 
d="M775 1902v-194h-17c-58 -2 -156 -7 -230 -7s-167 1 -235 3l-18 1v197l19 -2c65 -2 180 -3 272 -3c61 0 147 5 192 5h17zM364 1645h284l2 -246h-285zM651 504c-26 143 -125 340 -126 494c-6 -168 -99 -373 -137 -512c60 13 180 13 263 18zM418 1325h224l334 -1081
c24 -81 50 -165 50 -244h-276c0 59 -10 114 -25 167l-32 114c-152 -3 -237 1 -357 -29l-30 -90c-20 -61 -37 -119 -40 -162h-260c4 61 28 143 54 223z" />
    <glyph glyph-name="uni01E1" unicode="&#x1e1;" 
d="M749 1708v-194h-17c-58 -2 -156 -7 -230 -7s-167 1 -235 3l-18 1v197l19 -2c65 -2 180 -3 272 -3c61 0 147 5 192 5h17zM344 1430h284l2 -246h-285zM318 317c0 -98 69 -128 133 -128c110 0 192 102 210 158v47c-36 42 -104 76 -168 76c-66 0 -175 -43 -175 -153zM917 316
c0 -92 19 -144 76 -189l-125 -149c-52 40 -86 51 -128 123c-76 -78 -158 -112 -340 -112c-171 0 -344 131 -344 313c0 90 30 177 89 238c95 97 206 130 348 130c64 0 130 -21 168 -47c0 166 -116 197 -176 197c-115 0 -209 -33 -283 -111l-122 208c174 110 235 108 413 111
c225 0 424 -135 424 -373v-339z" />
    <glyph glyph-name="uni01EA" unicode="&#x1ea;" 
d="M522 1350c161 0 452 -73 457 -703v-11c0 -167 -31 -324 -79 -419c-132 -278 -428 -368 -428 -470c0 -43 56 -57 120 -57c58 0 98 29 128 51l124 -141c-44 -48 -162 -106 -262 -106c-182 0 -360 56 -360 244c0 96 120 167 237 248c-110 10 -231 53 -301 141
c-90 112 -122 268 -122 452c0 352 60 511 130 608c66 92 200 160 356 163zM351 277c47 -74 85 -90 159 -90c79 0 128 62 159 139c27 59 48 215 49 314v17c0 107 -9 256 -45 352c-40 106 -92 138 -152 138c-65 0 -103 -25 -143 -96c-47 -83 -81 -216 -81 -459
c0 -97 13 -250 54 -315z" />
    <glyph glyph-name="uni01EB" unicode="&#x1eb;" 
d="M815 114c-199 -222 -387 -263 -387 -365c0 -43 56 -57 120 -57c58 0 98 29 128 51l124 -141c-44 -48 -162 -106 -262 -106c-182 0 -360 56 -360 244c0 129 106 168 238 260c-244 34 -344 213 -344 464c0 371 141 568 433 568c197 0 307 -69 377 -201
c41 -79 59 -192 59 -288c0 -166 -33 -325 -126 -429zM625 247c47 52 60 156 60 283v16c-2 157 -37 284 -165 284c-151 0 -196 -140 -196 -348c0 -166 63 -285 184 -285c55 1 81 14 117 50z" />
    <glyph glyph-name="uni01EC" unicode="&#x1ec;" 
d="M772 1673v-194h-17c-58 -2 -156 -7 -230 -7s-167 1 -235 3l-18 1v197l19 -2c65 -2 180 -3 272 -3c61 0 147 5 192 5h17zM522 1350c161 0 452 -73 457 -703v-11c0 -167 -31 -324 -79 -419c-132 -278 -428 -368 -428 -470c0 -43 56 -57 120 -57c58 0 98 29 128 51l124 -141
c-44 -48 -162 -106 -262 -106c-182 0 -360 56 -360 244c0 96 120 167 237 248c-110 10 -231 53 -301 141c-90 112 -122 268 -122 452c0 352 60 511 130 608c66 92 200 160 356 163zM351 277c47 -74 85 -90 159 -90c79 0 128 62 159 139c27 59 48 215 49 314v17
c0 107 -9 256 -45 352c-40 106 -92 138 -152 138c-65 0 -103 -25 -143 -96c-47 -83 -81 -216 -81 -459c0 -97 13 -250 54 -315z" />
    <glyph glyph-name="uni01ED" unicode="&#x1ed;" 
d="M755 1355v-194h-17c-58 -2 -156 -7 -230 -7s-167 1 -235 3l-18 1v197l19 -2c65 -2 180 -3 272 -3c61 0 147 5 192 5h17zM815 114c-199 -222 -387 -263 -387 -365c0 -43 56 -57 120 -57c58 0 98 29 128 51l124 -141c-44 -48 -162 -106 -262 -106c-182 0 -360 56 -360 244
c0 129 106 168 238 260c-244 34 -344 213 -344 464c0 371 141 568 433 568c197 0 307 -69 377 -201c41 -79 59 -192 59 -288c0 -166 -33 -325 -126 -429zM625 247c47 52 60 156 60 283v16c-2 157 -37 284 -165 284c-151 0 -196 -140 -196 -348c0 -166 63 -285 184 -285
c55 1 81 14 117 50z" />
    <glyph glyph-name="uni0326" unicode="&#x326;" 
d="M390 4h270v-215c0 -151 -30 -215 -156 -317l-134 125c53 42 76 75 76 186h-56v221z" />
    <glyph glyph-name="uni0216" unicode="&#x216;" 
d="M512 1541c-75 0 -153 -33 -180 -150l-219 30c48 225 180 303 405 303c240 0 369 -117 393 -294l-219 -30c-6 78 -72 141 -180 141zM701 1350l253 -28c-7 -50 -8 -85 -8 -127v-29c0 -148 3 -278 3 -391v-59c0 -237 -5 -463 -117 -595c-82 -97 -211 -126 -340 -131
c-308 0 -406 169 -424 466c-5 77 -7 201 -7 339c0 175 3 373 9 534h258c-4 -168 -8 -397 -8 -586v-141c0 -64 1 -117 6 -154c14 -94 24 -244 164 -248c200 9 203 231 203 518c0 126 -5 275 -5 448c0 72 3 121 13 184z" />
    <glyph glyph-name="onedotenleader" unicode="&#x2024;" 
d="M344 313h315v-313h-315v313z" />
    <glyph glyph-name="twodotenleader" unicode="&#x2025;" 
d="M616 313h315v-313h-315v313zM136 313h315v-313h-315v313z" />
    <glyph glyph-name="ellipsis" unicode="&#x2026;" 
d="M764.777 313h280.001v-313h-280.001v313zM-35.2217 313h280v-313h-280v313zM364.777 313h280.001v-313h-280.001v313z" />
    </font>
</defs>
</svg>
