<?xml version="1.0" standalone="no"?>
<!DOCTYPE svg PUBLIC "-//W3C//DTD SVG 1.1//EN" "http://www.w3.org/Graphics/SVG/1.1/DTD/svg11.dtd" >
<!--
2013-9-13: Created.
-->
<svg xmlns="http://www.w3.org/2000/svg" xmlns:xlink="http://www.w3.org/1999/xlink" version="1.1">
<metadata>
Created by FontForge 20170921 at Sun Jan  7 19:01:04 2018
 By Jany Belluz
Created by Jany Belluz with FontForge 2.0 (http://fontforge.sf.net)
</metadata>
<defs>
<font id="FantasqueSansMono-BoldItalic" horiz-adv-x="1060" >
  <font-face 
    font-family="Fantasque Sans Mono"
    font-weight="700"
    font-style="italic"
    font-stretch="normal"
    units-per-em="2048"
    panose-1="2 11 8 9 2 2 4 3 2 4"
    ascent="1650"
    descent="-398"
    x-height="1013"
    cap-height="1319"
    bbox="-138 -581 1686.86 2148"
    underline-thickness="96"
    underline-position="-192"
    slope="-11"
    unicode-range="U+0020-FF63"
  />
    <missing-glyph />
    <glyph glyph-name="a" unicode="a" 
d="M343 513c-18 -90 -25 -155 -25 -202c0 -121 49 -122 95 -122c110 0 228 186 257 242c19 99 39 199 58 298c-28 42 -87 90 -151 90c-66 0 -181 -40 -234 -306zM891 316c-3 -17 -5 -33 -5 -49c0 -71 31 -129 70 -166c-53 -44 -105 -88 -158 -132c-41 37 -98 103 -98 196
c0 7 0 13 1 20c-81 -136 -196 -196 -378 -196c-135 0 -254 62 -254 313c0 66 9 146 27 241c76 394 334 485 480 485c81 0 164 -31 202 -87c7 28 13 56 20 84l230 -12c-46 -232 -91 -465 -137 -697z" />
    <glyph glyph-name="b" unicode="b" 
d="M706 478c17 85 24 151 24 200c0 102 -31 135 -67 135c-138 0 -219 -123 -270 -243c-14 -74 -29 -147 -43 -221c31 -102 88 -176 149 -176c108 0 170 115 207 305zM957 459c-60 -307 -208 -466 -459 -466c-124 0 -194 47 -222 100c-8 -42 -65 -106 -65 -106
c-64 7 -128 13 -192 20c23 66 47 154 65 236c2 8 3 16 5 24c55 247 118 610 172 890c18 94 27 178 33 246l249 9c-5 -73 -34 -243 -52 -334c-17 -90 -59 -175 -92 -252c48 57 135 187 345 187c145 0 237 -110 237 -334c0 -64 -8 -137 -24 -220z" />
    <glyph glyph-name="c" unicode="c" 
d="M355 528c-10 -49 -14 -91 -14 -126c0 -194 125 -199 165 -199h12c100 0 167 66 231 147c67 -45 133 -89 200 -134c-97 -150 -243 -223 -461 -223c-104 0 -226 8 -308 80c-73 67 -103 157 -103 269c0 56 8 118 21 185c66 340 274 491 589 491c182 0 298 -58 382 -142
c-57 -67 -115 -133 -172 -200c-20 44 -129 131 -269 131c-147 0 -244 -136 -273 -279z" />
    <glyph glyph-name="d" unicode="d" 
d="M318 478c-15 -77 -22 -141 -22 -191c0 -73 37 -114 67 -114c90 0 216 87 304 297l42 213c-22 55 -54 133 -141 133c-54 0 -199 -75 -250 -338zM59 459c74 381 251 557 514 557c114 0 176 -58 208 -86c-1 14 -1 27 -1 40c0 58 6 108 20 182c18 91 41 187 64 260l246 -9
c-20 -68 -44 -152 -62 -246c-54 -280 -120 -643 -175 -890c-2 -8 -3 -16 -5 -24c-8 -34 -10 -71 -10 -107c0 -51 7 -99 21 -130c-72 -5 -143 -11 -215 -16c-14 15 -32 105 -32 158c0 10 1 19 2 26c-62 -125 -182 -181 -306 -181c-150 0 -284 110 -284 322c0 44 5 92 15 144z
" />
    <glyph glyph-name="e" unicode="e" 
d="M363 542c134 16 295 58 324 82c24 20 51 54 51 87c0 51 -35 107 -143 107c-98 0 -199 -104 -232 -276zM632 1021c281 0 359 -169 359 -304c0 -35 -7 -78 -16 -102c-62 -165 -235 -236 -632 -283c0 -64 57 -136 152 -136c106 0 220 27 318 99l102 -180
c-170 -90 -227 -125 -466 -125c-238 0 -361 147 -361 376c0 47 5 97 15 150c55 286 246 505 529 505z" />
    <glyph glyph-name="f" unicode="f" 
d="M1041 1154c-72 57 -182 63 -238 63c-132 0 -157 -74 -169 -134c-5 -27 -13 -71 -13 -71h172c105 0 144 -12 172 -21c-20 -66 -40 -131 -60 -197c-20 7 -39 13 -95 13h-230l-156 -807h-257c52 269 105 538 157 807h-126c7 68 15 137 22 205h144c3 16 6 33 10 52
c26 130 135 354 451 354c86 0 234 -21 326 -65c-37 -66 -73 -133 -110 -199z" />
    <glyph glyph-name="g" unicode="g" 
d="M279 346c0 -112 35 -135 80 -135c98 0 359 293 389 390c6 38 13 75 19 113c-30 38 -100 113 -204 113c-150 0 -284 -174 -284 -481zM1075 1013l-129 -657c-76 -385 -216 -758 -612 -758c-115 0 -256 42 -429 145c33 67 66 135 99 202c145 -101 258 -130 347 -130
c212 0 293 295 331 418c-58 -84 -169 -241 -381 -241c-155 0 -255 148 -255 351c0 389 225 691 538 691c126 0 193 -53 241 -86c4 19 14 55 20 77c77 -4 153 -8 230 -12z" />
    <glyph glyph-name="p" unicode="p" 
d="M709 531c15 78 23 138 23 183c0 66 -17 97 -55 97c-129 0 -267 -207 -320 -327c-11 -58 -21 -115 -32 -173c27 -58 70 -118 145 -118c115 0 187 71 239 338zM163 739c2 9 3 17 5 26c16 83 20 166 23 231c78 9 155 17 233 26c0 -2 1 -7 1 -11c0 -39 -14 -143 -18 -178
c48 83 177 180 345 180c174 0 238 -107 238 -273c0 -57 -8 -121 -21 -189c-65 -336 -182 -559 -544 -559c-100 0 -139 37 -162 68c-4 -40 -4 -77 -10 -121c-6 -30 -12 -61 -18 -91c-18 -94 -28 -178 -34 -246c-83 -2 -166 -5 -249 -7c5 73 19 168 37 259z" />
    <glyph glyph-name="h" unicode="h" 
d="M977 566c-20 -103 -40 -207 -60 -310c-5 -26 -8 -48 -8 -66c0 -38 12 -62 41 -93l-213 -129c-38 27 -86 80 -86 163c0 14 1 29 4 45c20 105 41 210 61 315c18 95 25 160 25 205c0 98 -33 100 -58 100h-3c-105 0 -288 -225 -341 -378c-27 -139 -54 -279 -81 -418h-245
c75 385 151 770 225 1156c18 94 26 178 32 246c83 3 167 6 250 9c-5 -73 -41 -278 -59 -369c-17 -90 -81 -199 -114 -276c42 28 171 247 393 247c132 0 252 -87 252 -302c0 -43 -4 -91 -15 -145z" />
    <glyph glyph-name="i" unicode="i" 
d="M527 1406h291l-43 -225h-291zM481 1039c83 -9 167 -17 250 -26c-53 -273 -133 -687 -133 -687c-3 -17 -5 -34 -5 -51c0 -49 18 -93 86 -93c93 0 160 33 231 91c20 -63 40 -127 60 -190c-100 -71 -256 -101 -380 -101c-192 0 -269 79 -269 203c0 23 3 47 8 73
c31 160 62 319 93 479c0 0 -34 -34 -134 -82c-37 61 -74 123 -111 184c124 40 249 98 304 200z" />
    <glyph glyph-name="j" unicode="j" 
d="M744 1406h291l-43 -225h-291zM752 -78c-30 -153 -142 -311 -428 -311c-123 0 -273 28 -359 233c64 49 128 99 192 148c58 -145 120 -180 183 -180h18c120 0 137 105 146 140c51 254 102 507 153 761c2 11 3 23 3 33c0 53 -29 88 -85 88c-50 0 -120 -28 -210 -97l-120 135
c153 120 243 141 396 141c225 0 273 -154 273 -238c0 -12 -1 -24 -3 -32c-53 -274 -106 -547 -159 -821z" />
    <glyph glyph-name="k" unicode="k" 
d="M560 1293c-19 -96 -59 -301 -102 -523c-12 -63 -34 -129 -58 -196c159 202 333 359 501 479l167 -155c-161 -124 -324 -267 -464 -432c90 -128 194 -215 340 -252l-53 -241c-183 47 -335 180 -443 326c-68 -87 -108 -175 -140 -299h-247h-2c80 409 159 819 239 1228
c7 37 10 71 10 101c0 20 -1 38 -3 54c84 15 168 29 252 44c3 -15 9 -39 9 -73c0 -18 -2 -38 -6 -61z" />
    <glyph glyph-name="l" unicode="l" 
d="M648 1422l-189 -987c-5 -30 -8 -57 -8 -81c0 -107 54 -157 173 -157c93 0 196 35 275 87c24 -67 47 -134 71 -201c-100 -71 -248 -101 -372 -101c-260 0 -412 131 -412 306c0 29 3 59 9 91c66 354 131 709 197 1063c85 -7 171 -13 256 -20z" />
    <glyph glyph-name="m" unicode="m" 
d="M871 -32c-60 12 -173 44 -173 191c0 21 2 44 7 69c0 1 1 1 1 2c34 176 69 353 103 529c2 10 2 19 2 26c0 21 -8 28 -30 28s-104 -157 -129 -213c-40 -200 -79 -400 -119 -600c-75 0 -150 1 -225 1c49 253 99 507 148 760c3 13 4 24 4 32c0 14 -5 20 -22 20
c-24 0 -108 -98 -151 -204c-39 -203 -79 -406 -118 -609h-224c51 267 103 535 154 802c8 42 11 72 11 97c0 30 -4 52 -8 79l231 66c3 -11 4 -24 4 -40c0 -31 -4 -68 -4 -93c36 38 113 109 202 109c101 0 128 -86 128 -155c0 -6 -1 -13 -1 -19c58 82 138 174 229 174h8
c96 0 136 -83 136 -187c0 -30 -4 -62 -10 -94c-33 -171 -67 -342 -100 -513c-1 -5 -1 -10 -1 -15c0 -42 38 -67 72 -81c-42 -54 -83 -108 -125 -162z" />
    <glyph glyph-name="o" unicode="o" 
d="M598 247c57 52 92 156 115 283c1 6 2 10 3 16c8 45 13 87 13 125c0 94 -31 159 -123 159c-151 0 -223 -140 -263 -348c-7 -37 -11 -72 -11 -103c0 -110 45 -182 139 -182c55 1 84 14 127 50zM431 -6c-254 0 -359 127 -359 327c0 44 5 92 15 143c72 371 252 568 544 568
c197 0 294 -69 338 -201c13 -39 18 -86 18 -136c0 -51 -5 -103 -15 -152c-57 -285 -203 -549 -539 -549h-2z" />
    <glyph glyph-name="n" unicode="n" 
d="M423 821c99 114 181 205 383 205c124 0 218 -50 218 -173c0 -17 -2 -37 -6 -57c-34 -173 -67 -345 -101 -518c-2 -8 -2 -14 -2 -21c0 -50 41 -70 85 -97c-52 -67 -103 -133 -155 -200c-80 27 -195 89 -195 216c0 14 2 30 5 46l93 477c5 25 8 47 8 65c0 35 -11 55 -40 55
c-106 0 -267 -197 -341 -315l-99 -504h-251c46 235 91 471 137 706c23 118 30 170 30 218c0 25 -2 48 -4 80c80 16 161 32 241 48c1 -5 2 -18 2 -35c0 -56 -6 -158 -8 -196z" />
    <glyph glyph-name="q" unicode="q" 
d="M356 531c-18 -90 -25 -158 -25 -209c0 -99 28 -131 59 -131c105 0 235 159 305 325c10 47 19 93 29 140c-28 88 -58 155 -187 155c-88 0 -143 -87 -181 -280zM985 739c-51 -264 -102 -529 -153 -793c-8 -42 -12 -77 -12 -106c0 -75 23 -113 39 -151c4 -9 8 -16 11 -21
c-71 -40 -141 -81 -212 -121c-47 69 -86 153 -86 274c0 40 4 85 14 134c12 44 29 133 41 173c-35 -31 -152 -138 -271 -138c-204 0 -279 120 -279 317c0 72 10 154 27 244c51 268 181 460 456 460c112 0 190 -28 234 -90c12 39 25 77 39 101c74 -9 149 -17 223 -26
c-23 -65 -50 -148 -66 -231c-2 -9 -3 -17 -5 -26z" />
    <glyph glyph-name="r" unicode="r" 
d="M514 750c78 120 192 270 353 270c141 0 224 -73 224 -210c0 -25 0 -62 -6 -91l-6 -30c-84 -1 -169 -1 -253 -2c3 13 15 51 15 81c0 22 -6 40 -27 40c-56 0 -277 -288 -367 -532l-57 -294h-252c47 241 93 481 140 722c1 6 2 13 2 19c0 48 -37 86 -82 135
c61 62 123 124 184 186c51 -49 132 -92 132 -294z" />
    <glyph glyph-name="s" unicode="s" 
d="M311 549c-60 33 -98 92 -98 173c0 18 2 38 6 59c36 186 238 248 413 248c139 0 256 -16 394 -82c-39 -63 -79 -127 -118 -190c-80 52 -216 72 -312 72c-82 0 -118 -22 -126 -61c-2 -9 -3 -16 -3 -23c0 -17 6 -31 24 -44c213 -94 426 -132 426 -346c0 -24 -3 -49 -8 -77
c-30 -162 -193 -250 -305 -278c-59 -13 -120 -20 -177 -20c-224 0 -352 104 -352 274c0 24 3 49 8 76h253c-4 -18 -5 -34 -5 -49c0 -71 43 -99 133 -99c59 0 178 20 193 108c2 13 4 25 4 36c0 38 -16 63 -49 89c-60 44 -217 89 -301 134z" />
    <glyph glyph-name="t" unicode="t" 
d="M443 1244zM977 145c-65 -34 -226 -151 -433 -151c-272 0 -367 153 -367 333c0 38 4 78 12 117l9 42c19 90 33 155 70 319h-14c-28 0 -56 -4 -84 -12c8 68 15 136 23 204c26 8 71 12 104 12h15c14 70 34 171 48 241c83 -2 167 -4 250 -6c-13 -66 -33 -163 -47 -231
c109 0 420 -4 428 -4c-14 -68 -29 -136 -43 -204c-137 0 -294 2 -427 2c-38 -166 -49 -225 -72 -325c-3 -13 -5 -27 -8 -40c-7 -35 -10 -66 -10 -93c0 -106 51 -153 150 -153c158 0 238 104 266 139c3 0 130 -190 130 -190z" />
    <glyph glyph-name="u" unicode="u" 
d="M815 -17c-58 29 -103 68 -135 250c-78 -110 -178 -228 -329 -231h-9c-136 0 -296 18 -296 185c0 19 2 41 7 64c17 82 31 157 50 253c38 197 74 393 74 469c0 7 0 14 -1 19c86 9 173 19 259 28v-10c0 -100 -55 -358 -122 -712v-3c0 -65 7 -80 52 -80
c124 0 338 355 363 482c20 105 41 211 61 316h251c-46 -236 -92 -471 -138 -707c-1 -4 -1 -7 -1 -11c0 -50 48 -109 92 -129c-59 -61 -119 -122 -178 -183z" />
    <glyph glyph-name="v" unicode="v" 
d="M350 1076c115 -283 144 -568 162 -825c152 143 211 359 261 565c5 19 9 44 14 69c9 46 17 94 22 128h251c0 -16 -20 -133 -31 -191c-61 -317 -223 -610 -433 -756c-82 -57 -123 -74 -331 -74c9 44 12 96 12 152c0 272 -89 650 -164 802c79 43 158 87 237 130z" />
    <glyph glyph-name="w" unicode="w" 
d="M133 984c88 24 175 48 263 72c8 -53 11 -104 11 -154c0 -148 -18 -293 -52 -414c-27 -95 -88 -232 -108 -269c121 87 212 220 235 285c33 93 49 197 55 332h197c0 0 -26 -166 -58 -331c-19 -95 -39 -185 -54 -298c62 29 152 231 203 397c48 156 57 238 57 299
c0 42 -6 80 -11 110h246c2 -24 3 -48 3 -72c0 -124 -20 -245 -72 -400c-69 -206 -216 -421 -399 -568l-189 48c0 0 3 120 14 207c-49 -74 -76 -102 -257 -252c-65 22 -130 43 -195 65c79 169 128 435 128 663c0 156 -8 248 -17 280z" />
    <glyph glyph-name="x" unicode="x" 
d="M1022 839c-56 -88 -234 -249 -341 -335c73 -125 162 -283 199 -283c18 0 14 3 31 6c3 -76 5 -151 8 -227c-19 -3 -43 -6 -61 -6c-42 0 -102 20 -137 48c-63 47 -143 179 -206 297l-414 -381c-49 58 -98 117 -147 175c150 135 299 269 449 404c-81 126 -161 251 -242 377
c67 44 134 87 201 131c72 -119 145 -237 217 -356c73 68 108 87 202 210c27 35 49 97 56 114h259c-16 -49 -40 -120 -74 -174z" />
    <glyph glyph-name="y" unicode="y" 
d="M54 -32c6 -7 79 -142 153 -142c85 0 144 38 244 211c-76 644 -143 714 -259 714c-20 0 -35 0 -45 -1c2 88 4 175 6 263h101c192 0 305 -222 355 -777c148 364 187 506 229 777h256c0 -40 -20 -123 -36 -174c-107 -351 -200 -560 -425 -893c-180 -266 -284 -322 -430 -322
c-180 0 -250 85 -341 176z" />
    <glyph glyph-name="z" unicode="z" 
d="M176 815c24 67 47 135 71 202c45 -5 507 -6 631 -6c60 0 86 2 134 27c37 -53 75 -105 112 -158c-39 -33 -562 -491 -730 -638c94 0 202 -48 310 -48c69 0 87 83 87 99c78 -14 155 -27 233 -41c-22 -106 -36 -266 -296 -266c-159 0 -286 69 -408 69
c-55 0 -110 -13 -165 -51c-20 -15 -39 -31 -59 -46c-14 10 -171 122 -171 122c165 192 569 540 777 726c-68 -1 -122 -3 -223 -3c-125 0 -248 3 -303 12z" />
    <glyph glyph-name="A" unicode="A" 
d="M674 504v7c0 114 -38 262 -38 394c0 32 2 63 8 93c-39 -168 -172 -373 -237 -512c63 13 183 13 267 18zM601 1325h224c49 -442 104 -877 147 -1325h-276c-8 94 -15 188 -23 281c-153 -3 -237 1 -363 -29l-48 -90c-32 -61 -60 -119 -71 -162h-260c16 61 55 143 97 223
c191 367 382 735 573 1102z" />
    <glyph glyph-name="B" unicode="B" 
d="M154 837c34 177 63 341 79 471c82 6 227 17 340 17h18c195 0 328 -71 328 -237c0 -23 -3 -47 -8 -74c-27 -144 -89 -190 -172 -231c133 -39 243 -122 243 -288c0 -27 -3 -56 -9 -87c-59 -302 -250 -384 -421 -405c-40 -5 -82 -8 -121 -8c-74 0 -131 5 -216 5h-38h-194
c38 198 89 413 171 837zM653 1012c3 12 3 22 3 31c0 77 -70 80 -91 80h-4h-16c-39 0 -56 -2 -87 -5c-4 -35 -11 -73 -19 -114c-10 -54 -23 -112 -34 -170h38c73 0 177 12 208 170c1 3 1 5 2 8zM528 638c-49 0 -46 -2 -119 -2h-44c-49 -242 -74 -360 -90 -438
c48 -3 87 -6 125 -6c30 0 60 2 96 6c33 4 188 40 222 222c4 22 6 42 6 60c0 123 -91 158 -196 158z" />
    <glyph glyph-name="C" unicode="C" 
d="M710 1128c-115 0 -275 -136 -345 -500c-11 -58 -16 -110 -16 -157c0 -176 70 -273 154 -273h14c124 0 175 64 248 194c73 -46 147 -91 220 -137c-105 -158 -296 -258 -486 -258h-3c-111 0 -237 25 -313 119c-66 86 -99 192 -99 323c0 60 7 125 21 197
c50 259 162 418 229 496c93 108 247 200 422 200c140 0 301 -63 358 -225c-85 -42 -171 -83 -256 -125c-26 124 -62 146 -148 146z" />
    <glyph glyph-name="D" unicode="D" 
d="M547 1127h-30c-16 0 -28 0 -46 -3c-4 -26 -9 -56 -15 -87c-12 -63 -18 -84 -31 -153c-58 -306 -118 -588 -138 -686c87 -3 39 -3 99 -3h3c40 0 184 2 280 158c28 45 53 136 64 191c17 86 24 163 24 231c0 231 -89 352 -210 352zM20 128c11 55 94 452 156 773
c5 25 10 51 15 76c25 129 45 252 53 340c83 8 129 14 228 14c295 0 403 -71 498 -265c37 -80 56 -181 56 -290c0 -63 -6 -130 -19 -196c-65 -331 -279 -561 -524 -583c-56 -5 -107 -7 -162 -7c-84 0 -216 7 -330 7c7 34 7 33 29 131z" />
    <glyph glyph-name="E" unicode="E" 
d="M283 1319c57 4 127 4 205 4h98h110c149 0 285 -3 359 -3h16c-13 -67 -27 -135 -40 -202h-529c-17 -90 -35 -179 -52 -269h338c-13 -68 -26 -135 -39 -203h-338c-2 -10 -4 -21 -6 -31c-40 -207 -67 -332 -82 -411c139 1 277 1 416 2c56 0 130 27 130 27
c11 -66 23 -133 34 -199c-51 -13 -96 -34 -194 -34h-682c85 440 171 879 256 1319z" />
    <glyph glyph-name="F" unicode="F" 
d="M307 0c-88 1 -177 2 -265 3c85 440 171 881 256 1321h666c102 0 144 -17 175 -34c-29 -68 -57 -135 -86 -203c-23 14 -42 27 -140 28h-70c-104 0 -141 0 -324 -1l-51 -258c120 0 78 2 200 2c90 0 153 -15 190 -33c-23 -68 -46 -137 -69 -205c-34 17 -83 22 -128 22h-85
c-30 0 -85 0 -150 -2c-24 -123 -101 -545 -119 -640z" />
    <glyph glyph-name="G" unicode="G" 
d="M1064 758c-11 -57 -22 -115 -33 -172c-87 -444 -227 -536 -414 -583c-47 -10 -112 -11 -154 -11c-293 0 -414 191 -414 450c0 63 8 130 21 199c46 242 138 439 294 569c117 90 237 118 352 118h20c213 -5 344 -91 387 -257c-85 -39 -171 -77 -256 -116
c-13 118 -52 166 -184 166c-168 0 -299 -202 -355 -491c-13 -68 -20 -129 -20 -183c0 -156 57 -249 185 -249c172 0 232 176 270 370c-21 0 -43 -1 -64 -1c-71 0 -100 -3 -197 -37c-14 67 -27 134 -41 201c103 37 208 43 309 43c103 0 219 -10 294 -16z" />
    <glyph glyph-name="H" unicode="H" 
d="M499 1322l-105 -537c96 21 157 29 277 29h87c54 280 65 338 97 503h256c-85 -439 -171 -878 -256 -1317h-255c39 200 77 399 116 599h-32c-146 0 -209 -3 -332 -29c-68 -350 -73 -385 -109 -570h-258c86 440 171 880 257 1320c86 1 171 1 257 2z" />
    <glyph glyph-name="K" unicode="K" 
d="M638 742c97 -119 330 -550 354 -688c-78 -29 -156 -57 -234 -86c-24 111 -188 477 -293 606c0 0 -68 -62 -112 -134c-29 -148 -58 -297 -87 -445h-258c87 447 173 893 260 1340h258c-30 -155 -60 -309 -90 -464c131 145 518 468 562 505l162 -177
c-208 -135 -448 -383 -522 -457z" />
    <glyph glyph-name="L" unicode="L" 
d="M81 -3c86 443 173 885 259 1328h254c-73 -373 -145 -745 -218 -1118h428c60 3 71 6 118 21c11 -66 23 -131 34 -197c-50 -16 -116 -34 -191 -34h-684z" />
    <glyph glyph-name="M" unicode="M" 
d="M244 1323h204c54 -114 115 -303 141 -489c89 182 216 356 323 489h216c-77 -398 -255 -1323 -255 -1323h-247c38 199 76 397 114 596c20 104 84 302 84 302c-87 -123 -194 -310 -212 -347c-50 -1 -100 -1 -150 -2c0 0 -50 268 -82 349c0 0 -5 -189 -27 -302
c-39 -199 -77 -397 -116 -596h-250c86 441 171 882 257 1323z" />
    <glyph glyph-name="N" unicode="N" 
d="M616 0c-40 259 -117 626 -208 845c-17 -92 -35 -183 -52 -275c-57 -299 -81 -418 -111 -573h-246c86 443 173 885 259 1328c70 -2 139 -5 209 -7c89 -188 232 -662 253 -911c15 123 21 250 45 371c37 190 76 377 119 551c81 0 163 -1 244 -1c-28 -115 -60 -267 -92 -433
c-45 -231 -92 -490 -137 -725c-11 -58 -24 -116 -34 -170h-249z" />
    <glyph glyph-name="O" unicode="O" 
d="M709 1350c134 0 349 -51 349 -433c0 -76 -9 -165 -28 -270c-1 -4 -1 -7 -2 -11c-32 -167 -95 -324 -161 -419c-103 -147 -270 -233 -435 -233c-122 0 -263 41 -324 143c-40 66 -57 147 -57 240c0 65 8 136 23 212c69 352 159 511 248 608c84 92 230 160 387 163zM471 187
c137 0 260 276 296 453c1 6 3 11 4 17c14 69 29 168 29 258c0 123 -29 232 -131 232c-139 0 -277 -278 -332 -555c-13 -65 -23 -134 -23 -196c0 -116 36 -209 157 -209z" />
    <glyph glyph-name="P" unicode="P" 
d="M816 909c6 28 8 53 8 74c0 131 -96 134 -167 134h-9c-61 0 -106 -4 -151 -5c-5 -24 -9 -47 -14 -71c-36 -187 -78 -392 -78 -392c36 -1 71 -2 104 -2c116 0 260 30 307 262zM279 0h-250c86 440 171 880 257 1320c118 0 157 8 290 8c225 0 393 -13 481 -154
c25 -40 35 -90 35 -144c0 -34 -4 -70 -11 -106c-63 -324 -219 -485 -563 -485c-48 0 -99 1 -153 3c-52 -268 -55 -283 -86 -442z" />
    <glyph glyph-name="Q" unicode="Q" 
d="M779 -183c-115 0 -261 61 -262 191c-31 -8 -52 -11 -92 -11c-116 0 -215 43 -278 126c-49 66 -72 163 -72 281c0 72 8 152 25 238c41 211 108 406 227 531c117 122 223 158 346 158c167 0 270 -66 321 -210c25 -70 34 -140 34 -206c0 -83 -14 -159 -26 -222
c-42 -220 -131 -477 -284 -577v-16c0 -59 17 -66 91 -67h11c37 0 62 5 87 11c-14 -74 -28 -147 -42 -221c-23 -5 -41 -6 -86 -6zM516 536c115 0 160 -59 178 -132c20 40 35 135 67 279c2 8 2 15 4 23c13 59 23 122 23 185c0 37 -4 74 -14 110c-20 69 -68 114 -140 114
c-129 0 -227 -150 -278 -409c-4 -20 -9 -43 -13 -66c-7 -39 -22 -114 -22 -170c0 -16 1 -30 4 -42c52 67 119 108 191 108zM532 211c0 0 1 3 1 4c0 6 2 13 2 20c0 36 -17 84 -75 84c-32 0 -75 -11 -109 -49c5 -52 64 -72 102 -72h17c19 0 43 4 62 13z" />
    <glyph glyph-name="R" unicode="R" 
d="M708 548c54 -124 145 -275 188 -341c15 -16 56 -52 96 -63c-51 -63 -103 -125 -154 -188c-56 9 -106 59 -132 102c-76 109 -191 376 -228 472c-35 3 -71 10 -112 28l-108 -558h-243c74 379 147 757 221 1136c13 68 21 116 29 178c43 4 160 15 221 15
c250 0 468 -8 560 -161c24 -40 36 -95 36 -153c0 -29 -3 -58 -9 -87c-45 -224 -183 -350 -365 -380zM807 906c4 21 6 39 6 56c0 125 -103 162 -274 162c-26 0 -34 0 -63 -1c-23 -118 -46 -237 -69 -355c59 -27 115 -42 158 -42h8c170 0 214 78 234 180z" />
    <glyph glyph-name="S" unicode="S" 
d="M292 702c-81 41 -128 135 -128 235c0 23 3 46 8 69c48 219 226 322 481 322h9c240 0 383 -46 461 -136l-180 -192c-81 102 -246 118 -316 118c-50 0 -173 -36 -186 -104c-3 -14 -4 -27 -4 -38c0 -67 44 -87 90 -106c114 -48 183 -57 303 -118c82 -44 156 -125 156 -266
c0 -28 -3 -57 -9 -90c-56 -300 -293 -405 -533 -405h-19c-295 8 -402 146 -402 326c0 34 4 69 11 105c89 -1 177 -1 266 -2c-5 -26 -8 -50 -8 -71c0 -97 54 -149 179 -149c79 0 216 36 245 182c3 15 4 29 4 42c0 82 -53 128 -115 158c-106 51 -192 59 -313 120z" />
    <glyph glyph-name="T" unicode="T" 
d="M280 0c72 373 145 745 217 1118c-198 0 -240 -1 -316 -1c13 69 27 138 40 207c122 0 577 1 765 1c73 0 140 -9 163 -16c-33 -68 -66 -135 -99 -203c0 0 -50 12 -110 12h-183c-72 -373 -145 -745 -217 -1118h-260z" />
    <glyph glyph-name="U" unicode="U" 
d="M888 1350c83 -9 165 -19 248 -28c-17 -50 -24 -85 -33 -127c-2 -9 -3 -19 -5 -29c-29 -148 -51 -278 -73 -391c-4 -20 -8 -39 -12 -59c-46 -237 -94 -463 -232 -595c-101 -97 -236 -126 -366 -131c-255 0 -344 116 -344 325c0 43 4 90 11 141c10 77 32 201 59 339
c34 175 75 373 112 534h258c-37 -168 -85 -397 -122 -586c-10 -50 -19 -98 -27 -141c-12 -64 -22 -117 -24 -154c-1 -25 -3 -53 -3 -82c0 -81 16 -163 119 -166c202 9 249 231 304 518c24 126 48 275 82 448c14 72 26 121 48 184z" />
    <glyph glyph-name="V" unicode="V" 
d="M293 0c1 15 2 34 2 56c0 266 -74 1000 -120 1210c84 30 169 59 253 89c51 -257 60 -648 85 -1024c136 320 317 764 467 1017c71 -26 141 -53 212 -79c-144 -236 -540 -1065 -598 -1269h-301z" />
    <glyph glyph-name="W" unicode="W" 
d="M320 0h-241v22c0 215 109 1021 113 1268c81 10 161 19 242 29c-12 -193 -29 -269 -38 -333c-36 -246 -103 -574 -112 -670c0 0 236 600 256 672c21 0 52 -3 85 -3c39 0 82 4 114 19c-13 -218 -13 -685 -13 -685c44 139 91 407 152 643c17 65 38 170 112 359
c72 -13 145 -25 217 -38c-102 -256 -346 -1101 -414 -1283h-246c0 0 7 397 12 585c-92 -230 -232 -573 -239 -585z" />
    <glyph glyph-name="X" unicode="X" 
d="M985 1367c56 -39 113 -77 169 -116l-456 -594c118 -272 146 -424 261 -564c-63 -41 -126 -83 -189 -124c-123 150 -127 252 -231 499c-131 -174 -263 -348 -394 -522c-62 44 -123 88 -185 132l480 615c-80 208 -150 389 -259 548c68 45 137 90 205 135
c101 -149 151 -322 220 -497c126 163 253 325 379 488z" />
    <glyph glyph-name="Y" unicode="Y" 
d="M279 18c100 197 187 377 287 574c-57 113 -359 522 -389 630c72 47 145 93 217 140c25 -79 236 -400 296 -540c84 185 168 369 252 554l219 -96c-206 -427 -445 -919 -651 -1346c-63 21 -156 48 -231 84z" />
    <glyph glyph-name="Z" unicode="Z" 
d="M48 0c-15 49 -29 99 -44 148c272 324 545 647 817 971c-214 0 -476 -5 -590 -5l39 210c120 0 543 4 731 4c75 0 119 -13 137 -16c0 -2 0 -4 -1 -7c-10 -38 -10 -146 -19 -179c-1 -3 -2 -6 -2 -8c-254 -300 -508 -601 -762 -901c121 0 242 -1 363 -1c85 0 113 5 182 26
c10 -72 19 -143 29 -215c-48 -16 -119 -27 -194 -27h-679h-7z" />
    <glyph glyph-name="I" unicode="I" 
d="M314 1324c157 4 258 5 354 5c105 0 205 -1 368 -3c-14 -70 -28 -141 -42 -211c-123 0 -134 5 -229 5c-58 -300 -117 -601 -175 -901c46 0 31 1 82 1c45 0 92 -1 143 -4c-14 -72 -27 -145 -41 -217c-84 5 -146 6 -209 6c-47 0 -96 -1 -155 -1c-74 0 -197 -7 -352 -7
l42 216c86 4 124 5 181 5h52c59 300 117 601 176 901c-66 -1 -123 -1 -230 -7c12 71 23 141 35 212z" />
    <glyph glyph-name="J" unicode="J" 
d="M337 -8c-228 0 -316 153 -316 331c0 37 4 74 11 112c87 0 173 -1 260 -1c-5 -31 -7 -58 -7 -83c0 -98 35 -147 88 -147c198 0 288 571 323 902c-49 0 -161 2 -198 2c-105 -3 -93 -12 -121 -18c-14 71 -27 141 -41 212c31 7 39 19 158 22c145 0 338 -1 494 -1
c-129 -864 -225 -1331 -651 -1331z" />
    <glyph glyph-name="zero" unicode="0" 
d="M386 581c119 130 238 259 357 389c-12 100 -19 135 -90 135c-154 0 -225 -291 -259 -474c-4 -23 -8 -50 -8 -50zM731 726c-121 -131 -243 -263 -364 -394c8 -95 26 -141 94 -141c157 0 218 251 262 486c5 28 8 49 8 49zM695 1312c234 0 307 -172 307 -386
c0 -85 -12 -176 -29 -266c-62 -324 -203 -677 -539 -677c-249 0 -327 158 -327 370c0 82 11 171 29 263c65 335 202 696 559 696z" />
    <glyph glyph-name="period" unicode="." 
d="M330 313h315c-20 -104 -41 -209 -61 -313h-315c20 104 41 209 61 313z" />
    <glyph glyph-name="comma" unicode="," 
d="M317 309c109 1 218 1 327 2c-19 -100 -39 -200 -58 -300v-3c-38 -197 -158 -366 -340 -442c-21 60 -42 121 -63 181c102 51 165 121 192 259c-38 0 -75 -1 -113 -1c18 101 37 203 55 304z" />
    <glyph glyph-name="eacute" unicode="&#xe9;" 
d="M450 1328c152 48 316 151 452 259c34 -57 102 -125 136 -182c-133 -112 -377 -223 -529 -270c-19 58 -40 135 -59 193zM363 542c134 16 295 58 324 82c24 20 51 54 51 87c0 51 -35 107 -143 107c-98 0 -199 -104 -232 -276zM632 1021c281 0 359 -169 359 -304
c0 -35 -7 -78 -16 -102c-62 -165 -235 -236 -632 -283c0 -64 57 -136 152 -136c106 0 220 27 318 99l102 -180c-170 -90 -227 -125 -466 -125c-238 0 -361 147 -361 376c0 47 5 97 15 150c55 286 246 505 529 505z" />
    <glyph glyph-name="egrave" unicode="&#xe8;" 
d="M1000 1312l-102 -165c-134 47 -371 175 -460 287l145 163c94 -108 283 -237 417 -285zM363 542c134 16 295 58 324 82c24 20 51 54 51 87c0 51 -35 107 -143 107c-98 0 -199 -104 -232 -276zM632 1021c281 0 359 -169 359 -304c0 -35 -7 -78 -16 -102
c-62 -165 -235 -236 -632 -283c0 -64 57 -136 152 -136c106 0 220 27 318 99l102 -180c-170 -90 -227 -125 -466 -125c-238 0 -361 147 -361 376c0 47 5 97 15 150c55 286 246 505 529 505z" />
    <glyph glyph-name="ecircumflex" unicode="&#xea;" 
d="M728 1588l338 -292l-169 -156l-191 201l-268 -189l-128 156zM363 542c134 16 295 58 324 82c24 20 51 54 51 87c0 51 -35 107 -143 107c-98 0 -199 -104 -232 -276zM632 1021c281 0 359 -169 359 -304c0 -35 -7 -78 -16 -102c-62 -165 -235 -236 -632 -283
c0 -64 57 -136 152 -136c106 0 220 27 318 99l102 -180c-170 -90 -227 -125 -466 -125c-238 0 -361 147 -361 376c0 47 5 97 15 150c55 286 246 505 529 505z" />
    <glyph glyph-name="edieresis" unicode="&#xeb;" 
d="M805 1458l281 -3l-46 -238l-282 1zM385 1458h279l-47 -240h-279zM363 542c134 16 295 58 324 82c24 20 51 54 51 87c0 51 -35 107 -143 107c-98 0 -199 -104 -232 -276zM632 1021c281 0 359 -169 359 -304c0 -35 -7 -78 -16 -102c-62 -165 -235 -236 -632 -283
c0 -64 57 -136 152 -136c106 0 220 27 318 99l102 -180c-170 -90 -227 -125 -466 -125c-238 0 -361 147 -361 376c0 47 5 97 15 150c55 286 246 505 529 505z" />
    <glyph glyph-name="agrave" unicode="&#xe0;" 
d="M1022 1312l-102 -165c-134 47 -371 175 -460 287l145 163c94 -108 283 -237 417 -285zM343 513c-18 -90 -25 -155 -25 -202c0 -121 49 -122 95 -122c110 0 228 186 257 242c19 99 39 199 58 298c-28 42 -87 90 -151 90c-66 0 -181 -40 -234 -306zM891 316
c-3 -17 -5 -33 -5 -49c0 -71 31 -129 70 -166c-53 -44 -105 -88 -158 -132c-41 37 -98 103 -98 196c0 7 0 13 1 20c-81 -136 -196 -196 -378 -196c-135 0 -254 62 -254 313c0 66 9 146 27 241c76 394 334 485 480 485c81 0 164 -31 202 -87c7 28 13 56 20 84l230 -12
c-46 -232 -91 -465 -137 -697z" />
    <glyph glyph-name="aacute" unicode="&#xe1;" 
d="M472 1328c152 48 316 151 452 259c34 -57 102 -125 136 -182c-133 -112 -377 -223 -529 -270c-19 58 -40 135 -59 193zM343 513c-18 -90 -25 -155 -25 -202c0 -121 49 -122 95 -122c110 0 228 186 257 242c19 99 39 199 58 298c-28 42 -87 90 -151 90
c-66 0 -181 -40 -234 -306zM891 316c-3 -17 -5 -33 -5 -49c0 -71 31 -129 70 -166c-53 -44 -105 -88 -158 -132c-41 37 -98 103 -98 196c0 7 0 13 1 20c-81 -136 -196 -196 -378 -196c-135 0 -254 62 -254 313c0 66 9 146 27 241c76 394 334 485 480 485
c81 0 164 -31 202 -87c7 28 13 56 20 84l230 -12c-46 -232 -91 -465 -137 -697z" />
    <glyph glyph-name="acircumflex" unicode="&#xe2;" 
d="M750 1588l338 -292l-169 -156l-191 201l-268 -189l-128 156zM343 513c-18 -90 -25 -155 -25 -202c0 -121 49 -122 95 -122c110 0 228 186 257 242c19 99 39 199 58 298c-28 42 -87 90 -151 90c-66 0 -181 -40 -234 -306zM891 316c-3 -17 -5 -33 -5 -49
c0 -71 31 -129 70 -166c-53 -44 -105 -88 -158 -132c-41 37 -98 103 -98 196c0 7 0 13 1 20c-81 -136 -196 -196 -378 -196c-135 0 -254 62 -254 313c0 66 9 146 27 241c76 394 334 485 480 485c81 0 164 -31 202 -87c7 28 13 56 20 84l230 -12c-46 -232 -91 -465 -137 -697
z" />
    <glyph glyph-name="atilde" unicode="&#xe3;" 
d="M620 1486c136 0 184 -52 223 -91c23 -23 43 -41 76 -41c50 0 81 31 100 100l172 -54c-40 -96 -123 -224 -285 -224c-111 0 -167 64 -213 102c-26 22 -37 28 -81 28c-42 0 -78 -37 -99 -100l-178 78c51 93 144 202 285 202zM343 513c-18 -90 -25 -155 -25 -202
c0 -121 49 -122 95 -122c110 0 228 186 257 242c19 99 39 199 58 298c-28 42 -87 90 -151 90c-66 0 -181 -40 -234 -306zM891 316c-3 -17 -5 -33 -5 -49c0 -71 31 -129 70 -166c-53 -44 -105 -88 -158 -132c-41 37 -98 103 -98 196c0 7 0 13 1 20
c-81 -136 -196 -196 -378 -196c-135 0 -254 62 -254 313c0 66 9 146 27 241c76 394 334 485 480 485c81 0 164 -31 202 -87c7 28 13 56 20 84l230 -12c-46 -232 -91 -465 -137 -697z" />
    <glyph glyph-name="adieresis" unicode="&#xe4;" 
d="M827 1458l281 -3l-46 -238l-282 1zM407 1458h279l-47 -240h-279zM343 513c-18 -90 -25 -155 -25 -202c0 -121 49 -122 95 -122c110 0 228 186 257 242c19 99 39 199 58 298c-28 42 -87 90 -151 90c-66 0 -181 -40 -234 -306zM891 316c-3 -17 -5 -33 -5 -49
c0 -71 31 -129 70 -166c-53 -44 -105 -88 -158 -132c-41 37 -98 103 -98 196c0 7 0 13 1 20c-81 -136 -196 -196 -378 -196c-135 0 -254 62 -254 313c0 66 9 146 27 241c76 394 334 485 480 485c81 0 164 -31 202 -87c7 28 13 56 20 84l230 -12c-46 -232 -91 -465 -137 -697
z" />
    <glyph glyph-name="aring" unicode="&#xe5;" 
d="M757 1442c-53 0 -90 -32 -98 -62c-1 -3 -1 -5 -1 -8c0 -28 28 -55 75 -55c52 0 90 33 98 63c1 3 1 6 1 9c0 28 -27 53 -75 53zM470 1380c23 116 168 204 316 204c135 0 238 -73 238 -174c0 -10 -1 -20 -3 -30c-22 -115 -153 -195 -313 -195c-140 0 -241 68 -241 166
c0 9 1 19 3 29zM343 513c-18 -90 -25 -155 -25 -202c0 -121 49 -122 95 -122c110 0 228 186 257 242c19 99 39 199 58 298c-28 42 -87 90 -151 90c-66 0 -181 -40 -234 -306zM891 316c-3 -17 -5 -33 -5 -49c0 -71 31 -129 70 -166c-53 -44 -105 -88 -158 -132
c-41 37 -98 103 -98 196c0 7 0 13 1 20c-81 -136 -196 -196 -378 -196c-135 0 -254 62 -254 313c0 66 9 146 27 241c76 394 334 485 480 485c81 0 164 -31 202 -87c7 28 13 56 20 84l230 -12c-46 -232 -91 -465 -137 -697z" />
    <glyph glyph-name="ae" unicode="&#xe6;" 
d="M693 616c-1 -7 -3 -14 -4 -21c131 37 161 87 161 141c0 47 -20 72 -66 72c-40 0 -63 -31 -91 -192zM244 322c-6 -32 -9 -59 -9 -81c0 -53 16 -79 43 -79c90 0 113 137 129 165c9 49 19 98 28 147c-38 25 -43 34 -97 34c-33 0 -75 -85 -94 -186zM647 0
c-158 0 -181 75 -198 97c-37 -34 -108 -93 -211 -93c-63 0 -125 15 -172 53c-49 40 -67 99 -67 165c0 28 3 58 9 87c33 167 132 352 336 352c77 0 86 -16 121 -32c7 34 12 67 12 94c0 51 -19 85 -88 85h-9c-53 0 -75 -20 -121 -106c-61 27 -121 55 -182 82
c106 186 228 234 346 234c56 0 101 -3 153 -50c16 -16 31 -40 39 -59c22 26 97 109 199 109c140 0 230 -88 230 -268c0 -177 -102 -294 -398 -375l-22 -101c8 -42 14 -66 53 -66c75 0 95 36 110 82c59 -24 117 -48 176 -72c0 0 -91 -218 -316 -218z" />
    <glyph glyph-name="colon" unicode=":" 
d="M462.946 1012h315c-20 -104 -41 -209 -61 -313h-315c20 104 41 209 61 313zM327 315h315c-20 -104 -41 -209 -61 -313h-315c20 104 41 209 61 313z" />
    <glyph glyph-name="semicolon" unicode=";" 
d="M448.67 1012h315c-20 -104 -41 -209 -61 -313h-315c20 104 41 209 61 313zM309 309c109 1 218 1 327 2c-19 -100 -39 -200 -58 -300v-3c-38 -197 -158 -366 -340 -442c-21 60 -42 121 -63 181c102 51 165 121 192 259c-38 0 -75 -1 -113 -1c18 101 37 203 55 304z" />
    <glyph glyph-name="exclam" unicode="!" 
d="M868 1341l-195 -910l-283 -2l163 912h315zM327 270h350l-52 -270h-350z" />
    <glyph glyph-name="space" unicode=" " 
 />
    <glyph glyph-name="quotesingle" unicode="'" 
d="M582 1464l279 -35c-55 -283 -99 -459 -172 -660l-218 52c31 85 76 223 76 333c0 29 -4 53 -11 76z" />
    <glyph glyph-name="Agrave" unicode="&#xc0;" 
d="M1037 1527l-102 -165c-134 47 -371 175 -460 287l145 163c94 -108 283 -237 417 -285zM674 504v7c0 114 -38 262 -38 394c0 32 2 63 8 93c-39 -168 -172 -373 -237 -512c63 13 183 13 267 18zM601 1325h224c49 -442 104 -877 147 -1325h-276c-8 94 -15 188 -23 281
c-153 -3 -237 1 -363 -29l-48 -90c-32 -61 -60 -119 -71 -162h-260c16 61 55 143 97 223c191 367 382 735 573 1102z" />
    <glyph glyph-name="Aacute" unicode="&#xc1;" 
d="M487 1543c152 48 316 151 452 259c34 -57 102 -125 136 -182c-133 -112 -377 -223 -529 -270c-19 58 -40 135 -59 193zM674 504v7c0 114 -38 262 -38 394c0 32 2 63 8 93c-39 -168 -172 -373 -237 -512c63 13 183 13 267 18zM601 1325h224c49 -442 104 -877 147 -1325
h-276c-8 94 -15 188 -23 281c-153 -3 -237 1 -363 -29l-48 -90c-32 -61 -60 -119 -71 -162h-260c16 61 55 143 97 223c191 367 382 735 573 1102z" />
    <glyph glyph-name="Acircumflex" unicode="&#xc2;" 
d="M765 1803l338 -292l-169 -156l-191 201l-268 -189l-128 156zM674 504v7c0 114 -38 262 -38 394c0 32 2 63 8 93c-39 -168 -172 -373 -237 -512c63 13 183 13 267 18zM601 1325h224c49 -442 104 -877 147 -1325h-276c-8 94 -15 188 -23 281c-153 -3 -237 1 -363 -29
l-48 -90c-32 -61 -60 -119 -71 -162h-260c16 61 55 143 97 223c191 367 382 735 573 1102z" />
    <glyph glyph-name="Atilde" unicode="&#xc3;" 
d="M635 1701c136 0 184 -52 223 -91c23 -23 43 -41 76 -41c50 0 81 31 100 100l172 -54c-40 -96 -123 -224 -285 -224c-111 0 -167 64 -213 102c-26 22 -37 28 -81 28c-42 0 -78 -37 -99 -100l-178 78c51 93 144 202 285 202zM674 504v7c0 114 -38 262 -38 394
c0 32 2 63 8 93c-39 -168 -172 -373 -237 -512c63 13 183 13 267 18zM601 1325h224c49 -442 104 -877 147 -1325h-276c-8 94 -15 188 -23 281c-153 -3 -237 1 -363 -29l-48 -90c-32 -61 -60 -119 -71 -162h-260c16 61 55 143 97 223c191 367 382 735 573 1102z" />
    <glyph glyph-name="Adieresis" unicode="&#xc4;" 
d="M842 1673l281 -3l-46 -238l-282 1zM422 1673h279l-47 -240h-279zM674 504v7c0 114 -38 262 -38 394c0 32 2 63 8 93c-39 -168 -172 -373 -237 -512c63 13 183 13 267 18zM601 1325h224c49 -442 104 -877 147 -1325h-276c-8 94 -15 188 -23 281c-153 -3 -237 1 -363 -29
l-48 -90c-32 -61 -60 -119 -71 -162h-260c16 61 55 143 97 223c191 367 382 735 573 1102z" />
    <glyph glyph-name="Aring" unicode="&#xc5;" 
d="M772 1657c-53 0 -90 -32 -98 -62c-1 -3 -1 -5 -1 -8c0 -28 28 -55 75 -55c52 0 90 33 98 63c1 3 1 6 1 9c0 28 -27 53 -75 53zM485 1595c23 116 168 204 316 204c135 0 238 -73 238 -174c0 -10 -1 -20 -3 -30c-22 -115 -153 -195 -313 -195c-140 0 -241 68 -241 166
c0 9 1 19 3 29zM674 504v7c0 114 -38 262 -38 394c0 32 2 63 8 93c-39 -168 -172 -373 -237 -512c63 13 183 13 267 18zM601 1325h224c49 -442 104 -877 147 -1325h-276c-8 94 -15 188 -23 281c-153 -3 -237 1 -363 -29l-48 -90c-32 -61 -60 -119 -71 -162h-260
c16 61 55 143 97 223c191 367 382 735 573 1102z" />
    <glyph glyph-name="igrave" unicode="&#xec;" 
d="M952 1312l-102 -165c-134 47 -371 175 -460 287l145 163c94 -108 283 -237 417 -285zM481 1039c83 -9 167 -17 250 -26c-53 -273 -133 -687 -133 -687c-3 -17 -5 -34 -5 -51c0 -49 18 -93 86 -93c93 0 160 33 231 91c20 -63 40 -127 60 -190
c-100 -71 -256 -101 -380 -101c-192 0 -269 79 -269 203c0 23 3 47 8 73c31 160 62 319 93 479c0 0 -34 -34 -134 -82c-37 61 -74 123 -111 184c124 40 249 98 304 200z" />
    <glyph glyph-name="iacute" unicode="&#xed;" 
d="M402 1328c152 48 316 151 452 259c34 -57 102 -125 136 -182c-133 -112 -377 -223 -529 -270c-19 58 -40 135 -59 193zM481 1039c83 -9 167 -17 250 -26c-53 -273 -133 -687 -133 -687c-3 -17 -5 -34 -5 -51c0 -49 18 -93 86 -93c93 0 160 33 231 91
c20 -63 40 -127 60 -190c-100 -71 -256 -101 -380 -101c-192 0 -269 79 -269 203c0 23 3 47 8 73c31 160 62 319 93 479c0 0 -34 -34 -134 -82c-37 61 -74 123 -111 184c124 40 249 98 304 200z" />
    <glyph glyph-name="icircumflex" unicode="&#xee;" 
d="M680 1588l338 -292l-169 -156l-191 201l-268 -189l-128 156zM481 1039c83 -9 167 -17 250 -26c-53 -273 -133 -687 -133 -687c-3 -17 -5 -34 -5 -51c0 -49 18 -93 86 -93c93 0 160 33 231 91c20 -63 40 -127 60 -190c-100 -71 -256 -101 -380 -101
c-192 0 -269 79 -269 203c0 23 3 47 8 73c31 160 62 319 93 479c0 0 -34 -34 -134 -82c-37 61 -74 123 -111 184c124 40 249 98 304 200z" />
    <glyph glyph-name="idieresis" unicode="&#xef;" 
d="M757 1458l281 -3l-46 -238l-282 1zM337 1458h279l-47 -240h-279zM481 1039c83 -9 167 -17 250 -26c-53 -273 -133 -687 -133 -687c-3 -17 -5 -34 -5 -51c0 -49 18 -93 86 -93c93 0 160 33 231 91c20 -63 40 -127 60 -190c-100 -71 -256 -101 -380 -101
c-192 0 -269 79 -269 203c0 23 3 47 8 73c31 160 62 319 93 479c0 0 -34 -34 -134 -82c-37 61 -74 123 -111 184c124 40 249 98 304 200z" />
    <glyph glyph-name="ccedilla" unicode="&#xe7;" 
d="M355 528c-10 -49 -14 -91 -14 -126c0 -194 125 -199 165 -199h12c100 0 167 66 231 147c67 -45 133 -89 200 -134c-91 -141 -226 -214 -423 -222c-5 -22 -10 -49 -11 -51c85 -4 154 -49 154 -138c0 -12 -1 -25 -4 -38c-27 -129 -153 -203 -311 -203
c-66 0 -155 18 -204 54c30 49 59 99 89 148c30 -18 71 -30 122 -30c36 0 74 12 84 50v2c1 3 1 7 1 10c0 25 -20 45 -62 45c-48 0 -81 -2 -111 -12c11 60 23 119 34 179c-47 12 -91 31 -127 63c-73 67 -103 157 -103 269c0 56 8 118 21 185c66 340 274 491 589 491
c182 0 298 -58 382 -142c-57 -67 -115 -133 -172 -200c-20 44 -129 131 -269 131c-147 0 -244 -136 -273 -279z" />
    <glyph glyph-name="AE" unicode="&#xc6;" 
d="M939 32c-52 -25 -119 -37 -194 -37h-342c19 155 17 130 34 282c-18 2 -32 3 -46 3c-28 0 -91 -2 -127 -10c-53 -137 -52 -133 -105 -270l-225 45c170 386 342 849 520 1278c48 -1 97 -2 145 -3c43 2 97 2 157 2h125h260c-13 -69 -27 -137 -40 -206h-17
c-83 0 -71 -2 -194 -2h-142c-10 -89 -19 -179 -29 -268c51 1 41 4 126 4h106c-13 -69 -27 -139 -40 -208h-106c-82 0 -65 -3 -110 -4c-12 -145 -25 -290 -37 -435h157c61 0 104 25 104 25c7 -65 13 -131 20 -196zM462 489c13 122 42 386 55 508
c-47 -124 -146 -388 -193 -512c30 3 87 4 138 4z" />
    <glyph glyph-name="Ccedilla" unicode="&#xc7;" 
d="M710 1128c-115 0 -275 -136 -345 -500c-11 -58 -16 -110 -16 -157c0 -176 70 -273 154 -273h14c124 0 175 64 248 194c73 -46 147 -91 220 -137c-84 -127 -223 -217 -373 -247c-4 -15 -14 -69 -15 -72c84 -4 151 -49 151 -137c0 -12 -1 -25 -4 -39
c-26 -130 -152 -202 -310 -202c-66 0 -154 18 -203 54c29 49 59 98 88 147c30 -18 73 -29 124 -29c36 0 72 11 82 49v2c1 3 1 7 1 10c0 25 -20 46 -62 46c-48 0 -81 -3 -111 -13c12 61 23 121 35 182c-78 14 -153 46 -205 110c-66 86 -99 192 -99 323c0 60 7 125 21 197
c50 259 162 418 229 496c93 108 247 200 422 200c140 0 301 -63 358 -225c-85 -42 -171 -83 -256 -125c-26 124 -62 146 -148 146z" />
    <glyph glyph-name="Egrave" unicode="&#xc8;" 
d="M1043 1527l-102 -165c-134 47 -371 175 -460 287l145 163c94 -108 283 -237 417 -285zM283 1319c57 4 127 4 205 4h98h110c149 0 285 -3 359 -3h16c-13 -67 -27 -135 -40 -202h-529c-17 -90 -35 -179 -52 -269h338c-13 -68 -26 -135 -39 -203h-338c-2 -10 -4 -21 -6 -31
c-40 -207 -67 -332 -82 -411c139 1 277 1 416 2c56 0 130 27 130 27c11 -66 23 -133 34 -199c-51 -13 -96 -34 -194 -34h-682c85 440 171 879 256 1319z" />
    <glyph glyph-name="Eacute" unicode="&#xc9;" 
d="M493 1543c152 48 316 151 452 259c34 -57 102 -125 136 -182c-133 -112 -377 -223 -529 -270c-19 58 -40 135 -59 193zM283 1319c57 4 127 4 205 4h98h110c149 0 285 -3 359 -3h16c-13 -67 -27 -135 -40 -202h-529c-17 -90 -35 -179 -52 -269h338
c-13 -68 -26 -135 -39 -203h-338c-2 -10 -4 -21 -6 -31c-40 -207 -67 -332 -82 -411c139 1 277 1 416 2c56 0 130 27 130 27c11 -66 23 -133 34 -199c-51 -13 -96 -34 -194 -34h-682c85 440 171 879 256 1319z" />
    <glyph glyph-name="Ecircumflex" unicode="&#xca;" 
d="M771 1803l338 -292l-169 -156l-191 201l-268 -189l-128 156zM283 1319c57 4 127 4 205 4h98h110c149 0 285 -3 359 -3h16c-13 -67 -27 -135 -40 -202h-529c-17 -90 -35 -179 -52 -269h338c-13 -68 -26 -135 -39 -203h-338c-2 -10 -4 -21 -6 -31
c-40 -207 -67 -332 -82 -411c139 1 277 1 416 2c56 0 130 27 130 27c11 -66 23 -133 34 -199c-51 -13 -96 -34 -194 -34h-682c85 440 171 879 256 1319z" />
    <glyph glyph-name="Edieresis" unicode="&#xcb;" 
d="M848 1673l281 -3l-46 -238l-282 1zM428 1673h279l-47 -240h-279zM283 1319c57 4 127 4 205 4h98h110c149 0 285 -3 359 -3h16c-13 -67 -27 -135 -40 -202h-529c-17 -90 -35 -179 -52 -269h338c-13 -68 -26 -135 -39 -203h-338c-2 -10 -4 -21 -6 -31
c-40 -207 -67 -332 -82 -411c139 1 277 1 416 2c56 0 130 27 130 27c11 -66 23 -133 34 -199c-51 -13 -96 -34 -194 -34h-682c85 440 171 879 256 1319z" />
    <glyph glyph-name="Igrave" unicode="&#xcc;" 
d="M1004 1527l-102 -165c-134 47 -371 175 -460 287l145 163c94 -108 283 -237 417 -285zM314 1324c157 4 258 5 354 5c105 0 205 -1 368 -3c-14 -70 -28 -141 -42 -211c-123 0 -134 5 -229 5c-58 -300 -117 -601 -175 -901c46 0 31 1 82 1c45 0 92 -1 143 -4
c-14 -72 -27 -145 -41 -217c-84 5 -146 6 -209 6c-47 0 -96 -1 -155 -1c-74 0 -197 -7 -352 -7l42 216c86 4 124 5 181 5h52c59 300 117 601 176 901c-66 -1 -123 -1 -230 -7c12 71 23 141 35 212z" />
    <glyph glyph-name="Iacute" unicode="&#xcd;" 
d="M454 1543c152 48 316 151 452 259c34 -57 102 -125 136 -182c-133 -112 -377 -223 -529 -270c-19 58 -40 135 -59 193zM314 1324c157 4 258 5 354 5c105 0 205 -1 368 -3c-14 -70 -28 -141 -42 -211c-123 0 -134 5 -229 5c-58 -300 -117 -601 -175 -901c46 0 31 1 82 1
c45 0 92 -1 143 -4c-14 -72 -27 -145 -41 -217c-84 5 -146 6 -209 6c-47 0 -96 -1 -155 -1c-74 0 -197 -7 -352 -7l42 216c86 4 124 5 181 5h52c59 300 117 601 176 901c-66 -1 -123 -1 -230 -7c12 71 23 141 35 212z" />
    <glyph glyph-name="Icircumflex" unicode="&#xce;" 
d="M732 1803l338 -292l-169 -156l-191 201l-268 -189l-128 156zM314 1324c157 4 258 5 354 5c105 0 205 -1 368 -3c-14 -70 -28 -141 -42 -211c-123 0 -134 5 -229 5c-58 -300 -117 -601 -175 -901c46 0 31 1 82 1c45 0 92 -1 143 -4c-14 -72 -27 -145 -41 -217
c-84 5 -146 6 -209 6c-47 0 -96 -1 -155 -1c-74 0 -197 -7 -352 -7l42 216c86 4 124 5 181 5h52c59 300 117 601 176 901c-66 -1 -123 -1 -230 -7c12 71 23 141 35 212z" />
    <glyph glyph-name="Idieresis" unicode="&#xcf;" 
d="M809 1673l281 -3l-46 -238l-282 1zM389 1673h279l-47 -240h-279zM314 1324c157 4 258 5 354 5c105 0 205 -1 368 -3c-14 -70 -28 -141 -42 -211c-123 0 -134 5 -229 5c-58 -300 -117 -601 -175 -901c46 0 31 1 82 1c45 0 92 -1 143 -4c-14 -72 -27 -145 -41 -217
c-84 5 -146 6 -209 6c-47 0 -96 -1 -155 -1c-74 0 -197 -7 -352 -7l42 216c86 4 124 5 181 5h52c59 300 117 601 176 901c-66 -1 -123 -1 -230 -7c12 71 23 141 35 212z" />
    <glyph glyph-name="quotedbl" unicode="&#x22;" 
d="M820 1464l256 -39c-55 -283 -99 -430 -172 -631l-195 52c32 87 72 213 72 325c0 23 -2 44 -6 64zM398 1464l256 -39c-55 -283 -99 -430 -172 -631l-195 52c32 87 72 213 72 325c0 23 -2 44 -6 64z" />
    <glyph glyph-name="numbersign" unicode="#" 
d="M515 782c-23 -75 -47 -149 -70 -224c51 0 101 -1 152 -1c20 74 41 147 61 221c-48 1 -95 3 -143 4zM289 -19c-79 1 -158 3 -237 4c29 113 56 206 107 373c-53 -1 -98 -10 -128 -19c-4 61 -7 121 -11 182c60 20 138 29 205 34c31 80 45 144 69 223c-6 0 -12 1 -18 1
c-66 -4 -116 -9 -154 -22c-6 61 -12 123 -18 184c70 25 154 29 239 34c58 184 65 214 101 359c29 0 142 -2 180 -2c19 0 35 0 49 -1c-31 -121 -53 -209 -96 -353c45 -1 90 -3 135 -4c51 163 74 229 116 348c76 0 152 1 228 1c-49 -121 -61 -187 -111 -345h122
c-13 -66 -25 -132 -38 -198c-47 1 -93 3 -140 4c-23 -76 -45 -151 -68 -227c54 0 108 1 162 1c-14 -65 -28 -131 -42 -196l-183 3c-60 -197 -84 -267 -117 -388c-77 -1 -154 -1 -231 -2c33 112 65 210 119 386c-45 0 -91 -1 -136 -1c-44 -150 -104 -379 -104 -379z" />
    <glyph glyph-name="dollar" unicode="$" 
d="M300 703c-81 38 -131 99 -131 201c0 23 3 48 8 75c34 182 218 278 412 287c9 62 19 123 28 185c82 -5 164 -9 246 -14c-19 -58 -37 -116 -56 -174c137 -15 243 -88 273 -210l-240 -90v8c0 54 -37 73 -87 81c-21 -83 -41 -167 -62 -250c56 -20 87 -32 133 -54
c81 -41 156 -115 156 -246c0 -24 -3 -50 -8 -78c-47 -250 -244 -356 -471 -360l-39 -183l-231 9c19 61 37 122 56 183c-182 29 -247 147 -247 281c0 31 4 62 10 94c82 0 165 1 247 1c-5 -15 -9 -29 -11 -41s-3 -23 -3 -33c0 -50 24 -83 62 -92c31 120 62 241 93 361
c-38 11 -94 38 -138 59zM546 1063c-59 0 -103 -43 -114 -93c-3 -13 -4 -24 -4 -35c0 -40 19 -65 66 -78c17 69 35 137 52 206zM550 262c91 13 150 58 171 165c3 16 5 31 5 43c0 55 -31 77 -95 108c-27 -105 -54 -211 -81 -316z" />
    <glyph glyph-name="oe" unicode="&#x153;" 
d="M963 218c0 0 -127 -218 -330 -218c-92 0 -161 40 -203 95c-30 -32 -95 -95 -169 -95c-56 0 -124 5 -187 91c-42 57 -54 133 -54 203c0 66 11 127 18 165c9 46 25 126 45 176c45 123 158 382 367 382c79 0 112 -27 146 -63c9 -9 15 -17 19 -23c30 37 84 87 199 87
c163 0 230 -133 230 -262c0 -139 -84 -297 -397 -394l-23 -88c8 -42 14 -66 53 -66c75 0 95 36 110 82c59 -24 117 -48 176 -72zM691 609c-1 -7 -3 -14 -4 -21c141 58 167 99 167 155c0 44 -19 65 -67 65c-33 0 -62 -25 -96 -199zM295 208c52 0 95 71 106 130l72 360
c1 7 4 22 4 39c0 34 -10 75 -58 75c-28 0 -106 -125 -150 -338l-3 -18c-7 -38 -13 -87 -13 -131c0 -63 11 -117 42 -117z" />
    <glyph glyph-name="bracketleft" unicode="[" 
d="M1057 1483c-4 -69 -8 -137 -12 -206c-83 -8 -158 -8 -292 -12c-86 -440 -171 -880 -257 -1320c78 3 162 3 177 3h10c50 0 102 -5 112 -8c-11 -69 -23 -139 -34 -208c-24 3 -63 9 -134 9c-59 0 -340 -2 -433 -2c35 178 53 261 88 441c17 90 40 211 74 390
c34 175 66 351 91 482c27 140 55 281 82 421c93 0 372 4 423 4c73 3 82 4 105 6z" />
    <glyph glyph-name="bracketright" unicode="]" 
d="M412 1483c23 -2 32 -3 103 -6c51 0 329 -4 422 -4c-27 -140 -55 -281 -82 -421c-25 -131 -60 -307 -95 -482c-35 -179 -61 -300 -78 -390c-35 -180 -49 -263 -84 -441c-93 0 -373 2 -432 2c-71 0 -112 -6 -138 -9c15 69 31 139 46 208c12 3 66 8 116 8h10
c15 0 99 0 175 -3l258 1320c-132 4 -210 4 -289 12c23 69 45 137 68 206z" />
    <glyph glyph-name="parenleft" unicode="(" 
d="M1061 1250h-7c-263 0 -449 -183 -535 -634c-16 -85 -24 -161 -24 -227c0 -280 136 -400 321 -401c-17 -83 -33 -167 -50 -250c-301 3 -545 185 -545 606c0 80 9 170 28 268c119 613 423 859 857 872z" />
    <glyph glyph-name="parenright" unicode=")" 
d="M314 1250l45 234c348 -11 552 -175 552 -566c0 -90 -11 -192 -33 -306c-119 -612 -496 -871 -857 -874c16 83 32 167 48 250c229 1 454 185 541 628c20 101 29 188 29 263c0 260 -115 371 -319 371h-6z" />
    <glyph glyph-name="hyphen" unicode="-" 
d="M134 654c45 2 96 3 146 3c100 0 200 -3 268 -3h119c82 0 234 -1 341 -2h18c-16 -82 -32 -163 -48 -245h-18c-134 3 -336 3 -461 3c-43 0 -134 3 -234 3c-57 0 -116 -1 -172 -4c8 41 15 81 23 122z" />
    <glyph glyph-name="plus" unicode="+" 
d="M105 616c49 9 80 10 145 10h39h160c25 130 51 261 76 391c82 0 164 1 246 1c-26 -130 -52 -261 -78 -391c126 0 179 -2 241 -2h82l-45 -234h-14c-6 0 -95 0 -304 3c-25 -131 -51 -263 -76 -394h-252c25 130 51 261 76 391h-89c-133 0 -192 -1 -251 -9
c15 78 29 156 44 234z" />
    <glyph glyph-name="less" unicode="&#x3c;" 
d="M865 141c-61 -63 -121 -127 -182 -190c-17 36 -59 82 -100 120c-80 79 -442 306 -465 324c14 75 28 151 42 226c182 129 538 356 686 433c33 17 57 31 94 42l90 -207c-178 -85 -454 -267 -637 -390c123 -101 416 -234 472 -358z" />
    <glyph glyph-name="greater" unicode="&#x3e;" 
d="M10 166c104 124 450 249 613 350c-135 123 -321 291 -465 376c48 60 95 121 143 181c33 -11 50 -25 77 -42c119 -77 386 -304 518 -433c-6 -67 -13 -133 -19 -200c-29 -18 -481 -245 -591 -324c-55 -38 -115 -84 -146 -120c-43 71 -87 141 -130 212z" />
    <glyph glyph-name="slash" unicode="/" 
d="M-13 -38c182 277 731 1162 935 1518l192 -108c-206 -352 -759 -1239 -934 -1521c-64 37 -129 74 -193 111z" />
    <glyph glyph-name="one" unicode="1" 
d="M707 1322c78 -15 155 -30 233 -45c-83 -429 -167 -857 -250 -1286h-258c62 321 123 641 185 962c-85 -85 -206 -189 -350 -262c-34 71 -68 143 -102 214c337 154 531 402 542 417z" />
    <glyph glyph-name="two" unicode="2" 
d="M456 864c-86 -14 -173 -28 -259 -42c-1 13 -2 29 -2 46c0 22 0 46 4 66c2 9 2 17 4 25c42 190 213 347 469 347c231 0 359 -81 359 -273c0 -33 -3 -69 -11 -108c-39 -198 -177 -302 -274 -387c-66 -55 -352 -267 -363 -323h516c-14 -72 -28 -143 -42 -215h-860
c6 30 10 62 16 95c5 26 12 53 22 81c36 97 136 198 264 299c147 115 440 280 474 451c4 19 6 37 6 53c0 79 -47 116 -133 116c-74 0 -169 -44 -189 -144c-3 -14 -5 -29 -5 -46c0 -13 1 -27 4 -41z" />
    <glyph glyph-name="three" unicode="3" 
d="M6 333h251c0 -120 98 -142 178 -142c120 0 212 94 230 188c4 22 6 41 6 58c0 69 -31 101 -69 129c-51 38 -136 55 -216 55c13 67 26 133 39 200h16c129 0 261 59 283 188c1 7 2 15 2 22c0 54 -45 91 -128 91c-108 0 -223 -45 -248 -81l-138 171c8 15 137 108 417 108h11
c132 0 346 -61 346 -244c0 -16 -2 -32 -5 -50c-23 -128 -153 -269 -256 -288c141 -49 206 -145 206 -273c0 -28 -3 -57 -9 -87c-49 -250 -187 -400 -535 -400c-282 0 -381 145 -381 355z" />
    <glyph glyph-name="four" unicode="4" 
d="M632 603c21 108 42 217 63 325c-98 -129 -220 -240 -319 -327c85 1 171 1 256 2zM81 558c43 46 565 482 696 748c83 1 166 1 249 2c-46 -235 -91 -470 -137 -705h127c-14 -70 -27 -140 -41 -210h-127c-25 -131 -51 -262 -76 -393h-257c25 130 51 260 76 390
c-151 -1 -302 -1 -453 -2c-19 57 -38 113 -57 170z" />
    <glyph glyph-name="five" unicode="5" 
d="M534 709c-120 0 -193 -91 -211 -111c-58 27 -116 53 -174 80c59 203 119 407 178 610c225 -1 451 -1 676 -2c-13 -66 -26 -131 -39 -197h-439c-18 -66 -37 -133 -55 -199c0 0 42 10 120 10c57 0 133 -4 195 -37c82 -48 165 -120 165 -287c0 -37 -5 -80 -14 -128
c-61 -318 -299 -448 -539 -450h-2c-188 0 -306 76 -355 236c83 37 167 73 250 110c13 -78 64 -134 146 -134c90 0 204 64 238 240c5 26 7 51 7 74c0 116 -62 185 -147 185z" />
    <glyph glyph-name="six" unicode="6" 
d="M1043 1091c-284 0 -521 -119 -639 -376c0 0 98 87 232 87c183 0 296 -147 296 -335c0 -307 -242 -470 -521 -470c-187 0 -340 155 -340 377c0 534 397 943 961 943c4 -75 7 -151 11 -226zM331 365c0 -91 34 -165 126 -165c100 0 217 105 217 238c0 88 -50 163 -106 163
c-140 0 -237 -95 -237 -236z" />
    <glyph glyph-name="seven" unicode="7" 
d="M327 1292c84 0 191 -6 268 -6c151 0 317 7 460 7h41c23 -54 46 -109 69 -163c-389 -468 -597 -676 -685 -1130h-261c79 407 292 674 659 1073c-88 -3 -191 -3 -282 -3c-63 0 -88 0 -150 3c-2 -1 -30 -67 -41 -104c-80 21 -161 43 -241 64c30 59 118 193 163 259z" />
    <glyph glyph-name="eight" unicode="8" 
d="M469 203c69 0 203 47 229 185c2 11 3 22 3 34c0 74 -44 158 -148 210c-144 -60 -224 -163 -241 -244c-3 -14 -4 -27 -4 -39c0 -108 99 -146 161 -146zM593 840c112 23 163 104 172 150c2 10 3 19 3 27c0 70 -67 74 -126 74c-66 0 -146 -6 -163 -101c-1 -6 -2 -13 -2 -21
c0 -46 27 -109 116 -129zM681 1293c228 0 340 -92 340 -240c0 -21 -2 -44 -7 -68c-21 -103 -128 -223 -222 -249c95 -44 170 -140 170 -278c0 -25 -3 -52 -8 -80c-44 -237 -267 -387 -526 -387c-230 0 -384 118 -384 310c0 25 3 50 8 77c34 182 170 306 302 358
c-73 23 -130 117 -130 209c0 14 1 27 4 40c40 187 192 308 453 308z" />
    <glyph glyph-name="nine" unicode="9" 
d="M627 1106c-110 0 -178 -80 -192 -148c-3 -13 -4 -26 -4 -38c0 -85 62 -136 143 -136c96 0 156 42 203 86c2 25 4 49 4 71c0 106 -33 165 -154 165zM179 955c40 200 206 347 478 347s367 -163 367 -399c0 -79 -11 -166 -29 -259c-70 -361 -194 -646 -586 -646
c-243 0 -324 68 -420 173l204 153c48 -87 101 -119 215 -119c159 0 279 148 322 376c3 16 8 50 8 50c-31 -20 -91 -48 -220 -48c-191 0 -346 117 -346 302c0 22 2 46 7 70z" />
    <glyph glyph-name="equal" unicode="=" 
d="M56 394c142 8 253 8 367 8c178 0 311 -8 479 -8c-15 -75 -29 -149 -44 -224c-174 0 -317 4 -499 4c-50 0 -100 2 -152 2c-60 0 -124 -2 -193 -6c14 75 28 149 42 224zM140 861c141 -9 252 -12 346 -12c192 0 303 10 501 10c-14 -73 -27 -147 -41 -220
c-193 0 -306 -12 -503 -12c-96 0 -203 7 -346 16c6 30 15 80 24 127c7 35 14 69 19 91z" />
    <glyph glyph-name="backslash" unicode="\" 
d="M838 -64c-79 -24 -159 -47 -238 -71c-65 282 -274 1169 -344 1521c79 23 159 45 238 68c66 -356 270 -1241 344 -1518z" />
    <glyph glyph-name="asciicircum" unicode="^" 
d="M659 1101l405 -513c-61 -55 -123 -109 -184 -164c-93 117 -185 233 -278 350c-136 -115 -273 -231 -409 -346c-39 51 -79 103 -118 154c195 173 389 346 584 519z" />
    <glyph glyph-name="underscore" unicode="_" 
d="M-53 -121h946c-14 -71 -27 -142 -41 -213h-950z" />
    <glyph glyph-name="grave" unicode="`" 
d="M566 1497c52 -114 386 -349 473 -385l-143 -218c-182 96 -402 243 -536 428z" />
    <glyph glyph-name="question" unicode="?" 
d="M291 270h352c-17 -90 -35 -180 -52 -270h-352c17 90 35 180 52 270zM171 1215c174 127 370 130 469 130h13c225 0 393 -99 393 -275c0 -25 -3 -51 -8 -79c-32 -170 -148 -236 -249 -306c-67 -47 -133 -118 -150 -206c-3 -16 -6 -33 -9 -49c-91 0 -181 1 -272 1
c3 15 5 29 8 44c28 146 149 259 230 320c96 73 174 112 191 199c3 15 4 30 4 43c0 69 -74 116 -165 116c-50 0 -180 -1 -318 -140c-46 67 -91 135 -137 202z" />
    <glyph glyph-name="asciitilde" unicode="~" 
d="M414 807c230 0 245 -222 335 -222c86 0 125 90 144 158l198 -54c-20 -105 -116 -314 -393 -314c-224 0 -220 221 -332 221c-56 0 -120 -65 -161 -155c-54 37 -107 73 -161 110c59 130 168 256 370 256z" />
    <glyph glyph-name="exclamdown" unicode="&#xa1;" 
d="M130.939 -327.63l197.479 909.466l283.005 1.22852l-165.484 -911.553zM674.855 741.892l-349.998 0.954102l52.7354 269.857l349.998 -0.954102z" />
    <glyph glyph-name="Ograve" unicode="&#xd2;" 
d="M1050 1527l-102 -165c-134 47 -371 175 -460 287l145 163c94 -108 283 -237 417 -285zM709 1350c134 0 349 -51 349 -433c0 -76 -9 -165 -28 -270c-1 -4 -1 -7 -2 -11c-32 -167 -95 -324 -161 -419c-103 -147 -270 -233 -435 -233c-122 0 -263 41 -324 143
c-40 66 -57 147 -57 240c0 65 8 136 23 212c69 352 159 511 248 608c84 92 230 160 387 163zM471 187c137 0 260 276 296 453c1 6 3 11 4 17c14 69 29 168 29 258c0 123 -29 232 -131 232c-139 0 -277 -278 -332 -555c-13 -65 -23 -134 -23 -196c0 -116 36 -209 157 -209z
" />
    <glyph glyph-name="Oacute" unicode="&#xd3;" 
d="M500 1543c152 48 316 151 452 259c34 -57 102 -125 136 -182c-133 -112 -377 -223 -529 -270c-19 58 -40 135 -59 193zM709 1350c134 0 349 -51 349 -433c0 -76 -9 -165 -28 -270c-1 -4 -1 -7 -2 -11c-32 -167 -95 -324 -161 -419c-103 -147 -270 -233 -435 -233
c-122 0 -263 41 -324 143c-40 66 -57 147 -57 240c0 65 8 136 23 212c69 352 159 511 248 608c84 92 230 160 387 163zM471 187c137 0 260 276 296 453c1 6 3 11 4 17c14 69 29 168 29 258c0 123 -29 232 -131 232c-139 0 -277 -278 -332 -555c-13 -65 -23 -134 -23 -196
c0 -116 36 -209 157 -209z" />
    <glyph glyph-name="Ocircumflex" unicode="&#xd4;" 
d="M778 1803l338 -292l-169 -156l-191 201l-268 -189l-128 156zM709 1350c134 0 349 -51 349 -433c0 -76 -9 -165 -28 -270c-1 -4 -1 -7 -2 -11c-32 -167 -95 -324 -161 -419c-103 -147 -270 -233 -435 -233c-122 0 -263 41 -324 143c-40 66 -57 147 -57 240
c0 65 8 136 23 212c69 352 159 511 248 608c84 92 230 160 387 163zM471 187c137 0 260 276 296 453c1 6 3 11 4 17c14 69 29 168 29 258c0 123 -29 232 -131 232c-139 0 -277 -278 -332 -555c-13 -65 -23 -134 -23 -196c0 -116 36 -209 157 -209z" />
    <glyph glyph-name="Otilde" unicode="&#xd5;" 
d="M648 1701c136 0 184 -52 223 -91c23 -23 43 -41 76 -41c50 0 81 31 100 100l172 -54c-40 -96 -123 -224 -285 -224c-111 0 -167 64 -213 102c-26 22 -37 28 -81 28c-42 0 -78 -37 -99 -100l-178 78c51 93 144 202 285 202zM709 1350c134 0 349 -51 349 -433
c0 -76 -9 -165 -28 -270c-1 -4 -1 -7 -2 -11c-32 -167 -95 -324 -161 -419c-103 -147 -270 -233 -435 -233c-122 0 -263 41 -324 143c-40 66 -57 147 -57 240c0 65 8 136 23 212c69 352 159 511 248 608c84 92 230 160 387 163zM471 187c137 0 260 276 296 453
c1 6 3 11 4 17c14 69 29 168 29 258c0 123 -29 232 -131 232c-139 0 -277 -278 -332 -555c-13 -65 -23 -134 -23 -196c0 -116 36 -209 157 -209z" />
    <glyph glyph-name="Odieresis" unicode="&#xd6;" 
d="M855 1673l281 -3l-46 -238l-282 1zM435 1673h279l-47 -240h-279zM709 1350c134 0 349 -51 349 -433c0 -76 -9 -165 -28 -270c-1 -4 -1 -7 -2 -11c-32 -167 -95 -324 -161 -419c-103 -147 -270 -233 -435 -233c-122 0 -263 41 -324 143c-40 66 -57 147 -57 240
c0 65 8 136 23 212c69 352 159 511 248 608c84 92 230 160 387 163zM471 187c137 0 260 276 296 453c1 6 3 11 4 17c14 69 29 168 29 258c0 123 -29 232 -131 232c-139 0 -277 -278 -332 -555c-13 -65 -23 -134 -23 -196c0 -116 36 -209 157 -209z" />
    <glyph glyph-name="Oslash" unicode="&#xd8;" 
d="M1029 1128c19 -56 29 -124 29 -210c0 -76 -8 -166 -28 -271c-1 -4 -1 -7 -2 -11c-32 -167 -95 -324 -161 -419c-103 -147 -270 -233 -435 -233c-75 0 -157 15 -224 51c-38 -50 -75 -100 -113 -150c-46 35 -93 69 -139 104c44 58 88 117 132 175c-26 58 -38 125 -38 201
c0 66 9 138 24 214c69 352 159 511 248 608c84 92 230 160 387 163c65 0 150 -12 219 -68c36 49 74 97 110 146c47 -34 93 -67 140 -101c-50 -66 -99 -133 -149 -199zM355 232c27 -36 60 -45 116 -45c79 0 140 62 186 139c38 59 90 215 110 314c1 6 3 11 4 17
c9 48 18 104 24 160c-147 -195 -293 -390 -440 -585zM774 1076c-24 53 -60 71 -105 71c-65 0 -108 -25 -162 -96c-63 -83 -122 -216 -170 -459c-7 -35 -14 -78 -18 -121c153 202 304 404 455 605z" />
    <glyph glyph-name="multiply" unicode="&#xd7;" 
d="M317 999c73 -59 174 -219 242 -306l366 297c46 -58 92 -117 138 -175c-122 -99 -245 -197 -367 -296c116 -150 144 -196 246 -328c-67 -55 -133 -109 -200 -164c-109 150 -55 77 -242 326c-120 -105 -241 -210 -361 -315c-46 60 -93 121 -139 181l357 312
c-111 143 -193 262 -240 304c67 55 133 109 200 164z" />
    <glyph glyph-name="Ugrave" unicode="&#xd9;" 
d="M1020 1527l-102 -165c-134 47 -371 175 -460 287l145 163c94 -108 283 -237 417 -285zM888 1350c83 -9 165 -19 248 -28c-17 -50 -24 -85 -33 -127c-2 -9 -3 -19 -5 -29c-29 -148 -51 -278 -73 -391c-4 -20 -8 -39 -12 -59c-46 -237 -94 -463 -232 -595
c-101 -97 -236 -126 -366 -131c-255 0 -344 116 -344 325c0 43 4 90 11 141c10 77 32 201 59 339c34 175 75 373 112 534h258c-37 -168 -85 -397 -122 -586c-10 -50 -19 -98 -27 -141c-12 -64 -22 -117 -24 -154c-1 -25 -3 -53 -3 -82c0 -81 16 -163 119 -166
c202 9 249 231 304 518c24 126 48 275 82 448c14 72 26 121 48 184z" />
    <glyph glyph-name="Uacute" unicode="&#xda;" 
d="M470 1543c152 48 316 151 452 259c34 -57 102 -125 136 -182c-133 -112 -377 -223 -529 -270c-19 58 -40 135 -59 193zM888 1350c83 -9 165 -19 248 -28c-17 -50 -24 -85 -33 -127c-2 -9 -3 -19 -5 -29c-29 -148 -51 -278 -73 -391c-4 -20 -8 -39 -12 -59
c-46 -237 -94 -463 -232 -595c-101 -97 -236 -126 -366 -131c-255 0 -344 116 -344 325c0 43 4 90 11 141c10 77 32 201 59 339c34 175 75 373 112 534h258c-37 -168 -85 -397 -122 -586c-10 -50 -19 -98 -27 -141c-12 -64 -22 -117 -24 -154c-1 -25 -3 -53 -3 -82
c0 -81 16 -163 119 -166c202 9 249 231 304 518c24 126 48 275 82 448c14 72 26 121 48 184z" />
    <glyph glyph-name="Ucircumflex" unicode="&#xdb;" 
d="M748 1803l338 -292l-169 -156l-191 201l-268 -189l-128 156zM888 1350c83 -9 165 -19 248 -28c-17 -50 -24 -85 -33 -127c-2 -9 -3 -19 -5 -29c-29 -148 -51 -278 -73 -391c-4 -20 -8 -39 -12 -59c-46 -237 -94 -463 -232 -595c-101 -97 -236 -126 -366 -131
c-255 0 -344 116 -344 325c0 43 4 90 11 141c10 77 32 201 59 339c34 175 75 373 112 534h258c-37 -168 -85 -397 -122 -586c-10 -50 -19 -98 -27 -141c-12 -64 -22 -117 -24 -154c-1 -25 -3 -53 -3 -82c0 -81 16 -163 119 -166c202 9 249 231 304 518c24 126 48 275 82 448
c14 72 26 121 48 184z" />
    <glyph glyph-name="Udieresis" unicode="&#xdc;" 
d="M825 1673l281 -3l-46 -238l-282 1zM405 1673h279l-47 -240h-279zM888 1350c83 -9 165 -19 248 -28c-17 -50 -24 -85 -33 -127c-2 -9 -3 -19 -5 -29c-29 -148 -51 -278 -73 -391c-4 -20 -8 -39 -12 -59c-46 -237 -94 -463 -232 -595c-101 -97 -236 -126 -366 -131
c-255 0 -344 116 -344 325c0 43 4 90 11 141c10 77 32 201 59 339c34 175 75 373 112 534h258c-37 -168 -85 -397 -122 -586c-10 -50 -19 -98 -27 -141c-12 -64 -22 -117 -24 -154c-1 -25 -3 -53 -3 -82c0 -81 16 -163 119 -166c202 9 249 231 304 518c24 126 48 275 82 448
c14 72 26 121 48 184z" />
    <glyph glyph-name="Yacute" unicode="&#xdd;" 
d="M493 1543c152 48 316 151 452 259c34 -57 102 -125 136 -182c-133 -112 -377 -223 -529 -270c-19 58 -40 135 -59 193zM279 18c100 197 187 377 287 574c-57 113 -359 522 -389 630c72 47 145 93 217 140c25 -79 236 -400 296 -540c84 185 168 369 252 554l219 -96
c-206 -427 -445 -919 -651 -1346c-63 21 -156 48 -231 84z" />
    <glyph glyph-name="ntilde" unicode="&#xf1;" 
d="M600 1486c136 0 184 -52 223 -91c23 -23 43 -41 76 -41c50 0 81 31 100 100l172 -54c-40 -96 -123 -224 -285 -224c-111 0 -167 64 -213 102c-26 22 -37 28 -81 28c-42 0 -78 -37 -99 -100l-178 78c51 93 144 202 285 202zM423 821c99 114 181 205 383 205
c124 0 218 -50 218 -173c0 -17 -2 -37 -6 -57c-34 -173 -67 -345 -101 -518c-2 -8 -2 -14 -2 -21c0 -50 41 -70 85 -97c-52 -67 -103 -133 -155 -200c-80 27 -195 89 -195 216c0 14 2 30 5 46l93 477c5 25 8 47 8 65c0 35 -11 55 -40 55c-106 0 -267 -197 -341 -315
l-99 -504h-251c46 235 91 471 137 706c23 118 30 170 30 218c0 25 -2 48 -4 80c80 16 161 32 241 48c1 -5 2 -18 2 -35c0 -56 -6 -158 -8 -196z" />
    <glyph glyph-name="ograve" unicode="&#xf2;" 
d="M1001 1312l-102 -165c-134 47 -371 175 -460 287l145 163c94 -108 283 -237 417 -285zM598 247c57 52 92 156 115 283c1 6 2 10 3 16c8 45 13 87 13 125c0 94 -31 159 -123 159c-151 0 -223 -140 -263 -348c-7 -37 -11 -72 -11 -103c0 -110 45 -182 139 -182
c55 1 84 14 127 50zM431 -6c-254 0 -359 127 -359 327c0 44 5 92 15 143c72 371 252 568 544 568c197 0 294 -69 338 -201c13 -39 18 -86 18 -136c0 -51 -5 -103 -15 -152c-57 -285 -203 -549 -539 -549h-2z" />
    <glyph glyph-name="oacute" unicode="&#xf3;" 
d="M451 1328c152 48 316 151 452 259c34 -57 102 -125 136 -182c-133 -112 -377 -223 -529 -270c-19 58 -40 135 -59 193zM598 247c57 52 92 156 115 283c1 6 2 10 3 16c8 45 13 87 13 125c0 94 -31 159 -123 159c-151 0 -223 -140 -263 -348c-7 -37 -11 -72 -11 -103
c0 -110 45 -182 139 -182c55 1 84 14 127 50zM431 -6c-254 0 -359 127 -359 327c0 44 5 92 15 143c72 371 252 568 544 568c197 0 294 -69 338 -201c13 -39 18 -86 18 -136c0 -51 -5 -103 -15 -152c-57 -285 -203 -549 -539 -549h-2z" />
    <glyph glyph-name="ocircumflex" unicode="&#xf4;" 
d="M729 1588l338 -292l-169 -156l-191 201l-268 -189l-128 156zM598 247c57 52 92 156 115 283c1 6 2 10 3 16c8 45 13 87 13 125c0 94 -31 159 -123 159c-151 0 -223 -140 -263 -348c-7 -37 -11 -72 -11 -103c0 -110 45 -182 139 -182c55 1 84 14 127 50zM431 -6
c-254 0 -359 127 -359 327c0 44 5 92 15 143c72 371 252 568 544 568c197 0 294 -69 338 -201c13 -39 18 -86 18 -136c0 -51 -5 -103 -15 -152c-57 -285 -203 -549 -539 -549h-2z" />
    <glyph glyph-name="otilde" unicode="&#xf5;" 
d="M599 1486c136 0 184 -52 223 -91c23 -23 43 -41 76 -41c50 0 81 31 100 100l172 -54c-40 -96 -123 -224 -285 -224c-111 0 -167 64 -213 102c-26 22 -37 28 -81 28c-42 0 -78 -37 -99 -100l-178 78c51 93 144 202 285 202zM598 247c57 52 92 156 115 283c1 6 2 10 3 16
c8 45 13 87 13 125c0 94 -31 159 -123 159c-151 0 -223 -140 -263 -348c-7 -37 -11 -72 -11 -103c0 -110 45 -182 139 -182c55 1 84 14 127 50zM431 -6c-254 0 -359 127 -359 327c0 44 5 92 15 143c72 371 252 568 544 568c197 0 294 -69 338 -201c13 -39 18 -86 18 -136
c0 -51 -5 -103 -15 -152c-57 -285 -203 -549 -539 -549h-2z" />
    <glyph glyph-name="odieresis" unicode="&#xf6;" 
d="M806 1458l281 -3l-46 -238l-282 1zM386 1458h279l-47 -240h-279zM598 247c57 52 92 156 115 283c1 6 2 10 3 16c8 45 13 87 13 125c0 94 -31 159 -123 159c-151 0 -223 -140 -263 -348c-7 -37 -11 -72 -11 -103c0 -110 45 -182 139 -182c55 1 84 14 127 50zM431 -6
c-254 0 -359 127 -359 327c0 44 5 92 15 143c72 371 252 568 544 568c197 0 294 -69 338 -201c13 -39 18 -86 18 -136c0 -51 -5 -103 -15 -152c-57 -285 -203 -549 -539 -549h-2z" />
    <glyph glyph-name="oslash" unicode="&#xf8;" 
d="M598 247c57 52 92 156 115 283c1 6 2 10 3 16c3 14 5 27 7 40c-122 -109 -243 -218 -365 -327c22 -39 60 -62 113 -62c55 1 84 14 127 50zM980 1067c41 -47 82 -93 123 -140c-43 -38 -86 -77 -129 -115c9 -35 13 -76 13 -119c0 -50 -6 -102 -15 -150
c-54 -285 -203 -549 -539 -549h-2c-125 0 -213 31 -271 86c-30 -27 -59 -53 -89 -80c-40 44 -80 89 -120 133c42 38 84 77 126 115c-4 23 -5 47 -5 73c0 44 5 92 15 143c72 371 252 568 544 568c109 0 186 -21 242 -62c36 32 71 65 107 97zM688 802c-20 18 -46 28 -82 28
c-149 0 -222 -137 -262 -340c115 104 229 208 344 312z" />
    <glyph glyph-name="ugrave" unicode="&#xf9;" 
d="M970 1312l-102 -165c-134 47 -371 175 -460 287l145 163c94 -108 283 -237 417 -285zM815 -17c-58 29 -103 68 -135 250c-78 -110 -178 -228 -329 -231h-9c-136 0 -296 18 -296 185c0 19 2 41 7 64c17 82 31 157 50 253c38 197 74 393 74 469c0 7 0 14 -1 19
c86 9 173 19 259 28v-10c0 -100 -55 -358 -122 -712v-3c0 -65 7 -80 52 -80c124 0 338 355 363 482c20 105 41 211 61 316h251c-46 -236 -92 -471 -138 -707c-1 -4 -1 -7 -1 -11c0 -50 48 -109 92 -129c-59 -61 -119 -122 -178 -183z" />
    <glyph glyph-name="uacute" unicode="&#xfa;" 
d="M420 1328c152 48 316 151 452 259c34 -57 102 -125 136 -182c-133 -112 -377 -223 -529 -270c-19 58 -40 135 -59 193zM815 -17c-58 29 -103 68 -135 250c-78 -110 -178 -228 -329 -231h-9c-136 0 -296 18 -296 185c0 19 2 41 7 64c17 82 31 157 50 253
c38 197 74 393 74 469c0 7 0 14 -1 19c86 9 173 19 259 28v-10c0 -100 -55 -358 -122 -712v-3c0 -65 7 -80 52 -80c124 0 338 355 363 482c20 105 41 211 61 316h251c-46 -236 -92 -471 -138 -707c-1 -4 -1 -7 -1 -11c0 -50 48 -109 92 -129c-59 -61 -119 -122 -178 -183z
" />
    <glyph glyph-name="ucircumflex" unicode="&#xfb;" 
d="M698 1588l338 -292l-169 -156l-191 201l-268 -189l-128 156zM815 -17c-58 29 -103 68 -135 250c-78 -110 -178 -228 -329 -231h-9c-136 0 -296 18 -296 185c0 19 2 41 7 64c17 82 31 157 50 253c38 197 74 393 74 469c0 7 0 14 -1 19c86 9 173 19 259 28v-10
c0 -100 -55 -358 -122 -712v-3c0 -65 7 -80 52 -80c124 0 338 355 363 482c20 105 41 211 61 316h251c-46 -236 -92 -471 -138 -707c-1 -4 -1 -7 -1 -11c0 -50 48 -109 92 -129c-59 -61 -119 -122 -178 -183z" />
    <glyph glyph-name="udieresis" unicode="&#xfc;" 
d="M775 1458l281 -3l-46 -238l-282 1zM355 1458h279l-47 -240h-279zM815 -17c-58 29 -103 68 -135 250c-78 -110 -178 -228 -329 -231h-9c-136 0 -296 18 -296 185c0 19 2 41 7 64c17 82 31 157 50 253c38 197 74 393 74 469c0 7 0 14 -1 19c86 9 173 19 259 28v-10
c0 -100 -55 -358 -122 -712v-3c0 -65 7 -80 52 -80c124 0 338 355 363 482c20 105 41 211 61 316h251c-46 -236 -92 -471 -138 -707c-1 -4 -1 -7 -1 -11c0 -50 48 -109 92 -129c-59 -61 -119 -122 -178 -183z" />
    <glyph glyph-name="plusminus" unicode="&#xb1;" 
d="M139 854c50 9 80 10 145 10h39h160l69 357c82 0 165 1 247 1l-72 -357c126 0 180 -2 242 -2h82c-15 -78 -31 -156 -46 -234h-14c-6 0 -95 0 -304 3c-14 -74 -29 -147 -43 -221c93 0 222 -1 303 -2h18c-16 -82 -32 -163 -48 -245h-18c-134 3 -375 3 -500 3
c-67 0 -225 -1 -379 -9c8 41 15 81 23 122l18 123c114 6 236 8 332 8c14 73 28 145 42 218h-89c-133 0 -191 -1 -250 -9c14 78 29 156 43 234z" />
    <glyph glyph-name="divide" unicode="&#xf7;" 
d="M483 1038h315c-18 -93 -37 -187 -55 -280h-315c18 93 37 187 55 280zM336 284h315c-18 -94 -37 -188 -55 -282h-315c18 94 37 188 55 282zM118 654c45 2 96 3 146 3c100 0 200 -3 268 -3h119c82 0 234 -1 341 -2h18c-16 -82 -32 -163 -48 -245h-18c-134 3 -336 3 -461 3
c-43 0 -134 3 -234 3c-57 0 -116 -1 -172 -4c8 41 15 81 23 122z" />
    <glyph glyph-name="yacute" unicode="&#xfd;" 
d="M459 1328c152 48 316 151 452 259c34 -57 102 -125 136 -182c-133 -112 -377 -223 -529 -270c-19 58 -40 135 -59 193zM54 -32c6 -7 79 -142 153 -142c85 0 144 38 244 211c-76 644 -143 714 -259 714c-20 0 -35 0 -45 -1c2 88 4 175 6 263h101c192 0 305 -222 355 -777
c148 364 187 506 229 777h256c0 -40 -20 -123 -36 -174c-107 -351 -200 -560 -425 -893c-180 -266 -284 -322 -430 -322c-180 0 -250 85 -341 176z" />
    <glyph glyph-name="ydieresis" unicode="&#xff;" 
d="M814 1458l281 -3l-46 -238l-282 1zM394 1458h279l-47 -240h-279zM54 -32c6 -7 79 -142 153 -142c85 0 144 38 244 211c-76 644 -143 714 -259 714c-20 0 -35 0 -45 -1c2 88 4 175 6 263h101c192 0 305 -222 355 -777c148 364 187 506 229 777h256
c0 -40 -20 -123 -36 -174c-107 -351 -200 -560 -425 -893c-180 -266 -284 -322 -430 -322c-180 0 -250 85 -341 176z" />
    <glyph glyph-name="OE" unicode="&#x152;" 
d="M400 199c60 309 121 619 181 928c-109 0 -203 -176 -276 -549c-14 -72 -21 -138 -21 -193c0 -117 32 -188 97 -188c16 0 6 1 19 2zM776 206c59 2 89 10 137 26c9 -67 18 -133 27 -200c-112 -29 -237 -33 -348 -33c-47 0 -97 1 -152 1c-18 -7 -114 -8 -129 -8
c-218 4 -287 158 -287 355c0 78 11 163 28 250c85 436 241 733 576 733c26 0 53 -2 78 -7c60 3 123 3 186 3c85 0 171 -1 253 -1l-39 -198c-92 0 -84 1 -155 1c-35 0 -74 0 -121 -1c-18 -93 -36 -185 -54 -278h209c-13 -68 -27 -137 -40 -205h-209
c-39 -202 -70 -358 -85 -437c42 0 83 -1 125 -1z" />
    <glyph glyph-name="yen" unicode="&#xa5;" 
d="M292 -6c9 48 19 96 28 144c8 39 23 109 39 185h-92c-60 0 -123 -1 -193 -5c14 74 27 149 41 223c110 6 203 8 292 8c5 24 9 46 12 64c-1 3 -4 7 -6 11c-80 2 -169 7 -282 14c6 30 15 80 24 127c7 35 14 69 19 91c51 -3 98 -5 142 -7c-60 145 -121 309 -139 373l246 141
c25 -79 119 -371 179 -511c126 142 299 435 354 524c67 -45 135 -91 202 -136c-39 -56 -170 -232 -290 -387c46 1 96 1 153 1c-14 -73 -27 -146 -41 -219c-113 0 -198 -4 -290 -7c-9 -10 -17 -19 -23 -26c-3 -18 -9 -37 -12 -55c103 -2 197 -6 307 -6
c-14 -75 -29 -149 -43 -224c-110 0 -209 3 -312 4c-19 -88 -33 -164 -39 -193c-9 -45 -17 -89 -26 -134h-250z" />
    <glyph glyph-name="Ntilde" unicode="&#xd1;" 
d="M605 1701c136 0 184 -52 223 -91c23 -23 43 -41 76 -41c50 0 81 31 100 100l172 -54c-40 -96 -123 -224 -285 -224c-111 0 -167 64 -213 102c-26 22 -37 28 -81 28c-42 0 -78 -37 -99 -100l-178 78c51 93 144 202 285 202zM616 0c-40 259 -117 626 -208 845
c-17 -92 -35 -183 -52 -275c-57 -299 -81 -418 -111 -573h-246c86 443 173 885 259 1328c70 -2 139 -5 209 -7c89 -188 232 -662 253 -911c15 123 21 250 45 371c37 190 76 377 119 551c81 0 163 -1 244 -1c-28 -115 -60 -267 -92 -433c-45 -231 -92 -490 -137 -725
c-11 -58 -24 -116 -34 -170h-249z" />
    <glyph glyph-name="Eth" unicode="&#xd0;" 
d="M547 1127h-30c-16 0 -28 0 -46 -3c-4 -26 -9 -56 -15 -87c-8 -41 -14 -64 -20 -95h254c-13 -70 -26 -139 -39 -209c-85 0 -171 -1 -256 -1c-48 -244 -91 -452 -108 -534c87 -3 39 -3 99 -3h3c40 0 184 2 280 158c28 45 53 136 64 191c20 101 29 190 29 266
c0 208 -73 317 -215 317zM184 942c2 12 5 23 7 35c25 129 45 252 53 340c83 8 129 14 228 14c271 0 411 -82 498 -265c37 -80 56 -181 56 -290c0 -63 -6 -130 -19 -196c-13 -69 -35 -138 -61 -204c-95 -241 -280 -362 -463 -379c-56 -5 -107 -7 -162 -7c-84 0 -216 7 -330 7
c7 34 7 33 29 131c9 46 68 326 123 604h-70c14 70 27 140 41 210h70z" />
    <glyph glyph-name="currency" unicode="&#xa4;" 
d="M605 314c48 38 72 117 93 210c1 4 1 7 2 11c7 30 9 58 9 84c0 74 -28 126 -111 126c-131 0 -190 -103 -221 -257c-5 -24 -7 -46 -7 -67c0 -86 40 -144 124 -144h2c48 1 72 10 109 37zM225 677c-41 52 -83 103 -124 155c76 63 151 127 227 190c41 -50 81 -101 122 -151
c48 16 104 24 164 24c72 0 128 -9 173 -26c56 47 111 93 167 140c51 -64 103 -127 154 -191c-59 -50 -119 -99 -178 -149c1 -14 2 -29 2 -44c0 -31 -3 -62 -9 -92c-15 -79 -42 -155 -85 -220c40 -50 81 -101 121 -151c-76 -63 -151 -127 -227 -190c-46 56 -92 113 -138 169
c-38 -9 -79 -14 -126 -14h-2c-58 0 -108 6 -150 18c-66 -55 -131 -110 -197 -165c-51 64 -102 127 -153 191c61 51 123 103 184 154c-3 18 -4 37 -4 58c0 29 3 60 9 92c15 78 39 145 70 202z" />
    <glyph glyph-name="sterling" unicode="&#xa3;" 
d="M273 193c-27 30 -39 57 -49 79c-7 -5 -25 -33 -27 -54c0 -2 -1 -4 -1 -6c-3 -42 3 -54 12 -54c22 0 45 15 65 35zM916 670c-76 -9 -159 -9 -257 -9h-56c0 -93 -3 -166 -24 -276c-10 -52 -25 -107 -37 -131c60 -44 94 -66 142 -66c26 0 66 10 71 36c1 5 7 38 8 43
c76 0 152 -1 228 -1c-3 -18 -7 -35 -10 -53c-30 -136 -149 -229 -290 -229c-118 0 -172 25 -267 95c-79 -85 -193 -92 -280 -92c-92 0 -125 55 -125 132c0 22 3 47 8 72c27 136 127 265 223 265c59 0 66 -29 87 -74c6 20 7 25 11 47c17 88 18 126 18 192v43
c-52 2 -136 2 -181 2h-17c13 67 26 133 39 200h158c1 71 -2 111 11 177c40 205 201 308 390 308c163 0 268 -95 274 -222l-222 -54c-4 62 -48 74 -92 74h-6c-54 0 -90 -33 -103 -98c-10 -54 -9 -124 -11 -190c32 1 63 2 95 3h57c74 0 140 1 197 7z" />
    <glyph glyph-name="cent" unicode="&#xa2;" 
d="M364 525c-7 -36 -10 -67 -10 -93c0 -157 107 -160 140 -160h10c83 0 137 51 189 114c56 -35 112 -69 168 -104c-67 -99 -164 -156 -302 -171l-24 -120h-234c9 44 17 87 26 131c-37 9 -74 24 -103 48c-63 53 -87 126 -87 215c0 43 5 89 15 139c41 207 153 323 324 365
c9 48 19 96 28 144h234c-9 -44 -17 -87 -26 -131c50 -7 95 -21 126 -43c44 -31 73 -77 83 -118c-66 -26 -132 -53 -198 -79c-2 30 -19 80 -135 80c-122 0 -202 -105 -224 -217z" />
    <glyph glyph-name="percent" unicode="%" 
d="M678 179c32 0 92 74 103 125c3 13 4 24 4 34c0 36 -18 52 -53 54h-2c-32 0 -94 -70 -103 -115c-2 -9 -2 -18 -2 -26c0 -41 20 -72 53 -72zM389 915c32 0 92 74 103 125c3 13 4 24 4 34c0 36 -18 52 -53 54h-2c-32 0 -94 -70 -103 -115c-2 -9 -2 -18 -2 -26
c0 -41 20 -72 53 -72zM-37 82c105 141 209 281 314 422c130 175 289 284 337 349c-69 -77 -165 -131 -267 -131c-137 0 -230 102 -230 233c0 19 2 37 6 57c32 163 199 306 363 309h7c140 0 232 -90 232 -213c0 -17 -3 -33 -5 -51c0 -2 -1 -5 -3 -17c-5 -27 -20 -65 -40 -101
c104 146 209 291 313 437c68 -37 135 -75 203 -112c-105 -142 -209 -285 -314 -427c-94 -132 -266 -246 -377 -387c71 79 174 133 273 135h7c140 0 232 -90 232 -213c0 -17 -3 -33 -5 -51c0 -2 -1 -5 -1 -7c-18 -162 -193 -328 -372 -328c-137 0 -230 102 -230 233
c0 19 2 37 6 57c7 35 19 69 37 101c-94 -135 -189 -270 -283 -405c-68 37 -135 73 -203 110z" />
    <glyph glyph-name="guillemotleft" unicode="&#xab;" 
d="M463 566c169 130 338 291 388 431c71 -24 143 -48 214 -72c-77 -189 -237 -312 -383 -421c105 -118 192 -237 204 -409c-78 -29 -157 -57 -235 -86c-9 149 -79 301 -210 442c7 38 15 77 22 115zM61 576c169 130 338 291 388 431c71 -24 143 -47 214 -71
c-77 -189 -237 -312 -383 -421c105 -118 192 -237 204 -409c-78 -29 -157 -58 -235 -87c-9 149 -79 301 -210 442c7 38 15 77 22 115z" />
    <glyph glyph-name="guillemotright" unicode="&#xbb;" 
d="M600.642 447.234c-167.932 -131.377 -335.61 -293.754 -384.464 -434.157c-71.1943 23.4189 -143.388 46.8291 -214.582 70.248c75.4531 189.623 234.442 313.927 379.547 424.117c-105.962 117.138 -193.932 235.422 -207.337 407.318
c77.7607 29.6367 156.529 58.2812 234.289 87.918c10.2178 -148.921 81.458 -300.344 213.606 -440.269c-6.68945 -38.0557 -14.3701 -77.1201 -21.0596 -115.176zM1002.71 440.521c-167.932 -131.377 -335.61 -293.753 -384.464 -434.157
c-71.1943 23.4189 -143.38 45.8291 -214.573 69.248c75.4521 189.623 234.441 313.927 379.546 424.117c-105.961 117.138 -193.931 235.423 -207.336 407.318c77.7598 29.6367 156.521 59.2822 234.28 88.918c10.2178 -148.921 81.458 -300.344 213.606 -440.269
c-6.68945 -38.0557 -14.3701 -77.1201 -21.0596 -115.176z" />
    <glyph glyph-name="section" unicode="&#xa7;" 
d="M645 354c52 28 59 42 65 75v6c0 19 -5 39 -24 60c-96 108 -213 184 -283 234c-52 -28 -60 -42 -66 -75v-6c0 -19 5 -39 24 -60c95 -106 179 -160 276 -227c3 -2 5 -5 8 -7zM281 883c0 0 -18 21 -18 82c0 22 3 50 9 83c39 208 259 314 413 320h18c175 0 274 -101 274 -251
c0 -21 -2 -43 -6 -66h-220c2 10 3 20 3 29c0 61 -45 88 -102 88c-32 0 -104 -19 -129 -114c-1 -3 -1 -7 -2 -11c-3 -16 -6 -34 -6 -53c0 -32 9 -65 41 -89c121 -90 237 -176 325 -274c57 -64 80 -101 80 -155c0 -19 -3 -39 -8 -64c-23 -117 -88 -170 -177 -228
c0 0 7 -29 7 -72c0 -21 -2 -47 -7 -73c-40 -208 -260 -314 -414 -320h-18c-176 0 -275 102 -275 252c0 21 2 42 6 65h220c-2 -10 -3 -20 -3 -29c0 -61 45 -88 102 -88c32 0 106 19 131 114c1 3 1 7 2 11c3 15 6 34 6 52c0 32 -9 65 -42 90c-121 91 -236 176 -324 274
c-58 64 -80 101 -80 156c0 18 2 39 7 63c28 141 187 208 187 208z" />
    <glyph glyph-name="braceleft" unicode="{" 
d="M555 600c89 -23 208 -94 208 -219c0 -17 -2 -34 -5 -51c-19 -101 -86 -198 -120 -276c-4 -8 -5 -16 -6 -23c-1 -6 -2 -11 -2 -16c0 -54 63 -74 177 -79c-16 -73 -31 -145 -47 -218c-132 6 -293 8 -364 116c-22 34 -32 70 -32 106c0 15 2 31 5 46c14 73 57 147 93 212
c20 36 32 66 37 92c2 11 3 21 3 30c0 107 -131 127 -239 159c7 38 14 75 21 113c9 44 17 87 26 131c131 35 285 55 309 188c2 12 4 26 4 41c0 16 -2 33 -5 52c-7 46 -17 96 -17 148c0 21 2 43 6 64c10 52 36 104 86 152c114 108 275 110 409 116c-13 -73 -25 -145 -38 -218
c-128 -5 -201 -28 -212 -96c-1 -8 -2 -17 -2 -26c0 -61 19 -130 19 -204c0 -22 -1 -45 -6 -68c-3 -15 -7 -30 -13 -46c-47 -128 -197 -203 -295 -226z" />
    <glyph glyph-name="bar" unicode="|" 
d="M312 152c72 365 177 959 233 1247l18 93h271c-9 -48 -19 -97 -28 -145c-54 -277 -141 -789 -206 -1123l-30 -150c-22 -115 -33 -171 -58 -272c-91 0 -181 1 -272 1c16 62 25 105 36 160c9 47 19 103 36 189z" />
    <glyph glyph-name="braceright" unicode="}" 
d="M569 600c-89 23 -207 96 -207 220v6c0 16 2 31 5 46c20 102 88 196 119 276c3 8 5 15 6 22c1 6 2 12 2 17c0 55 -62 74 -176 79c15 73 30 145 45 218c133 -6 294 -8 366 -116c22 -33 30 -67 30 -102c0 -17 -2 -33 -5 -50c-13 -73 -56 -147 -92 -212
c-20 -36 -32 -67 -37 -93c-2 -11 -3 -21 -3 -30c0 -107 132 -126 240 -158c-9 -44 -17 -87 -26 -131c-8 -38 -15 -75 -23 -113c-131 -35 -282 -55 -309 -188c-3 -14 -4 -29 -4 -45c0 -15 1 -31 4 -48c7 -46 17 -96 17 -148c0 -21 -2 -43 -6 -64c-10 -52 -35 -104 -85 -152
c-114 -108 -276 -110 -410 -116c13 73 26 145 39 218c128 6 200 28 211 96c1 7 1 14 2 22v7c0 60 -18 128 -18 201c0 22 1 45 6 68c3 15 7 31 13 46c49 127 198 201 296 224z" />
    <glyph glyph-name="at" unicode="@" 
d="M572 496c-4 -22 -6 -41 -6 -59c0 -46 14 -75 46 -75c98 0 133 118 161 168c4 23 9 45 13 68c-41 44 -41 60 -90 60c-50 0 -102 -42 -124 -162zM779 267c-71 -63 -99 -105 -225 -105c-142 0 -211 110 -211 243c0 26 3 53 8 80c41 216 172 373 356 373c69 0 91 -26 118 -60
c8 41 13 83 13 121c0 98 -34 176 -148 176c-165 0 -340 -173 -421 -595c-14 -74 -22 -144 -22 -208c0 -203 76 -345 247 -345c48 0 104 12 168 48c13 -64 25 -127 38 -191c-88 -42 -187 -57 -257 -57c-309 0 -422 250 -422 527c0 73 8 148 22 221c98 506 373 805 685 805
c248 0 335 -173 335 -351c0 -37 -4 -75 -11 -111c-21 -110 -43 -220 -64 -330c-7 -36 -16 -81 -16 -117c0 -39 8 -78 31 -126l-201 -96c-14 36 -17 44 -23 98z" />
    <glyph glyph-name="brokenbar" unicode="&#xa6;" 
d="M429 779c44 239 87 471 116 620l18 93h271c-9 -48 -19 -97 -28 -145c-28 -145 -66 -354 -105 -568h-272zM659 539c-21 -113 -41 -221 -59 -315l-30 -150c-22 -115 -33 -171 -58 -272c-91 0 -181 1 -272 1c16 62 25 105 36 160c9 47 19 103 36 189c22 112 47 247 73 387
h274z" />
    <glyph glyph-name="copyright" unicode="&#xa9;" 
d="M229 594c-5 -27 -7 -53 -7 -78c0 -172 117 -300 288 -300c196 0 380 168 421 378c5 28 8 55 8 81c0 170 -112 296 -282 296c-196 0 -387 -167 -428 -377zM56 592c65 333 297 554 631 554c253 0 427 -190 427 -442c0 -36 -4 -74 -11 -112c-64 -331 -286 -553 -631 -553
c-253 0 -427 189 -427 441c0 36 4 74 11 112zM616 719c-46 0 -81 -60 -96 -136c-3 -13 -4 -27 -4 -40c0 -41 13 -80 50 -80c32 0 55 9 80 57l156 -84c-93 -123 -208 -138 -271 -138c-105 0 -213 57 -213 207c0 23 3 47 8 74c35 180 165 304 324 304c72 0 174 -39 199 -131
l-181 -88c-9 39 -16 55 -52 55z" />
    <glyph glyph-name="registered" unicode="&#xae;" 
d="M56 592c89 425 349 554 605 554s451 -195 451 -452c0 -33 -2 -67 -9 -102c-82 -424 -338 -553 -598 -553c-285 0 -459 221 -459 456c0 32 3 65 10 97zM685 515c27 -51 77 -103 122 -131l-168 -118c-53 35 -108 160 -108 228h-9l-40 -211h-160c49 -42 113 -67 188 -67
c196 0 367 133 421 378c6 29 9 58 9 85c0 167 -115 292 -283 292c-196 0 -374 -98 -428 -377c-5 -27 -7 -53 -7 -78c0 -90 32 -167 87 -221l86 441c10 54 16 91 23 140c83 13 157 22 219 22c131 0 224 -39 224 -157c0 -17 -2 -35 -6 -55c-16 -81 -88 -146 -170 -171z
M702 698c1 3 1 6 1 9c0 26 -25 43 -93 43c-16 0 -31 -3 -43 -8l-18 -97c12 -7 33 -15 64 -15c70 0 84 40 89 68z" />
    <glyph glyph-name="germandbls" unicode="&#xdf;" 
d="M187 1003c30 156 179 325 386 325c208 0 354 -66 354 -243c0 -23 -3 -49 -8 -76c-24 -123 -83 -194 -173 -230c118 -21 237 -92 237 -284c0 -34 -4 -72 -12 -114c-59 -305 -202 -383 -422 -383c-147 0 -206 59 -206 183c0 34 5 73 13 117l6 24c68 -1 135 -1 203 -2
c-4 -22 -8 -43 -8 -62c0 -34 12 -59 53 -59c54 0 92 48 120 196c3 16 5 32 5 48c0 96 -64 191 -311 191c13 69 27 137 40 206c165 0 188 66 210 163c2 8 2 16 2 23c0 68 -67 96 -120 96c-67 0 -106 -49 -119 -115c-30 -156 -67 -370 -104 -557c-8 -40 -14 -80 -22 -119
c-16 -80 -33 -155 -64 -214c-43 -82 -155 -126 -216 -154c-15 83 -29 165 -44 248c22 10 43 24 56 50s20 62 35 137c3 15 6 31 10 50c38 187 65 381 99 555z" />
    <glyph glyph-name="ampersand" unicode="&#x26;" 
d="M671 94c-103 -82 -211 -116 -331 -116c-179 0 -326 68 -326 277c0 34 4 71 12 112c37 192 158 303 283 391c-64 72 -102 159 -102 237c0 14 1 28 4 42c43 212 222 310 402 310c148 0 270 -53 270 -202c0 -19 -2 -40 -6 -63c-35 -192 -168 -298 -294 -382
c53 -100 105 -200 158 -300c16 17 28 46 35 83c7 35 10 78 10 125c0 14 -1 29 -1 44h244c-56 -288 -178 -406 -178 -406c28 -48 55 -96 83 -144c-64 -45 -129 -89 -193 -134c-23 42 -47 84 -70 126zM391 573c-54 -43 -100 -129 -114 -203c-4 -21 -7 -43 -7 -64
c0 -66 26 -125 113 -125c86 0 154 27 193 57c-62 112 -123 223 -185 335zM488 867c70 48 131 128 141 189c1 7 2 15 2 22c0 36 -17 68 -63 68c-58 0 -107 -50 -116 -93c-4 -18 -5 -35 -5 -52c0 -50 15 -94 41 -134z" />
    <glyph glyph-name="mu" unicode="&#xb5;" 
d="M241 8c-28 -135 -55 -271 -83 -406c-83 1 -167 2 -250 3c42 208 86 416 127 624c16 82 35 179 54 275c38 197 74 393 74 469c0 7 0 14 -1 19c84 9 169 19 253 28v-10c0 -100 -55 -358 -122 -712v-6c0 -62 16 -86 98 -86c198 0 254 164 264 212l114 582h257
c-45 -231 -91 -463 -136 -694c-1 -4 -1 -7 -1 -11c0 -50 48 -109 92 -129c-59 -61 -119 -122 -178 -183c-58 29 -92 75 -103 125c-90 -77 -212 -103 -363 -106h-9c-29 0 -58 2 -87 6z" />
    <glyph glyph-name="paragraph" unicode="&#xb6;" 
d="M824 1041c5 24 9 47 14 71h-89h-28c-58 -296 -112 -592 -170 -888c-18 -92 -82 -226 -128 -265l-186 102c30 42 67 80 83 160c14 73 29 146 43 219c-140 10 -238 128 -238 332c0 46 5 97 16 152c18 92 54 184 121 250c142 141 316 154 541 154c133 0 170 -8 288 -8
c-86 -443 -173 -886 -259 -1329c-72 0 -145 -1 -217 -1c66 342 124 614 209 1051z" />
    <glyph glyph-name="periodcentered" unicode="&#xb7;" 
d="M414 700h315c-20 -104 -41 -209 -61 -313h-315c20 104 41 209 61 313z" />
    <glyph glyph-name="questiondown" unicode="&#xbf;" 
d="M800.92 744h-352c17 90 35 180 52 270h352c-17 -90 -35 -180 -52 -270zM920.92 -201c-174 -127 -370 -130 -469 -130h-13c-225 0 -393 99 -393 275c0 25 3 51 8 79c32 170 148 236 249 306c67 47 133 118 150 206c3 16 6 33 9 49c91 0 181 -1 272 -1
c-3 -15 -5 -29 -8 -44c-28 -146 -149 -259 -230 -320c-96 -73 -174 -112 -191 -199c-3 -15 -4 -30 -4 -43c0 -69 74 -116 165 -116c50 0 180 1 318 140c46 -67 91 -135 137 -202z" />
    <glyph glyph-name="dieresis" unicode="&#xa8;" 
d="M843 1424l281 -3l-46 -238l-282 1zM423 1424h279l-47 -240h-279z" />
    <glyph glyph-name="acute" unicode="&#xb4;" 
d="M404 1441c152 48 348 160 484 268c34 -57 67 -115 101 -172c-133 -112 -377 -223 -529 -270c-19 58 -37 116 -56 174z" />
    <glyph glyph-name="degree" unicode="&#xb0;" 
d="M678 1379c144 0 244 -103 244 -239c0 -224 -186 -352 -359 -352c-144 0 -244 102 -244 238c0 220 186 353 359 353zM516 1063c0 -47 35 -83 85 -83c61 0 125 53 125 123c0 47 -35 83 -85 83c-61 0 -125 -53 -125 -123z" />
    <glyph glyph-name="macron" unicode="&#xaf;" 
d="M985 1657c-13 -65 -25 -129 -38 -194h-17c-58 -2 -157 -7 -231 -7s-166 1 -234 3c-6 0 -12 1 -18 1c13 66 25 131 38 197c6 -1 13 -2 19 -2c65 -2 179 -3 271 -3c61 0 148 5 193 5h17z" />
    <glyph glyph-name="dotlessi" unicode="&#x131;" 
d="M481 1039c83 -9 167 -17 250 -26c-53 -273 -133 -687 -133 -687c-3 -17 -5 -34 -5 -51c0 -49 18 -93 86 -93c93 0 160 33 231 91c20 -63 40 -127 60 -190c-100 -71 -256 -101 -380 -101c-192 0 -269 79 -269 203c0 23 3 47 8 73c31 160 62 319 93 479
c0 0 -34 -34 -134 -82c-37 61 -74 123 -111 184c124 40 249 98 304 200z" />
    <glyph glyph-name="Amacron" unicode="&#x100;" 
d="M1026 1680c-13 -65 -25 -129 -38 -194h-17c-58 -2 -157 -7 -231 -7s-166 1 -234 3c-6 0 -12 1 -18 1c13 66 25 131 38 197c6 -1 13 -2 19 -2c65 -2 179 -3 271 -3c61 0 148 5 193 5h17zM674 504v7c0 114 -38 262 -38 394c0 32 2 63 8 93c-39 -168 -172 -373 -237 -512
c63 13 183 13 267 18zM601 1325h224c49 -442 104 -877 147 -1325h-276c-8 94 -15 188 -23 281c-153 -3 -237 1 -363 -29l-48 -90c-32 -61 -60 -119 -71 -162h-260c16 61 55 143 97 223c191 367 382 735 573 1102z" />
    <glyph glyph-name="amacron" unicode="&#x101;" 
d="M1011 1465c-13 -65 -25 -129 -38 -194h-17c-58 -2 -157 -7 -231 -7s-166 1 -234 3c-6 0 -12 1 -18 1c13 66 25 131 38 197c6 -1 13 -2 19 -2c65 -2 179 -3 271 -3c61 0 148 5 193 5h17zM343 513c-18 -90 -25 -155 -25 -202c0 -121 49 -122 95 -122c110 0 228 186 257 242
c19 99 39 199 58 298c-28 42 -87 90 -151 90c-66 0 -181 -40 -234 -306zM891 316c-3 -17 -5 -33 -5 -49c0 -71 31 -129 70 -166c-53 -44 -105 -88 -158 -132c-41 37 -98 103 -98 196c0 7 0 13 1 20c-81 -136 -196 -196 -378 -196c-135 0 -254 62 -254 313c0 66 9 146 27 241
c76 394 334 485 480 485c81 0 164 -31 202 -87c7 28 13 56 20 84l230 -12c-46 -232 -91 -465 -137 -697z" />
    <glyph glyph-name="Cacute" unicode="&#x106;" 
d="M558 1543c152 48 316 151 452 259c34 -57 102 -125 136 -182c-133 -112 -377 -223 -529 -270c-19 58 -40 135 -59 193zM710 1128c-115 0 -275 -136 -345 -500c-11 -58 -16 -110 -16 -157c0 -176 70 -273 154 -273h14c124 0 175 64 248 194c73 -46 147 -91 220 -137
c-105 -158 -296 -258 -486 -258h-3c-111 0 -237 25 -313 119c-66 86 -99 192 -99 323c0 60 7 125 21 197c50 259 162 418 229 496c93 108 247 200 422 200c140 0 301 -63 358 -225c-85 -42 -171 -83 -256 -125c-26 124 -62 146 -148 146z" />
    <glyph glyph-name="cacute" unicode="&#x107;" 
d="M473 1328c152 48 316 151 452 259c34 -57 102 -125 136 -182c-133 -112 -377 -223 -529 -270c-19 58 -40 135 -59 193zM355 528c-10 -49 -14 -91 -14 -126c0 -194 125 -199 165 -199h12c100 0 167 66 231 147c67 -45 133 -89 200 -134c-97 -150 -243 -223 -461 -223
c-104 0 -226 8 -308 80c-73 67 -103 157 -103 269c0 56 8 118 21 185c66 340 274 491 589 491c182 0 298 -58 382 -142c-57 -67 -115 -133 -172 -200c-20 44 -129 131 -269 131c-147 0 -244 -136 -273 -279z" />
    <glyph glyph-name="Ccircumflex" unicode="&#x108;" 
d="M836 1803l338 -292l-169 -156l-191 201l-268 -189l-128 156zM710 1128c-115 0 -275 -136 -345 -500c-11 -58 -16 -110 -16 -157c0 -176 70 -273 154 -273h14c124 0 175 64 248 194c73 -46 147 -91 220 -137c-105 -158 -296 -258 -486 -258h-3c-111 0 -237 25 -313 119
c-66 86 -99 192 -99 323c0 60 7 125 21 197c50 259 162 418 229 496c93 108 247 200 422 200c140 0 301 -63 358 -225c-85 -42 -171 -83 -256 -125c-26 124 -62 146 -148 146z" />
    <glyph glyph-name="ccircumflex" unicode="&#x109;" 
d="M751 1588l338 -292l-169 -156l-191 201l-268 -189l-128 156zM355 528c-10 -49 -14 -91 -14 -126c0 -194 125 -199 165 -199h12c100 0 167 66 231 147c67 -45 133 -89 200 -134c-97 -150 -243 -223 -461 -223c-104 0 -226 8 -308 80c-73 67 -103 157 -103 269
c0 56 8 118 21 185c66 340 274 491 589 491c182 0 298 -58 382 -142c-57 -67 -115 -133 -172 -200c-20 44 -129 131 -269 131c-147 0 -244 -136 -273 -279z" />
    <glyph glyph-name="Cdotaccent" unicode="&#x10a;" 
d="M706 1693h284c-15 -82 -31 -164 -46 -246h-285c16 82 31 164 47 246zM710 1128c-115 0 -275 -136 -345 -500c-11 -58 -16 -110 -16 -157c0 -176 70 -273 154 -273h14c124 0 175 64 248 194c73 -46 147 -91 220 -137c-105 -158 -296 -258 -486 -258h-3
c-111 0 -237 25 -313 119c-66 86 -99 192 -99 323c0 60 7 125 21 197c50 259 162 418 229 496c93 108 247 200 422 200c140 0 301 -63 358 -225c-85 -42 -171 -83 -256 -125c-26 124 -62 146 -148 146z" />
    <glyph glyph-name="cdotaccent" unicode="&#x10b;" 
d="M621 1478h284c-15 -82 -31 -164 -46 -246h-285c16 82 31 164 47 246zM355 528c-10 -49 -14 -91 -14 -126c0 -194 125 -199 165 -199h12c100 0 167 66 231 147c67 -45 133 -89 200 -134c-97 -150 -243 -223 -461 -223c-104 0 -226 8 -308 80c-73 67 -103 157 -103 269
c0 56 8 118 21 185c66 340 274 491 589 491c182 0 298 -58 382 -142c-57 -67 -115 -133 -172 -200c-20 44 -129 131 -269 131c-147 0 -244 -136 -273 -279z" />
    <glyph glyph-name="Ccaron" unicode="&#x10c;" 
d="M772 1373l-316 297l171 138l173 -189l299 201l112 -175zM710 1128c-115 0 -275 -136 -345 -500c-11 -58 -16 -110 -16 -157c0 -176 70 -273 154 -273h14c124 0 175 64 248 194c73 -46 147 -91 220 -137c-105 -158 -296 -258 -486 -258h-3c-111 0 -237 25 -313 119
c-66 86 -99 192 -99 323c0 60 7 125 21 197c50 259 162 418 229 496c93 108 247 200 422 200c140 0 301 -63 358 -225c-85 -42 -171 -83 -256 -125c-26 124 -62 146 -148 146z" />
    <glyph glyph-name="ccaron" unicode="&#x10d;" 
d="M687 1158l-316 297l171 138l173 -189l299 201l112 -175zM355 528c-10 -49 -14 -91 -14 -126c0 -194 125 -199 165 -199h12c100 0 167 66 231 147c67 -45 133 -89 200 -134c-97 -150 -243 -223 -461 -223c-104 0 -226 8 -308 80c-73 67 -103 157 -103 269
c0 56 8 118 21 185c66 340 274 491 589 491c182 0 298 -58 382 -142c-57 -67 -115 -133 -172 -200c-20 44 -129 131 -269 131c-147 0 -244 -136 -273 -279z" />
    <glyph glyph-name="Dcaron" unicode="&#x10e;" 
d="M611 1373l-316 297l171 138l173 -189l299 201l112 -175zM547 1127h-30c-16 0 -28 0 -46 -3c-4 -26 -9 -56 -15 -87c-12 -63 -18 -84 -31 -153c-58 -306 -118 -588 -138 -686c87 -3 39 -3 99 -3h3c40 0 184 2 280 158c28 45 53 136 64 191c17 86 24 163 24 231
c0 231 -89 352 -210 352zM20 128c11 55 94 452 156 773c5 25 10 51 15 76c25 129 45 252 53 340c83 8 129 14 228 14c295 0 403 -71 498 -265c37 -80 56 -181 56 -290c0 -63 -6 -130 -19 -196c-65 -331 -279 -561 -524 -583c-56 -5 -107 -7 -162 -7c-84 0 -216 7 -330 7
c7 34 7 33 29 131z" />
    <glyph glyph-name="emacron" unicode="&#x113;" 
d="M989 1465c-13 -65 -25 -129 -38 -194h-17c-58 -2 -157 -7 -231 -7s-166 1 -234 3c-6 0 -12 1 -18 1c13 66 25 131 38 197c6 -1 13 -2 19 -2c65 -2 179 -3 271 -3c61 0 148 5 193 5h17zM363 542c134 16 295 58 324 82c24 20 51 54 51 87c0 51 -35 107 -143 107
c-98 0 -199 -104 -232 -276zM632 1021c281 0 359 -169 359 -304c0 -35 -7 -78 -16 -102c-62 -165 -235 -236 -632 -283c0 -64 57 -136 152 -136c106 0 220 27 318 99l102 -180c-170 -90 -227 -125 -466 -125c-238 0 -361 147 -361 376c0 47 5 97 15 150
c55 286 246 505 529 505z" />
    <glyph glyph-name="Emacron" unicode="&#x112;" 
d="M1032 1680c-13 -65 -25 -129 -38 -194h-17c-58 -2 -157 -7 -231 -7s-166 1 -234 3c-6 0 -12 1 -18 1c13 66 25 131 38 197c6 -1 13 -2 19 -2c65 -2 179 -3 271 -3c61 0 148 5 193 5h17zM283 1319c57 4 127 4 205 4h98h110c149 0 285 -3 359 -3h16
c-13 -67 -27 -135 -40 -202h-529c-17 -90 -35 -179 -52 -269h338c-13 -68 -26 -135 -39 -203h-338c-2 -10 -4 -21 -6 -31c-40 -207 -67 -332 -82 -411c139 1 277 1 416 2c56 0 130 27 130 27c11 -66 23 -133 34 -199c-51 -13 -96 -34 -194 -34h-682c85 440 171 879 256 1319
z" />
    <glyph glyph-name="asterisk" unicode="*" 
d="M489 703c12 135 23 271 35 406c98 1 196 1 294 2c-36 -136 -73 -272 -109 -408c106 60 211 120 317 180c22 -83 44 -165 66 -248l-384 -114c74 -90 149 -180 223 -270c-85 -59 -169 -117 -254 -176c-42 118 -85 236 -127 354c-91 -119 -181 -239 -272 -358l-172 172
c105 93 211 187 316 280c-109 31 -219 63 -328 94c47 87 94 173 141 260c85 -58 169 -116 254 -174z" />
    <glyph glyph-name="uni00A0" unicode="&#xa0;" 
 />
    <glyph glyph-name="ordfeminine" unicode="&#xaa;" 
d="M481 1158c-14 -68 -18 -96 -18 -122c0 -51 32 -92 72 -92c53 0 111 26 225 158l39 179c-49 46 -79 55 -127 55c-58 0 -165 -56 -191 -178zM963 1011c-3 -13 -5 -25 -5 -37c0 -32 22 -62 58 -77l-132 -151c-67 22 -109 62 -125 142c-89 -89 -175 -134 -305 -134
c-118 0 -211 77 -211 246c0 50 10 109 24 181c48 247 239 367 419 367c64 0 120 -18 169 -64c6 21 10 37 16 58l211 -8zM198 675h756l-32 -167h-756z" />
    <glyph glyph-name="logicalnot" unicode="&#xac;" 
d="M134 654c45 2 96 3 146 3c100 0 200 -3 268 -3h119c82 0 234 -1 341 -2h18c-10 -52 -21 -104 -31 -156h2c-20 -105 -41 -211 -61 -316h-250c15 77 30 153 45 230h-232c-43 0 -134 3 -234 3c-57 0 -116 -1 -172 -4c8 41 15 81 23 122z" />
    <glyph glyph-name="uni00AD" unicode="&#xad;" 
d="M134 654c45 2 96 3 146 3c100 0 200 -3 268 -3h119c82 0 234 -1 341 -2h18c-16 -82 -32 -163 -48 -245h-18c-134 3 -336 3 -461 3c-43 0 -134 3 -234 3c-57 0 -116 -1 -172 -4c8 41 15 81 23 122z" />
    <glyph glyph-name="uni00B2" unicode="&#xb2;" 
d="M385 1321c53 149 225 206 374 206c133 0 260 -47 260 -181c0 -190 -120 -239 -320 -333c-80 -38 -107 -45 -119 -75l362 5l-34 -174h-623c5 32 11 62 17 95c9 45 18 78 54 122c65 79 445 214 445 311c0 30 -27 62 -72 62c-84 0 -105 -46 -124 -88z" />
    <glyph glyph-name="uni00B3" unicode="&#xb3;" 
d="M437 1013c46 -64 77 -106 170 -106c83 0 136 56 136 124c0 43 -54 66 -154 66l29 134s57 -3 70 -3c55 0 88 34 88 92c0 31 -26 44 -69 44c-66 0 -128 -25 -165 -56l-90 149c61 42 159 73 279 73h11c162 0 251 -52 251 -170c0 -90 -47 -149 -130 -182
c54 -24 90 -79 90 -128c0 -198 -171 -296 -368 -296c-146 0 -248 16 -316 110z" />
    <glyph glyph-name="cedilla" unicode="&#xb8;" 
d="M608 56c-3 -8 -16 -72 -17 -75c85 -4 154 -49 154 -138c0 -12 -1 -25 -4 -38c-27 -129 -153 -203 -311 -203c-66 0 -155 18 -204 54c30 49 59 99 89 148c30 -18 71 -30 122 -30c36 0 74 12 84 50v2c1 3 1 7 1 10c0 25 -20 45 -62 45c-48 0 -81 -2 -111 -12
c12 63 24 125 36 188c74 0 149 -1 223 -1z" />
    <glyph glyph-name="uni00B9" unicode="&#xb9;" 
d="M737 1527l230 -16l-144 -742h-216l101 511c-87 -79 -174 -140 -307 -182l-33 200c150 38 268 95 369 229z" />
    <glyph glyph-name="ordmasculine" unicode="&#xba;" 
d="M198 675h756l-32 -167h-756zM828 1150c5 24 8 46 8 67c0 75 -34 128 -130 128c-99 0 -174 -59 -200 -193c-7 -34 -10 -63 -10 -89c0 -82 35 -124 115 -124c97 0 192 82 217 211zM573 758c-194 0 -287 111 -287 281c0 34 4 71 11 109c53 270 223 378 410 378
c214 0 334 -123 334 -293c0 -25 -3 -50 -8 -77c-60 -309 -249 -398 -460 -398z" />
    <glyph glyph-name="onequarter" unicode="&#xbc;" 
d="M138 687h893l-33 -168h-893zM579 0l46 236c-90 -110 -151 -173 -221 -236h175zM204 16c148 134 278 275 408 421h243l-83 -427l128 3l-35 -181l-127 3l-26 -151h-210l33 151h-284zM737 1527l230 -16l-144 -742h-216l101 511c-87 -79 -174 -140 -307 -182l-33 200
c150 38 268 95 369 229z" />
    <glyph glyph-name="onehalf" unicode="&#xbd;" 
d="M138 687h893l-33 -168h-893zM275 241c53 149 225 206 374 206c133 0 260 -47 260 -181c0 -190 -120 -239 -320 -333c-80 -38 -107 -45 -119 -75l362 5l-34 -174h-623c5 32 11 62 17 95c9 45 18 78 54 122c65 79 445 214 445 311c0 30 -27 62 -72 62
c-84 0 -105 -46 -124 -88zM737 1527l230 -16l-144 -742h-216l101 511c-87 -79 -174 -140 -307 -182l-33 200c150 38 268 95 369 229z" />
    <glyph glyph-name="threequarters" unicode="&#xbe;" 
d="M138 687h893l-33 -168h-893zM579 0l46 236c-90 -110 -151 -173 -221 -236h175zM204 16c148 134 278 275 408 421h243l-83 -427l128 3l-35 -181l-127 3l-26 -151h-210l33 151h-284zM437 1013c46 -64 77 -106 170 -106c83 0 136 56 136 124c0 43 -54 66 -154 66l29 134
s57 -3 70 -3c55 0 88 34 88 92c0 31 -26 44 -69 44c-66 0 -128 -25 -165 -56l-90 149c61 42 159 73 279 73h11c162 0 251 -52 251 -170c0 -90 -47 -149 -130 -182c54 -24 90 -79 90 -128c0 -198 -171 -296 -368 -296c-146 0 -248 16 -316 110z" />
    <glyph glyph-name="Thorn" unicode="&#xde;" 
d="M800 829c2 11 3 21 3 31c0 96 -97 128 -171 128h-9c-61 0 -106 -4 -151 -5c-5 -24 -9 -47 -14 -71c-36 -187 -53 -263 -53 -263c36 -1 71 -2 104 -2c116 0 261 22 291 182zM277 -10c-83 0 -167 1 -250 1c86 443 173 886 259 1329c106 0 149 7 253 8
c-8 -43 -17 -86 -25 -129h37c225 0 393 -13 481 -154c28 -45 42 -79 42 -126c0 -22 -3 -46 -9 -75c-41 -207 -203 -405 -547 -405c-48 0 -99 1 -153 3c-52 -268 -57 -293 -88 -452z" />
    <glyph glyph-name="eth" unicode="&#xf0;" 
d="M686 825c-246 0 -331 -174 -359 -321c-7 -37 -11 -75 -11 -110c0 -100 34 -183 134 -183c170 0 258 122 298 329c7 36 11 68 11 96c0 69 -23 121 -73 189zM482 1258c-15 34 -61 65 -62 73c80 38 161 75 241 113c22 -40 55 -81 76 -116c105 31 209 63 314 94
c6 -67 13 -135 19 -202c-86 -13 -171 -26 -257 -39c112 -176 200 -318 200 -509c0 -42 -4 -86 -13 -133c-65 -338 -269 -538 -591 -538h-2c-228 1 -345 157 -345 373c0 42 4 85 13 130c38 191 172 490 545 514c-6 11 -28 53 -51 83c-98 -29 -167 -60 -253 -89
c-7 67 -13 135 -20 202c0 0 121 22 186 44z" />
    <glyph glyph-name="thorn" unicode="&#xfe;" 
d="M173 739c20 105 41 210 61 315c16 83 20 166 23 231c78 9 155 17 233 26c2 -14 4 -32 4 -52c0 -15 -1 -31 -4 -48c-17 -97 -37 -193 -56 -290c68 62 158 90 270 90c214 0 293 -116 293 -294c0 -51 -6 -107 -18 -166c-67 -336 -182 -559 -544 -559c-100 0 -139 37 -162 68
c-4 -40 -4 -77 -10 -121c-6 -30 -12 -61 -18 -91c-18 -94 -28 -178 -34 -246c-83 -2 -166 -5 -249 -7c5 73 19 168 37 259zM719 531c12 62 18 112 18 153c0 87 -28 127 -88 127c-129 0 -186 -67 -248 -155l-66 -345c27 -58 70 -118 145 -118c115 0 187 71 239 338z" />
    <glyph glyph-name="Abreve" unicode="&#x102;" 
d="M753 1651c91 0 173 48 208 141l213 -30c-58 -177 -178 -294 -450 -294c-162 0 -343 78 -347 303l225 30c4 -117 76 -150 151 -150zM674 504v7c0 114 -38 262 -38 394c0 32 2 63 8 93c-39 -168 -172 -373 -237 -512c63 13 183 13 267 18zM601 1325h224
c49 -442 104 -877 147 -1325h-276c-8 94 -15 188 -23 281c-153 -3 -237 1 -363 -29l-48 -90c-32 -61 -60 -119 -71 -162h-260c16 61 55 143 97 223c191 367 382 735 573 1102z" />
    <glyph glyph-name="abreve" unicode="&#x103;" 
d="M738 1436c91 0 173 48 208 141l213 -30c-58 -177 -178 -294 -450 -294c-162 0 -343 78 -347 303l225 30c4 -117 76 -150 151 -150zM343 513c-18 -90 -25 -155 -25 -202c0 -121 49 -122 95 -122c110 0 228 186 257 242c19 99 39 199 58 298c-28 42 -87 90 -151 90
c-66 0 -181 -40 -234 -306zM891 316c-3 -17 -5 -33 -5 -49c0 -71 31 -129 70 -166c-53 -44 -105 -88 -158 -132c-41 37 -98 103 -98 196c0 7 0 13 1 20c-81 -136 -196 -196 -378 -196c-135 0 -254 62 -254 313c0 66 9 146 27 241c76 394 334 485 480 485
c81 0 164 -31 202 -87c7 28 13 56 20 84l230 -12c-46 -232 -91 -465 -137 -697z" />
    <glyph glyph-name="Aogonek" unicode="&#x104;" 
d="M953 0c-259 -100 -392 -145 -419 -248c-1 -3 -1 -5 -1 -8c0 -37 50 -49 110 -49c58 0 104 29 138 51l96 -141c-53 -48 -182 -106 -282 -106c-165 0 -318 46 -318 194c0 15 2 32 5 50c36 199 285 245 403 339c1 8 1 16 1 24c0 21 -2 41 -4 61l-9 114
c-153 -3 -237 1 -363 -29l-48 -90c-32 -61 -60 -119 -71 -162h-260c16 61 55 143 97 223c191 367 382 735 573 1102h224c41 -360 82 -721 123 -1081c5 -50 11 -100 11 -151c0 -31 -2 -61 -8 -91zM674 504v7c0 114 -38 262 -38 394c0 32 2 63 8 93
c-39 -168 -172 -373 -237 -512c63 13 183 13 267 18z" />
    <glyph glyph-name="aogonek" unicode="&#x105;" 
d="M343 513c-18 -90 -25 -155 -25 -202c0 -121 49 -122 95 -122c110 0 228 186 257 242c19 99 39 199 58 298c-28 42 -87 90 -151 90c-66 0 -181 -40 -234 -306zM891 316c-5 -27 -8 -49 -8 -67c0 -47 17 -65 43 -65l55 -138c-496 -247 -513 -276 -513 -303
c0 -37 50 -49 110 -49c58 0 103 29 137 51c32 -47 65 -94 97 -141c-53 -48 -183 -106 -283 -106c-165 0 -317 46 -317 194c0 124 123 196 516 404c-14 12 -28 42 -28 69c0 7 0 13 1 20c-115 -132 -242 -196 -378 -196c-135 0 -254 62 -254 313c0 66 9 146 27 241
c76 394 334 485 480 485c81 0 164 -31 202 -87c7 28 13 56 20 84l230 -12c-46 -232 -92 -465 -137 -697z" />
    <glyph glyph-name="dcaron" unicode="&#x10f;" 
d="M1359.86 1410c109 1 218 1 327 2c-19 -100 -39 -200 -58 -300v-3c-38 -197 -158 -366 -340 -442c-21 60 -42 121 -63 181c102 51 165 121 192 259c-38 0 -75 -1 -113 -1c18 101 37 203 55 304zM318 478c-15 -77 -22 -141 -22 -191c0 -73 37 -114 67 -114
c90 0 216 87 304 297l42 213c-22 55 -54 133 -141 133c-54 0 -199 -75 -250 -338zM59 459c74 381 251 557 514 557c114 0 176 -58 208 -86c-1 14 -1 27 -1 40c0 58 6 108 20 182c18 91 41 187 64 260l246 -9c-20 -68 -44 -152 -62 -246c-54 -280 -120 -643 -175 -890
c-2 -8 -3 -16 -5 -24c-8 -34 -10 -71 -10 -107c0 -51 7 -99 21 -130c-72 -5 -143 -11 -215 -16c-14 15 -32 105 -32 158c0 10 1 19 2 26c-62 -125 -182 -181 -306 -181c-150 0 -284 110 -284 322c0 44 5 92 15 144z" />
    <glyph glyph-name="Dcroat" unicode="&#x110;" 
d="M547 1127h-30c-16 0 -28 0 -46 -3c-4 -26 -9 -56 -15 -87c-8 -41 -14 -64 -20 -95h254c-13 -70 -26 -139 -39 -209c-85 0 -171 -1 -256 -1c-48 -244 -91 -452 -108 -534c87 -3 39 -3 99 -3h3c40 0 184 2 280 158c28 45 53 136 64 191c20 101 29 190 29 266
c0 208 -73 317 -215 317zM184 942c2 12 5 23 7 35c25 129 45 252 53 340c83 8 129 14 228 14c271 0 411 -82 498 -265c37 -80 56 -181 56 -290c0 -63 -6 -130 -19 -196c-13 -69 -35 -138 -61 -204c-95 -241 -280 -362 -463 -379c-56 -5 -107 -7 -162 -7c-84 0 -216 7 -330 7
c7 34 7 33 29 131c9 46 68 326 123 604h-70c14 70 27 140 41 210h70z" />
    <glyph glyph-name="dcroat" unicode="&#x111;" 
d="M366 478c-11 -58 -18 -109 -18 -152c0 -97 32 -153 107 -153c61 0 145 74 216 176c22 111 43 223 65 334c-22 55 -69 130 -141 130c-92 0 -179 -72 -229 -335zM107 459c74 381 230 554 493 554c114 0 176 -55 208 -83c0 14 -1 27 -1 40c0 41 3 79 9 123h-280
c13 65 25 129 38 194h283c11 45 22 88 34 125c82 -3 165 -6 247 -9c-11 -35 -23 -74 -34 -116h41c-13 -65 -25 -129 -38 -194h-45c-52 -269 -110 -597 -161 -826c-2 -8 -3 -16 -5 -24c-18 -82 -24 -170 -27 -236c-67 -7 -133 -13 -200 -20c0 0 -25 50 -25 91c0 5 0 10 1 15
c-48 -53 -136 -100 -260 -100c-200 0 -296 101 -296 298c0 50 6 106 18 168z" />
    <glyph glyph-name="Ebreve" unicode="&#x114;" 
d="M759 1651c91 0 173 48 208 141l213 -30c-58 -177 -178 -294 -450 -294c-162 0 -343 78 -347 303l225 30c4 -117 76 -150 151 -150zM283 1319c57 4 127 4 205 4h98h110c149 0 285 -3 359 -3h16c-13 -67 -27 -135 -40 -202h-529c-17 -90 -35 -179 -52 -269h338
c-13 -68 -26 -135 -39 -203h-338c-2 -10 -4 -21 -6 -31c-40 -207 -67 -332 -82 -411c139 1 277 1 416 2c56 0 130 27 130 27c11 -66 23 -133 34 -199c-51 -13 -96 -34 -194 -34h-682c85 440 171 879 256 1319z" />
    <glyph glyph-name="ebreve" unicode="&#x115;" 
d="M716 1436c91 0 173 48 208 141l213 -30c-58 -177 -178 -294 -450 -294c-162 0 -343 78 -347 303l225 30c4 -117 76 -150 151 -150zM363 542c134 16 295 58 324 82c24 20 51 54 51 87c0 51 -35 107 -143 107c-98 0 -199 -104 -232 -276zM632 1021c281 0 359 -169 359 -304
c0 -35 -7 -78 -16 -102c-62 -165 -235 -236 -632 -283c0 -64 57 -136 152 -136c106 0 220 27 318 99l102 -180c-170 -90 -227 -125 -466 -125c-238 0 -361 147 -361 376c0 47 5 97 15 150c55 286 246 505 529 505z" />
    <glyph glyph-name="Edotaccent" unicode="&#x116;" 
d="M641 1693h284c-15 -82 -31 -164 -46 -246h-285c16 82 31 164 47 246zM283 1319c57 4 127 4 205 4h98h110c149 0 285 -3 359 -3h16c-13 -67 -27 -135 -40 -202h-529c-17 -90 -35 -179 -52 -269h338c-13 -68 -26 -135 -39 -203h-338c-2 -10 -4 -21 -6 -31
c-40 -207 -67 -332 -82 -411c139 1 277 1 416 2c56 0 130 27 130 27c11 -66 23 -133 34 -199c-51 -13 -96 -34 -194 -34h-682c85 440 171 879 256 1319z" />
    <glyph glyph-name="edotaccent" unicode="&#x117;" 
d="M598 1478h284c-15 -82 -31 -164 -46 -246h-285c16 82 31 164 47 246zM363 542c134 16 295 58 324 82c24 20 51 54 51 87c0 51 -35 107 -143 107c-98 0 -199 -104 -232 -276zM632 1021c281 0 359 -169 359 -304c0 -35 -7 -78 -16 -102c-62 -165 -235 -236 -632 -283
c0 -64 57 -136 152 -136c106 0 220 27 318 99l102 -180c-170 -90 -227 -125 -466 -125c-238 0 -361 147 -361 376c0 47 5 97 15 150c55 286 246 505 529 505z" />
    <glyph glyph-name="Eogonek" unicode="&#x118;" 
d="M283 1319c57 4 127 4 205 4h98h110c149 0 285 -3 359 -3h16c-13 -67 -27 -135 -40 -202h-529c-17 -90 -35 -179 -52 -269h338c-13 -68 -26 -135 -39 -203h-338c-2 -10 -4 -21 -6 -31c-40 -207 -67 -332 -82 -411c139 1 277 1 416 2c56 0 130 27 130 27
c11 -66 23 -133 34 -199c-308 -160 -434 -183 -460 -283c-1 -3 -1 -5 -1 -8c0 -37 50 -49 110 -49c58 0 103 29 137 51c32 -47 65 -94 97 -141c-53 -48 -182 -105 -282 -105c-165 0 -318 46 -318 194c0 15 2 32 5 50c23 125 124 168 296 257h-460c85 440 171 879 256 1319z
" />
    <glyph glyph-name="eogonek" unicode="&#x119;" 
d="M421 -9c-220 11 -333 155 -333 375c0 47 5 97 15 150c55 286 246 505 529 505c281 0 359 -169 359 -304c0 -35 -7 -78 -16 -102c-62 -165 -235 -236 -632 -283c0 -64 57 -136 152 -136c106 0 220 27 318 99l102 -180c-482 -269 -517 -321 -517 -372c0 -37 50 -49 110 -49
c58 0 103 29 137 51c32 -47 65 -94 97 -141c-53 -48 -183 -106 -283 -106c-165 0 -317 46 -317 194c0 86 49 152 279 299zM363 542c134 16 295 58 324 82c24 20 51 54 51 87c0 51 -35 107 -143 107c-98 0 -199 -104 -232 -276z" />
    <glyph glyph-name="Ecaron" unicode="&#x11a;" 
d="M707 1373l-316 297l171 138l173 -189l299 201l112 -175zM283 1319c57 4 127 4 205 4h98h110c149 0 285 -3 359 -3h16c-13 -67 -27 -135 -40 -202h-529c-17 -90 -35 -179 -52 -269h338c-13 -68 -26 -135 -39 -203h-338c-2 -10 -4 -21 -6 -31c-40 -207 -67 -332 -82 -411
c139 1 277 1 416 2c56 0 130 27 130 27c11 -66 23 -133 34 -199c-51 -13 -96 -34 -194 -34h-682c85 440 171 879 256 1319z" />
    <glyph glyph-name="ecaron" unicode="&#x11b;" 
d="M664 1158l-316 297l171 138l173 -189l299 201l112 -175zM363 542c134 16 295 58 324 82c24 20 51 54 51 87c0 51 -35 107 -143 107c-98 0 -199 -104 -232 -276zM632 1021c281 0 359 -169 359 -304c0 -35 -7 -78 -16 -102c-62 -165 -235 -236 -632 -283
c0 -64 57 -136 152 -136c106 0 220 27 318 99l102 -180c-170 -90 -227 -125 -466 -125c-238 0 -361 147 -361 376c0 47 5 97 15 150c55 286 246 505 529 505z" />
    <glyph glyph-name="Gcircumflex" unicode="&#x11c;" 
d="M811 1803l338 -292l-169 -156l-191 201l-268 -189l-128 156zM1064 758c-11 -57 -22 -115 -33 -172c-87 -444 -227 -536 -414 -583c-47 -10 -112 -11 -154 -11c-293 0 -414 191 -414 450c0 63 8 130 21 199c46 242 138 439 294 569c117 90 237 118 352 118h20
c213 -5 344 -91 387 -257c-85 -39 -171 -77 -256 -116c-13 118 -52 166 -184 166c-168 0 -299 -202 -355 -491c-13 -68 -20 -129 -20 -183c0 -156 57 -249 185 -249c172 0 232 176 270 370c-21 0 -43 -1 -64 -1c-71 0 -100 -3 -197 -37c-14 67 -27 134 -41 201
c103 37 208 43 309 43c103 0 219 -10 294 -16z" />
    <glyph glyph-name="gcircumflex" unicode="&#x11d;" 
d="M748 1588l338 -292l-169 -156l-191 201l-268 -189l-128 156zM279 346c0 -112 35 -135 80 -135c98 0 359 293 389 390c6 38 13 75 19 113c-30 38 -100 113 -204 113c-150 0 -284 -174 -284 -481zM1075 1013l-129 -657c-76 -385 -216 -758 -612 -758
c-115 0 -256 42 -429 145c33 67 66 135 99 202c145 -101 258 -130 347 -130c212 0 293 295 331 418c-58 -84 -169 -241 -381 -241c-155 0 -255 148 -255 351c0 389 225 691 538 691c126 0 193 -53 241 -86c4 19 14 55 20 77c77 -4 153 -8 230 -12z" />
    <glyph glyph-name="Gbreve" unicode="&#x11e;" 
d="M799 1651c91 0 173 48 208 141l213 -30c-58 -177 -178 -294 -450 -294c-162 0 -343 78 -347 303l225 30c4 -117 76 -150 151 -150zM1064 758c-11 -57 -22 -115 -33 -172c-87 -444 -227 -536 -414 -583c-47 -10 -112 -11 -154 -11c-293 0 -414 191 -414 450
c0 63 8 130 21 199c46 242 138 439 294 569c117 90 237 118 352 118h20c213 -5 344 -91 387 -257c-85 -39 -171 -77 -256 -116c-13 118 -52 166 -184 166c-168 0 -299 -202 -355 -491c-13 -68 -20 -129 -20 -183c0 -156 57 -249 185 -249c172 0 232 176 270 370
c-21 0 -43 -1 -64 -1c-71 0 -100 -3 -197 -37c-14 67 -27 134 -41 201c103 37 208 43 309 43c103 0 219 -10 294 -16z" />
    <glyph glyph-name="gbreve" unicode="&#x11f;" 
d="M736 1436c91 0 173 48 208 141l213 -30c-58 -177 -178 -294 -450 -294c-162 0 -343 78 -347 303l225 30c4 -117 76 -150 151 -150zM279 346c0 -112 35 -135 80 -135c98 0 359 293 389 390c6 38 13 75 19 113c-30 38 -100 113 -204 113c-150 0 -284 -174 -284 -481z
M1075 1013l-129 -657c-76 -385 -216 -758 -612 -758c-115 0 -256 42 -429 145c33 67 66 135 99 202c145 -101 258 -130 347 -130c212 0 293 295 331 418c-58 -84 -169 -241 -381 -241c-155 0 -255 148 -255 351c0 389 225 691 538 691c126 0 193 -53 241 -86
c4 19 14 55 20 77c77 -4 153 -8 230 -12z" />
    <glyph glyph-name="Gdotaccent" unicode="&#x120;" 
d="M681 1693h284c-15 -82 -31 -164 -46 -246h-285c16 82 31 164 47 246zM1064 758c-11 -57 -22 -115 -33 -172c-87 -444 -227 -536 -414 -583c-47 -10 -112 -11 -154 -11c-293 0 -414 191 -414 450c0 63 8 130 21 199c46 242 138 439 294 569c117 90 237 118 352 118h20
c213 -5 344 -91 387 -257c-85 -39 -171 -77 -256 -116c-13 118 -52 166 -184 166c-168 0 -299 -202 -355 -491c-13 -68 -20 -129 -20 -183c0 -156 57 -249 185 -249c172 0 232 176 270 370c-21 0 -43 -1 -64 -1c-71 0 -100 -3 -197 -37c-14 67 -27 134 -41 201
c103 37 208 43 309 43c103 0 219 -10 294 -16z" />
    <glyph glyph-name="gdotaccent" unicode="&#x121;" 
d="M618 1478h284c-15 -82 -31 -164 -46 -246h-285c16 82 31 164 47 246zM279 346c0 -112 35 -135 80 -135c98 0 359 293 389 390c6 38 13 75 19 113c-30 38 -100 113 -204 113c-150 0 -284 -174 -284 -481zM1075 1013l-129 -657c-76 -385 -216 -758 -612 -758
c-115 0 -256 42 -429 145c33 67 66 135 99 202c145 -101 258 -130 347 -130c212 0 293 295 331 418c-58 -84 -169 -241 -381 -241c-155 0 -255 148 -255 351c0 389 225 691 538 691c126 0 193 -53 241 -86c4 19 14 55 20 77c77 -4 153 -8 230 -12z" />
    <glyph glyph-name="Gcommaaccent" unicode="&#x122;" 
d="M285 -49h270l-42 -215c-29 -151 -72 -215 -218 -317l-109 125c61 42 90 75 112 186h-56zM1064 758c-11 -57 -22 -115 -33 -172c-87 -444 -227 -536 -414 -583c-47 -10 -112 -11 -154 -11c-293 0 -414 191 -414 450c0 63 8 130 21 199c46 242 138 439 294 569
c117 90 237 118 352 118h20c213 -5 344 -91 387 -257c-85 -39 -171 -77 -256 -116c-13 118 -52 166 -184 166c-168 0 -299 -202 -355 -491c-13 -68 -20 -129 -20 -183c0 -156 57 -249 185 -249c172 0 232 176 270 370c-21 0 -43 -1 -64 -1c-71 0 -100 -3 -197 -37
c-14 67 -27 134 -41 201c103 37 208 43 309 43c103 0 219 -10 294 -16z" />
    <glyph glyph-name="gcommaaccent" unicode="&#x123;" 
d="M585 1234c60 112 108 221 182 372l183 -33c-46 -142 -100 -283 -141 -386zM279 346c0 -112 35 -135 80 -135c98 0 359 293 389 390c6 38 13 75 19 113c-30 38 -100 113 -204 113c-150 0 -284 -174 -284 -481zM1075 1013l-129 -657c-76 -385 -216 -758 -612 -758
c-115 0 -256 42 -429 145c33 67 66 135 99 202c145 -101 258 -130 347 -130c212 0 293 295 331 418c-58 -84 -169 -241 -381 -241c-155 0 -255 148 -255 351c0 389 225 691 538 691c126 0 193 -53 241 -86c4 19 14 55 20 77c77 -4 153 -8 230 -12z" />
    <glyph glyph-name="Hcircumflex" unicode="&#x124;" 
d="M739 1803l338 -292l-169 -156l-191 201l-268 -189l-128 156zM499 1322l-105 -537c96 21 157 29 277 29h87c54 280 65 338 97 503h256c-85 -439 -171 -878 -256 -1317h-255c39 200 77 399 116 599h-32c-146 0 -209 -3 -332 -29c-68 -350 -73 -385 -109 -570h-258
c86 440 171 880 257 1320c86 1 171 1 257 2z" />
    <glyph glyph-name="hcircumflex" unicode="&#x125;" 
d="M461 1881l338 -292l-169 -156l-191 201l-268 -189l-128 156zM977 566c-20 -103 -40 -207 -60 -310c-5 -26 -8 -48 -8 -66c0 -38 12 -62 41 -93l-213 -129c-38 27 -86 80 -86 163c0 14 1 29 4 45c20 105 41 210 61 315c18 95 25 160 25 205c0 98 -33 100 -58 100h-3
c-105 0 -288 -225 -341 -378c-27 -139 -54 -279 -81 -418h-245c75 385 151 770 225 1156c18 94 26 178 32 246c83 3 167 6 250 9c-5 -73 -41 -278 -59 -369c-17 -90 -81 -199 -114 -276c42 28 171 247 393 247c132 0 252 -87 252 -302c0 -43 -4 -91 -15 -145z" />
    <glyph glyph-name="Hbar" unicode="&#x126;" 
d="M218 1198c8 41 16 81 24 122c86 1 171 1 257 2c-8 -41 -16 -83 -24 -124h357c7 36 14 73 23 119h256c-8 -40 -15 -79 -23 -119h80c-13 -69 -27 -138 -40 -207h-80c-64 -330 -129 -661 -193 -991h-255c39 200 77 399 116 599h-32c-146 0 -209 -3 -332 -29
c-68 -350 -73 -385 -109 -570h-258c64 330 129 661 193 991h-60c13 69 27 138 40 207h60zM793 991h-359c-13 -69 -27 -137 -40 -206c96 21 157 29 277 29h87c14 72 26 129 35 177z" />
    <glyph glyph-name="hbar" unicode="&#x127;" 
d="M1007 566c-23 -116 -45 -232 -68 -348c-10 -52 -17 -102 -17 -141c0 -22 2 -41 7 -55c-79 -18 -159 -36 -238 -54c-10 18 -17 48 -17 91c0 32 4 70 13 117c20 105 41 210 61 315c15 75 21 132 21 176c0 138 -62 145 -132 145c-72 0 -149 -75 -193 -130
c-44 -227 -89 -455 -133 -682h-246c73 371 145 743 218 1114h-141c13 69 27 138 40 207h133c3 29 7 56 9 81l249 9c-2 -27 -5 -58 -9 -90h332c-13 -69 -27 -138 -40 -207h-327c-15 -69 -31 -119 -59 -185c42 28 126 83 240 83c204 0 314 -82 314 -287c0 -47 -5 -99 -17 -159
z" />
    <glyph glyph-name="Itilde" unicode="&#x128;" 
d="M602 1701c136 0 184 -52 223 -91c23 -23 43 -41 76 -41c50 0 81 31 100 100l172 -54c-40 -96 -123 -224 -285 -224c-111 0 -167 64 -213 102c-26 22 -37 28 -81 28c-42 0 -78 -37 -99 -100l-178 78c51 93 144 202 285 202zM314 1324c157 4 258 5 354 5
c105 0 205 -1 368 -3c-14 -70 -28 -141 -42 -211c-123 0 -134 5 -229 5c-58 -300 -117 -601 -175 -901c46 0 31 1 82 1c45 0 92 -1 143 -4c-14 -72 -27 -145 -41 -217c-84 5 -146 6 -209 6c-47 0 -96 -1 -155 -1c-74 0 -197 -7 -352 -7l42 216c86 4 124 5 181 5h52
c59 300 117 601 176 901c-66 -1 -123 -1 -230 -7c12 71 23 141 35 212z" />
    <glyph glyph-name="itilde" unicode="&#x129;" 
d="M550 1486c136 0 184 -52 223 -91c23 -23 43 -41 76 -41c50 0 81 31 100 100l172 -54c-40 -96 -123 -224 -285 -224c-111 0 -167 64 -213 102c-26 22 -37 28 -81 28c-42 0 -78 -37 -99 -100l-178 78c51 93 144 202 285 202zM481 1039c83 -9 167 -17 250 -26
c-53 -273 -133 -687 -133 -687c-3 -17 -5 -34 -5 -51c0 -49 18 -93 86 -93c93 0 160 33 231 91c20 -63 40 -127 60 -190c-100 -71 -256 -101 -380 -101c-192 0 -269 79 -269 203c0 23 3 47 8 73c31 160 62 319 93 479c0 0 -34 -34 -134 -82c-37 61 -74 123 -111 184
c124 40 249 98 304 200z" />
    <glyph glyph-name="Imacron" unicode="&#x12a;" 
d="M993 1680c-13 -65 -25 -129 -38 -194h-17c-58 -2 -157 -7 -231 -7s-166 1 -234 3c-6 0 -12 1 -18 1c13 66 25 131 38 197c6 -1 13 -2 19 -2c65 -2 179 -3 271 -3c61 0 148 5 193 5h17zM314 1324c157 4 258 5 354 5c105 0 205 -1 368 -3c-14 -70 -28 -141 -42 -211
c-123 0 -134 5 -229 5c-58 -300 -117 -601 -175 -901c46 0 31 1 82 1c45 0 92 -1 143 -4c-14 -72 -27 -145 -41 -217c-84 5 -146 6 -209 6c-47 0 -96 -1 -155 -1c-74 0 -197 -7 -352 -7l42 216c86 4 124 5 181 5h52c59 300 117 601 176 901c-66 -1 -123 -1 -230 -7
c12 71 23 141 35 212z" />
    <glyph glyph-name="imacron" unicode="&#x12b;" 
d="M941 1465c-13 -65 -25 -129 -38 -194h-17c-58 -2 -157 -7 -231 -7s-166 1 -234 3c-6 0 -12 1 -18 1c13 66 25 131 38 197c6 -1 13 -2 19 -2c65 -2 179 -3 271 -3c61 0 148 5 193 5h17zM481 1039c83 -9 167 -17 250 -26c-53 -273 -133 -687 -133 -687
c-3 -17 -5 -34 -5 -51c0 -49 18 -93 86 -93c93 0 160 33 231 91c20 -63 40 -127 60 -190c-100 -71 -256 -101 -380 -101c-192 0 -269 79 -269 203c0 23 3 47 8 73c31 160 62 319 93 479c0 0 -34 -34 -134 -82c-37 61 -74 123 -111 184c124 40 249 98 304 200z" />
    <glyph glyph-name="Ibreve" unicode="&#x12c;" 
d="M720 1651c91 0 173 48 208 141l213 -30c-58 -177 -178 -294 -450 -294c-162 0 -343 78 -347 303l225 30c4 -117 76 -150 151 -150zM314 1324c157 4 258 5 354 5c105 0 205 -1 368 -3c-14 -70 -28 -141 -42 -211c-123 0 -134 5 -229 5c-58 -300 -117 -601 -175 -901
c46 0 31 1 82 1c45 0 92 -1 143 -4c-14 -72 -27 -145 -41 -217c-84 5 -146 6 -209 6c-47 0 -96 -1 -155 -1c-74 0 -197 -7 -352 -7l42 216c86 4 124 5 181 5h52c59 300 117 601 176 901c-66 -1 -123 -1 -230 -7c12 71 23 141 35 212z" />
    <glyph glyph-name="ibreve" unicode="&#x12d;" 
d="M668 1436c91 0 173 48 208 141l213 -30c-58 -177 -178 -294 -450 -294c-162 0 -343 78 -347 303l225 30c4 -117 76 -150 151 -150zM481 1039c83 -9 167 -17 250 -26c-53 -273 -133 -687 -133 -687c-3 -17 -5 -34 -5 -51c0 -49 18 -93 86 -93c93 0 160 33 231 91
c20 -63 40 -127 60 -190c-100 -71 -256 -101 -380 -101c-192 0 -269 79 -269 203c0 23 3 47 8 73c31 160 62 319 93 479c0 0 -34 -34 -134 -82c-37 61 -74 123 -111 184c124 40 249 98 304 200z" />
    <glyph glyph-name="Iogonek" unicode="&#x12e;" 
d="M314 1324c157 4 258 5 354 5c105 0 205 -1 368 -3c-14 -70 -28 -141 -42 -211c-123 0 -134 5 -229 5c-58 -300 -117 -601 -175 -901c46 0 31 1 82 1c45 0 92 -1 143 -4c-14 -72 -27 -145 -41 -217c-260 -65 -383 -146 -409 -246c-1 -3 -1 -5 -1 -8c0 -37 50 -49 110 -49
c58 0 104 29 138 51l96 -141c-53 -48 -182 -106 -282 -106c-165 0 -318 46 -318 194c0 15 2 32 5 50c21 119 113 179 277 260c-75 -1 -190 -7 -332 -7l42 216c86 4 124 5 181 5h52c59 300 117 601 176 901c-66 -1 -123 -1 -230 -7c12 71 23 141 35 212z" />
    <glyph glyph-name="iogonek" unicode="&#x12f;" 
d="M527 1406h291c-14 -75 -29 -150 -43 -225h-291c14 75 29 150 43 225zM476 1013h255c-53 -273 -143 -739 -143 -739c-2 -13 -4 -25 -4 -35c0 -39 22 -57 95 -57c93 0 160 33 231 91c20 -63 40 -127 60 -190c-2 -2 -5 -4 -8 -6c-298 -202 -446 -207 -458 -325
c0 -2 -1 -5 -1 -7c0 -34 50 -51 110 -51c58 0 104 30 138 52c32 -47 64 -95 96 -142c-53 -48 -182 -105 -282 -105c-165 0 -318 46 -318 194c0 15 2 32 5 50c20 112 117 161 260 243c-58 6 -108 17 -136 34c-51 31 -64 77 -64 122c0 22 3 44 7 64c39 202 79 405 118 607
c-49 0 -140 -6 -239 -28c2 62 5 124 7 186c99 28 191 42 271 42z" />
    <glyph glyph-name="Idotaccent" unicode="&#x130;" 
d="M602 1693h284c-15 -82 -31 -164 -46 -246h-285c16 82 31 164 47 246zM314 1324c157 4 258 5 354 5c105 0 205 -1 368 -3c-14 -70 -28 -141 -42 -211c-123 0 -134 5 -229 5c-58 -300 -117 -601 -175 -901c46 0 31 1 82 1c45 0 92 -1 143 -4c-14 -72 -27 -145 -41 -217
c-84 5 -146 6 -209 6c-47 0 -96 -1 -155 -1c-74 0 -197 -7 -352 -7l42 216c86 4 124 5 181 5h52c59 300 117 601 176 901c-66 -1 -123 -1 -230 -7c12 71 23 141 35 212z" />
    <glyph glyph-name="IJ" unicode="&#x132;" 
d="M656 0c-183 0 -247 130 -247 292c0 46 5 94 14 143c78 0 157 -1 235 -1c-7 -47 -11 -86 -11 -118c0 -71 17 -104 44 -104c61 0 90 91 154 427c14 75 42 267 42 388c0 31 -1 58 -6 77c-49 0 -44 4 -72 4c-79 -3 -90 -12 -111 -18c5 71 9 141 14 212c23 7 49 19 138 22
c109 0 271 -1 388 -1c-15 -72 -29 -145 -44 -217c-36 0 -22 1 -72 1c0 -119 -12 -357 -34 -468c-75 -379 -162 -639 -432 -639zM192 1324c87 4 142 5 195 5c58 0 112 -1 202 -3c-14 -70 -27 -141 -41 -211c-19 2 -37 3 -56 5c-58 -300 -117 -600 -175 -900
c18 -1 36 -3 54 -4c-14 -72 -28 -145 -42 -217c-46 5 -79 6 -114 6c-26 0 -53 -1 -85 -1c-41 0 -110 -7 -195 -7l42 216c39 3 60 5 83 5c59 300 117 601 176 901c-27 -2 -55 -5 -82 -7c13 71 25 141 38 212z" />
    <glyph glyph-name="ij" unicode="&#x133;" 
d="M290 1013h256c-48 -246 -96 -493 -144 -739c-4 -23 -8 -42 -8 -56c0 -25 11 -36 49 -36c60 0 72 2 121 60c20 -53 39 -106 59 -159c-69 -71 -172 -101 -251 -101c-54 0 -142 14 -181 38c-51 32 -65 78 -65 123c0 22 3 44 7 63c39 202 79 405 118 607h-25
c-24 0 -33 -2 -111 -19l6 186c99 28 89 33 169 33zM900 -78c-30 -153 -143 -311 -429 -311c-26 0 -52 -1 -78 -1c-95 0 -195 14 -367 146l183 174c105 -116 209 -118 273 -118h6h18c120 0 137 105 146 140c56 287 111 574 167 861h-30c-35 0 -70 -2 -148 -19l6 186
c99 28 131 33 211 33h254c-71 -364 -141 -727 -212 -1091zM892 1406h290c-14 -75 -29 -150 -43 -225h-290c14 75 29 150 43 225zM342 1406h292c-14 -75 -29 -150 -43 -225h-292c14 75 29 150 43 225z" />
    <glyph glyph-name="Jcircumflex" unicode="&#x134;" 
d="M755 1803l338 -292l-169 -156l-191 201l-268 -189l-128 156zM337 -8c-228 0 -316 153 -316 331c0 37 4 74 11 112c87 0 173 -1 260 -1c-5 -31 -7 -58 -7 -83c0 -98 35 -147 88 -147c198 0 288 571 323 902c-49 0 -161 2 -198 2c-105 -3 -93 -12 -121 -18
c-14 71 -27 141 -41 212c31 7 39 19 158 22c145 0 338 -1 494 -1c-129 -864 -225 -1331 -651 -1331z" />
    <glyph glyph-name="jcircumflex" unicode="&#x135;" 
d="M743 1588l338 -292l-169 -156l-191 201l-268 -189l-128 156zM752 -78c-30 -153 -142 -311 -428 -311c-123 0 -273 28 -359 233c64 49 128 99 192 148c58 -145 120 -180 183 -180h18c120 0 137 105 146 140c51 254 102 507 153 761c2 11 3 23 3 33c0 53 -29 88 -85 88
c-50 0 -120 -28 -210 -97l-120 135c153 120 243 141 396 141c225 0 273 -154 273 -238c0 -12 -1 -24 -3 -32c-53 -274 -106 -547 -159 -821z" />
    <glyph glyph-name="Kcommaaccent" unicode="&#x136;" 
d="M341 -49h270l-42 -215c-29 -151 -72 -215 -218 -317l-109 125c61 42 90 75 112 186h-56zM638 742c97 -119 330 -550 354 -688c-78 -29 -156 -57 -234 -86c-24 111 -188 477 -293 606c0 0 -68 -62 -112 -134c-29 -148 -58 -297 -87 -445h-258c87 447 173 893 260 1340h258
c-30 -155 -60 -309 -90 -464c131 145 518 468 562 505l162 -177c-208 -135 -448 -383 -522 -457z" />
    <glyph glyph-name="kcommaaccent" unicode="&#x137;" 
d="M345 -49h270l-42 -215c-29 -151 -72 -215 -218 -317l-109 125c61 42 90 75 112 186h-56zM560 1293c-19 -96 -59 -301 -102 -523c-12 -63 -34 -129 -58 -196c159 202 333 359 501 479l167 -155c-161 -124 -324 -267 -464 -432c90 -128 194 -215 340 -252l-53 -241
c-183 47 -335 180 -443 326c-68 -87 -108 -175 -140 -299h-247h-2c80 409 159 819 239 1228c7 37 10 71 10 101c0 20 -1 38 -3 54c84 15 168 29 252 44c3 -15 9 -39 9 -73c0 -18 -2 -38 -6 -61z" />
    <glyph glyph-name="kgreenlandic" unicode="&#x138;" 
d="M613 534c123 -105 330 -299 363 -424c-87 -42 -173 -84 -260 -126c-24 111 -157 265 -283 396c0 0 -68 -62 -112 -134l-48 -246h-258c66 341 133 681 199 1022h258c-23 -115 -45 -231 -68 -346c131 145 547 362 603 382c34 -67 71 -153 105 -220
c-229 -118 -425 -230 -499 -304z" />
    <glyph glyph-name="Lacute" unicode="&#x139;" 
d="M247 1543c152 48 316 151 452 259c34 -57 102 -125 136 -182c-133 -112 -377 -223 -529 -270c-19 58 -40 135 -59 193zM81 -3c86 443 173 885 259 1328h254c-73 -373 -145 -745 -218 -1118h428c60 3 71 6 118 21c11 -66 23 -131 34 -197c-50 -16 -116 -34 -191 -34h-684z
" />
    <glyph glyph-name="lacute" unicode="&#x13a;" 
d="M289 1623c152 48 316 151 452 259c34 -57 102 -125 136 -182c-133 -112 -377 -223 -529 -270c-19 58 -40 135 -59 193zM648 1422l-189 -987c-5 -30 -8 -57 -8 -81c0 -107 54 -157 173 -157c93 0 196 35 275 87c24 -67 47 -134 71 -201c-100 -71 -248 -101 -372 -101
c-260 0 -412 131 -412 306c0 29 3 59 9 91c66 354 131 709 197 1063c85 -7 171 -13 256 -20z" />
    <glyph glyph-name="Lcommaaccent" unicode="&#x13b;" 
d="M360 -49h270l-42 -215c-29 -151 -72 -215 -218 -317l-109 125c61 42 90 75 112 186h-56zM81 -3c86 443 173 885 259 1328h254c-73 -373 -145 -745 -218 -1118h428c60 3 71 6 118 21c11 -66 23 -131 34 -197c-50 -16 -116 -34 -191 -34h-684z" />
    <glyph glyph-name="lcommaaccent" unicode="&#x13c;" 
d="M388 -49h270l-42 -215c-29 -151 -72 -215 -218 -317l-109 125c61 42 90 75 112 186h-56zM648 1422l-189 -987c-5 -30 -8 -57 -8 -81c0 -107 54 -157 173 -157c93 0 196 35 275 87c24 -67 47 -134 71 -201c-100 -71 -248 -101 -372 -101c-260 0 -412 131 -412 306
c0 29 3 59 9 91c66 354 131 709 197 1063c85 -7 171 -13 256 -20z" />
    <glyph glyph-name="Lcaron" unicode="&#x13d;" 
d="M972 1274c-30 -115 -50 -226 -85 -380l-186 22c14 145 35 290 51 395zM81 -3c86 443 173 885 259 1328h254c-73 -373 -145 -745 -218 -1118h428c60 3 71 6 118 21c11 -66 23 -131 34 -197c-50 -16 -116 -34 -191 -34h-684z" />
    <glyph glyph-name="lcaron" unicode="&#x13e;" 
d="M1019 1393c-30 -115 -50 -226 -85 -380l-186 22c14 145 35 290 51 395zM648 1422l-189 -987c-5 -30 -8 -57 -8 -81c0 -107 54 -157 173 -157c93 0 196 35 275 87c24 -67 47 -134 71 -201c-100 -71 -248 -101 -372 -101c-260 0 -412 131 -412 306c0 29 3 59 9 91
c66 354 131 709 197 1063c85 -7 171 -13 256 -20z" />
    <glyph glyph-name="Ldot" unicode="&#x13f;" 
d="M602.429 834.657h257.5c-16.3486 -81.3662 -33.5156 -163.515 -49.8652 -244.881h-257.5c16.3496 81.3662 33.5166 163.515 49.8652 244.881zM81 -3c86 443 173 885 259 1328h254c-73 -373 -145 -745 -218 -1118h428c60 3 71 6 118 21c11 -66 23 -131 34 -197
c-50 -16 -116 -34 -191 -34h-684z" />
    <glyph glyph-name="ldot" unicode="&#x140;" 
d="M674.429 834.657h257.5c-16.3486 -81.3662 -33.5156 -163.515 -49.8652 -244.881h-257.5c16.3496 81.3662 33.5166 163.515 49.8652 244.881zM648 1422l-189 -987c-5 -30 -8 -57 -8 -81c0 -107 54 -157 173 -157c93 0 196 35 275 87c24 -67 47 -134 71 -201
c-100 -71 -248 -101 -372 -101c-260 0 -412 131 -412 306c0 29 3 59 9 91c66 354 131 709 197 1063c85 -7 171 -13 256 -20z" />
    <glyph glyph-name="Lslash" unicode="&#x141;" 
d="M292 513c-49 -23 -97 -47 -146 -70c-22 65 -43 129 -65 194c86 42 173 83 259 125c37 188 73 375 110 563h254l-84 -429c85 41 171 82 256 123c22 -65 43 -130 65 -195l-369 -177c-29 -147 -57 -293 -86 -440h318c60 3 71 6 118 21c11 -66 23 -131 34 -197
c-50 -16 -116 -34 -191 -34h-574c34 172 67 344 101 516z" />
    <glyph glyph-name="lslash" unicode="&#x142;" 
d="M35 1070c0 232 106 380 400 380c124 0 202 -29 302 -64c61 -21 93 -27 119 -27c36 0 57 13 67 53l192 -102c-74 -128 -156 -162 -260 -162c-47 0 -110 15 -170 40c-8 3 -17 7 -25 10c0 0 -133 -436 -201 -763c-6 -31 -8 -57 -8 -81c0 -107 54 -157 173 -157
c93 0 196 35 275 87c24 -67 47 -134 71 -201c-100 -71 -248 -101 -372 -101c-260 0 -412 131 -412 306c0 29 3 59 9 91c56 299 216 870 216 870c-60 -11 -132 -44 -132 -179h-244z" />
    <glyph glyph-name="Nacute" unicode="&#x143;" 
d="M457 1543c152 48 316 151 452 259c34 -57 102 -125 136 -182c-133 -112 -377 -223 -529 -270c-19 58 -40 135 -59 193zM616 0c-40 259 -117 626 -208 845c-17 -92 -35 -183 -52 -275c-57 -299 -81 -418 -111 -573h-246c86 443 173 885 259 1328c70 -2 139 -5 209 -7
c89 -188 232 -662 253 -911c15 123 21 250 45 371c37 190 76 377 119 551c81 0 163 -1 244 -1c-28 -115 -60 -267 -92 -433c-45 -231 -92 -490 -137 -725c-11 -58 -24 -116 -34 -170h-249z" />
    <glyph glyph-name="nacute" unicode="&#x144;" 
d="M452 1328c152 48 316 151 452 259c34 -57 102 -125 136 -182c-133 -112 -377 -223 -529 -270c-19 58 -40 135 -59 193zM423 821c99 114 181 205 383 205c124 0 218 -50 218 -173c0 -17 -2 -37 -6 -57c-34 -173 -67 -345 -101 -518c-2 -8 -2 -14 -2 -21
c0 -50 41 -70 85 -97c-52 -67 -103 -133 -155 -200c-80 27 -195 89 -195 216c0 14 2 30 5 46l93 477c5 25 8 47 8 65c0 35 -11 55 -40 55c-106 0 -267 -197 -341 -315l-99 -504h-251c46 235 91 471 137 706c23 118 30 170 30 218c0 25 -2 48 -4 80c80 16 161 32 241 48
c1 -5 2 -18 2 -35c0 -56 -6 -158 -8 -196z" />
    <glyph glyph-name="Ncommaaccent" unicode="&#x145;" 
d="M297 -49h270l-42 -215c-29 -151 -72 -215 -218 -317l-109 125c61 42 90 75 112 186h-56zM616 0c-40 259 -117 626 -208 845c-17 -92 -35 -183 -52 -275c-57 -299 -81 -418 -111 -573h-246c86 443 173 885 259 1328c70 -2 139 -5 209 -7c89 -188 232 -662 253 -911
c15 123 21 250 45 371c37 190 76 377 119 551c81 0 163 -1 244 -1c-28 -115 -60 -267 -92 -433c-45 -231 -92 -490 -137 -725c-11 -58 -24 -116 -34 -170h-249z" />
    <glyph glyph-name="ncommaaccent" unicode="&#x146;" 
d="M323 -49h270l-42 -215c-29 -151 -72 -215 -218 -317l-109 125c61 42 90 75 112 186h-56zM423 821c99 114 181 205 383 205c124 0 218 -50 218 -173c0 -17 -2 -37 -6 -57c-34 -173 -67 -345 -101 -518c-2 -8 -2 -14 -2 -21c0 -50 41 -70 85 -97
c-52 -67 -103 -133 -155 -200c-80 27 -195 89 -195 216c0 14 2 30 5 46l93 477c5 25 8 47 8 65c0 35 -11 55 -40 55c-106 0 -267 -197 -341 -315l-99 -504h-251c46 235 91 471 137 706c23 118 30 170 30 218c0 25 -2 48 -4 80c80 16 161 32 241 48c1 -5 2 -18 2 -35
c0 -56 -6 -158 -8 -196z" />
    <glyph glyph-name="Ncaron" unicode="&#x147;" 
d="M671 1373l-316 297l171 138l173 -189l299 201l112 -175zM616 0c-40 259 -117 626 -208 845c-17 -92 -35 -183 -52 -275c-57 -299 -81 -418 -111 -573h-246c86 443 173 885 259 1328c70 -2 139 -5 209 -7c89 -188 232 -662 253 -911c15 123 21 250 45 371
c37 190 76 377 119 551c81 0 163 -1 244 -1c-28 -115 -60 -267 -92 -433c-45 -231 -92 -490 -137 -725c-11 -58 -24 -116 -34 -170h-249z" />
    <glyph glyph-name="ncaron" unicode="&#x148;" 
d="M666 1158l-316 297l171 138l173 -189l299 201l112 -175zM423 821c99 114 181 205 383 205c124 0 218 -50 218 -173c0 -17 -2 -37 -6 -57c-34 -173 -67 -345 -101 -518c-2 -8 -2 -14 -2 -21c0 -50 41 -70 85 -97c-52 -67 -103 -133 -155 -200c-80 27 -195 89 -195 216
c0 14 2 30 5 46l93 477c5 25 8 47 8 65c0 35 -11 55 -40 55c-106 0 -267 -197 -341 -315l-99 -504h-251c46 235 91 471 137 706c23 118 30 170 30 218c0 25 -2 48 -4 80c80 16 161 32 241 48c1 -5 2 -18 2 -35c0 -56 -6 -158 -8 -196z" />
    <glyph glyph-name="Eng" unicode="&#x14a;" 
d="M717 1296c239 0 336 -132 336 -314c0 -39 -5 -80 -13 -122c-45 -231 -85 -460 -131 -695c-2 -11 -5 -23 -7 -34c-50 -256 -129 -527 -629 -527h-34c14 74 29 148 43 222c285 0 332 116 364 280c48 249 97 497 145 746c9 46 14 83 14 114c0 92 -42 121 -131 121
c-105 0 -203 -149 -252 -217c-56 -290 -113 -580 -169 -870c-85 -1 -169 -2 -254 -3l207 1062c7 38 10 73 10 103c0 59 -10 97 -10 97c71 20 143 40 214 60c8 -29 16 -54 16 -97c0 -15 -1 -32 -3 -51c90 75 168 125 284 125z" />
    <glyph glyph-name="eng" unicode="&#x14b;" 
d="M443 927c66 50 171 99 281 99c146 0 253 -52 253 -178c0 -16 -1 -34 -5 -52c-34 -173 -67 -345 -101 -518c-77 -397 -197 -685 -611 -685l42 219c216 0 269 222 300 379c32 169 65 339 97 508c5 24 8 45 8 63c0 36 -14 57 -59 57c-63 0 -136 -38 -235 -112
c-45 -236 -91 -471 -136 -707h-252c46 235 91 471 137 706c23 118 30 170 30 218c0 25 -2 48 -4 80c80 16 161 32 241 48c4 -21 14 -65 14 -109v-16z" />
    <glyph glyph-name="Omacron" unicode="&#x14c;" 
d="M1039 1680c-13 -65 -25 -129 -38 -194h-17c-58 -2 -157 -7 -231 -7s-166 1 -234 3c-6 0 -12 1 -18 1c13 66 25 131 38 197c6 -1 13 -2 19 -2c65 -2 179 -3 271 -3c61 0 148 5 193 5h17zM709 1350c134 0 349 -51 349 -433c0 -76 -9 -165 -28 -270c-1 -4 -1 -7 -2 -11
c-32 -167 -95 -324 -161 -419c-103 -147 -270 -233 -435 -233c-122 0 -263 41 -324 143c-40 66 -57 147 -57 240c0 65 8 136 23 212c69 352 159 511 248 608c84 92 230 160 387 163zM471 187c137 0 260 276 296 453c1 6 3 11 4 17c14 69 29 168 29 258
c0 123 -29 232 -131 232c-139 0 -277 -278 -332 -555c-13 -65 -23 -134 -23 -196c0 -116 36 -209 157 -209z" />
    <glyph glyph-name="omacron" unicode="&#x14d;" 
d="M990 1465c-13 -65 -25 -129 -38 -194h-17c-58 -2 -157 -7 -231 -7s-166 1 -234 3c-6 0 -12 1 -18 1c13 66 25 131 38 197c6 -1 13 -2 19 -2c65 -2 179 -3 271 -3c61 0 148 5 193 5h17zM598 247c57 52 92 156 115 283c1 6 2 10 3 16c8 45 13 87 13 125
c0 94 -31 159 -123 159c-151 0 -223 -140 -263 -348c-7 -37 -11 -72 -11 -103c0 -110 45 -182 139 -182c55 1 84 14 127 50zM431 -6c-254 0 -359 127 -359 327c0 44 5 92 15 143c72 371 252 568 544 568c197 0 294 -69 338 -201c13 -39 18 -86 18 -136
c0 -51 -5 -103 -15 -152c-57 -285 -203 -549 -539 -549h-2z" />
    <glyph glyph-name="Obreve" unicode="&#x14e;" 
d="M766 1651c91 0 173 48 208 141l213 -30c-58 -177 -178 -294 -450 -294c-162 0 -343 78 -347 303l225 30c4 -117 76 -150 151 -150zM709 1350c134 0 349 -51 349 -433c0 -76 -9 -165 -28 -270c-1 -4 -1 -7 -2 -11c-32 -167 -95 -324 -161 -419
c-103 -147 -270 -233 -435 -233c-122 0 -263 41 -324 143c-40 66 -57 147 -57 240c0 65 8 136 23 212c69 352 159 511 248 608c84 92 230 160 387 163zM471 187c137 0 260 276 296 453c1 6 3 11 4 17c14 69 29 168 29 258c0 123 -29 232 -131 232
c-139 0 -277 -278 -332 -555c-13 -65 -23 -134 -23 -196c0 -116 36 -209 157 -209z" />
    <glyph glyph-name="obreve" unicode="&#x14f;" 
d="M717 1436c91 0 173 48 208 141l213 -30c-58 -177 -178 -294 -450 -294c-162 0 -343 78 -347 303l225 30c4 -117 76 -150 151 -150zM598 247c57 52 92 156 115 283c1 6 2 10 3 16c8 45 13 87 13 125c0 94 -31 159 -123 159c-151 0 -223 -140 -263 -348
c-7 -37 -11 -72 -11 -103c0 -110 45 -182 139 -182c55 1 84 14 127 50zM431 -6c-254 0 -359 127 -359 327c0 44 5 92 15 143c72 371 252 568 544 568c197 0 294 -69 338 -201c13 -39 18 -86 18 -136c0 -51 -5 -103 -15 -152c-57 -285 -203 -549 -539 -549h-2z" />
    <glyph glyph-name="Ohungarumlaut" unicode="&#x150;" 
d="M855 1508c135 95 281 261 378 402c59 -42 117 -85 176 -127c-93 -144 -299 -324 -435 -418c-40 48 -79 95 -119 143zM473 1515c135 95 281 261 378 402c59 -42 117 -85 176 -127c-93 -144 -298 -324 -434 -418c-40 48 -80 95 -120 143zM709 1350c134 0 349 -51 349 -433
c0 -76 -9 -165 -28 -270c-1 -4 -1 -7 -2 -11c-32 -167 -95 -324 -161 -419c-103 -147 -270 -233 -435 -233c-122 0 -263 41 -324 143c-40 66 -57 147 -57 240c0 65 8 136 23 212c69 352 159 511 248 608c84 92 230 160 387 163zM471 187c137 0 260 276 296 453
c1 6 3 11 4 17c14 69 29 168 29 258c0 123 -29 232 -131 232c-139 0 -277 -278 -332 -555c-13 -65 -23 -134 -23 -196c0 -116 36 -209 157 -209z" />
    <glyph glyph-name="ohungarumlaut" unicode="&#x151;" 
d="M806 1293c135 95 281 261 378 402c59 -42 117 -85 176 -127c-93 -144 -299 -324 -435 -418c-40 48 -79 95 -119 143zM424 1300c135 95 281 261 378 402c59 -42 117 -85 176 -127c-93 -144 -298 -324 -434 -418c-40 48 -80 95 -120 143zM598 247c57 52 92 156 115 283
c1 6 2 10 3 16c8 45 13 87 13 125c0 94 -31 159 -123 159c-151 0 -223 -140 -263 -348c-7 -37 -11 -72 -11 -103c0 -110 45 -182 139 -182c55 1 84 14 127 50zM431 -6c-254 0 -359 127 -359 327c0 44 5 92 15 143c72 371 252 568 544 568c197 0 294 -69 338 -201
c13 -39 18 -86 18 -136c0 -51 -5 -103 -15 -152c-57 -285 -203 -549 -539 -549h-2z" />
    <glyph glyph-name="Racute" unicode="&#x154;" 
d="M423 1543c152 48 316 151 452 259c34 -57 102 -125 136 -182c-133 -112 -377 -223 -529 -270c-19 58 -40 135 -59 193zM708 548c54 -124 145 -275 188 -341c15 -16 56 -52 96 -63c-51 -63 -103 -125 -154 -188c-56 9 -106 59 -132 102c-76 109 -191 376 -228 472
c-35 3 -71 10 -112 28l-108 -558h-243c74 379 147 757 221 1136c13 68 21 116 29 178c43 4 160 15 221 15c250 0 468 -8 560 -161c24 -40 36 -95 36 -153c0 -29 -3 -58 -9 -87c-45 -224 -183 -350 -365 -380zM807 906c4 21 6 39 6 56c0 125 -103 162 -274 162
c-26 0 -34 0 -63 -1c-23 -118 -46 -237 -69 -355c59 -27 115 -42 158 -42h8c170 0 214 78 234 180z" />
    <glyph glyph-name="racute" unicode="&#x155;" 
d="M472 1328c152 48 316 151 452 259c34 -57 102 -125 136 -182c-133 -112 -377 -223 -529 -270c-19 58 -40 135 -59 193zM514 750c78 120 192 270 353 270c141 0 224 -73 224 -210c0 -25 0 -62 -6 -91l-6 -30c-84 -1 -169 -1 -253 -2c3 13 15 51 15 81c0 22 -6 40 -27 40
c-56 0 -277 -288 -367 -532l-57 -294h-252c47 241 93 481 140 722c1 6 2 13 2 19c0 48 -37 86 -82 135c61 62 123 124 184 186c51 -49 132 -92 132 -294z" />
    <glyph glyph-name="Rcommaaccent" unicode="&#x156;" 
d="M325 -49h270l-42 -215c-29 -151 -72 -215 -218 -317l-109 125c61 42 90 75 112 186h-56zM708 548c54 -124 145 -275 188 -341c15 -16 56 -52 96 -63c-51 -63 -103 -125 -154 -188c-56 9 -106 59 -132 102c-76 109 -191 376 -228 472c-35 3 -71 10 -112 28l-108 -558h-243
c74 379 147 757 221 1136c13 68 21 116 29 178c43 4 160 15 221 15c250 0 468 -8 560 -161c24 -40 36 -95 36 -153c0 -29 -3 -58 -9 -87c-45 -224 -183 -350 -365 -380zM807 906c4 21 6 39 6 56c0 125 -103 162 -274 162c-26 0 -34 0 -63 -1c-23 -118 -46 -237 -69 -355
c59 -27 115 -42 158 -42h8c170 0 214 78 234 180z" />
    <glyph glyph-name="rcommaaccent" unicode="&#x157;" 
d="M134 -49h270l-42 -215c-29 -151 -72 -215 -218 -317l-109 125c61 42 90 75 112 186h-56zM514 750c78 120 192 270 353 270c141 0 224 -73 224 -210c0 -25 0 -62 -6 -91l-6 -30c-84 -1 -169 -1 -253 -2c3 13 15 51 15 81c0 22 -6 40 -27 40c-56 0 -277 -288 -367 -532
l-57 -294h-252c47 241 93 481 140 722c1 6 2 13 2 19c0 48 -37 86 -82 135c61 62 123 124 184 186c51 -49 132 -92 132 -294z" />
    <glyph glyph-name="Rcaron" unicode="&#x158;" 
d="M637 1373l-316 297l171 138l173 -189l299 201l112 -175zM708 548c54 -124 145 -275 188 -341c15 -16 56 -52 96 -63c-51 -63 -103 -125 -154 -188c-56 9 -106 59 -132 102c-76 109 -191 376 -228 472c-35 3 -71 10 -112 28l-108 -558h-243c74 379 147 757 221 1136
c13 68 21 116 29 178c43 4 160 15 221 15c250 0 468 -8 560 -161c24 -40 36 -95 36 -153c0 -29 -3 -58 -9 -87c-45 -224 -183 -350 -365 -380zM807 906c4 21 6 39 6 56c0 125 -103 162 -274 162c-26 0 -34 0 -63 -1c-23 -118 -46 -237 -69 -355c59 -27 115 -42 158 -42h8
c170 0 214 78 234 180z" />
    <glyph glyph-name="rcaron" unicode="&#x159;" 
d="M686 1158l-316 297l171 138l173 -189l299 201l112 -175zM514 750c78 120 192 270 353 270c141 0 224 -73 224 -210c0 -25 0 -62 -6 -91l-6 -30c-84 -1 -169 -1 -253 -2c3 13 15 51 15 81c0 22 -6 40 -27 40c-56 0 -277 -288 -367 -532l-57 -294h-252
c47 241 93 481 140 722c1 6 2 13 2 19c0 48 -37 86 -82 135c61 62 123 124 184 186c51 -49 132 -92 132 -294z" />
    <glyph glyph-name="Sacute" unicode="&#x15a;" 
d="M468 1543c152 48 316 151 452 259c34 -57 102 -125 136 -182c-133 -112 -377 -223 -529 -270c-19 58 -40 135 -59 193zM292 702c-81 41 -128 135 -128 235c0 23 3 46 8 69c48 219 226 322 481 322h9c240 0 383 -46 461 -136l-180 -192c-81 102 -246 118 -316 118
c-50 0 -173 -36 -186 -104c-3 -14 -4 -27 -4 -38c0 -67 44 -87 90 -106c114 -48 183 -57 303 -118c82 -44 156 -125 156 -266c0 -28 -3 -57 -9 -90c-56 -300 -293 -405 -533 -405h-19c-295 8 -402 146 -402 326c0 34 4 69 11 105c89 -1 177 -1 266 -2c-5 -26 -8 -50 -8 -71
c0 -97 54 -149 179 -149c79 0 216 36 245 182c3 15 4 29 4 42c0 82 -53 128 -115 158c-106 51 -192 59 -313 120z" />
    <glyph glyph-name="sacute" unicode="&#x15b;" 
d="M467 1328c152 48 316 151 452 259c34 -57 102 -125 136 -182c-133 -112 -377 -223 -529 -270c-19 58 -40 135 -59 193zM311 549c-60 33 -98 92 -98 173c0 18 2 38 6 59c36 186 238 248 413 248c139 0 256 -16 394 -82c-39 -63 -79 -127 -118 -190c-80 52 -216 72 -312 72
c-82 0 -118 -22 -126 -61c-2 -9 -3 -16 -3 -23c0 -17 6 -31 24 -44c213 -94 426 -132 426 -346c0 -24 -3 -49 -8 -77c-30 -162 -193 -250 -305 -278c-59 -13 -120 -20 -177 -20c-224 0 -352 104 -352 274c0 24 3 49 8 76h253c-4 -18 -5 -34 -5 -49c0 -71 43 -99 133 -99
c59 0 178 20 193 108c2 13 4 25 4 36c0 38 -16 63 -49 89c-60 44 -217 89 -301 134z" />
    <glyph glyph-name="Scircumflex" unicode="&#x15c;" 
d="M746 1803l338 -292l-169 -156l-191 201l-268 -189l-128 156zM292 702c-81 41 -128 135 -128 235c0 23 3 46 8 69c48 219 226 322 481 322h9c240 0 383 -46 461 -136l-180 -192c-81 102 -246 118 -316 118c-50 0 -173 -36 -186 -104c-3 -14 -4 -27 -4 -38
c0 -67 44 -87 90 -106c114 -48 183 -57 303 -118c82 -44 156 -125 156 -266c0 -28 -3 -57 -9 -90c-56 -300 -293 -405 -533 -405h-19c-295 8 -402 146 -402 326c0 34 4 69 11 105c89 -1 177 -1 266 -2c-5 -26 -8 -50 -8 -71c0 -97 54 -149 179 -149c79 0 216 36 245 182
c3 15 4 29 4 42c0 82 -53 128 -115 158c-106 51 -192 59 -313 120z" />
    <glyph glyph-name="scircumflex" unicode="&#x15d;" 
d="M745 1588l338 -292l-169 -156l-191 201l-268 -189l-128 156zM311 549c-60 33 -98 92 -98 173c0 18 2 38 6 59c36 186 238 248 413 248c139 0 256 -16 394 -82c-39 -63 -79 -127 -118 -190c-80 52 -216 72 -312 72c-82 0 -118 -22 -126 -61c-2 -9 -3 -16 -3 -23
c0 -17 6 -31 24 -44c213 -94 426 -132 426 -346c0 -24 -3 -49 -8 -77c-30 -162 -193 -250 -305 -278c-59 -13 -120 -20 -177 -20c-224 0 -352 104 -352 274c0 24 3 49 8 76h253c-4 -18 -5 -34 -5 -49c0 -71 43 -99 133 -99c59 0 178 20 193 108c2 13 4 25 4 36
c0 38 -16 63 -49 89c-60 44 -217 89 -301 134z" />
    <glyph glyph-name="Scedilla" unicode="&#x15e;" 
d="M292 702c-80 40 -129 107 -129 216c0 27 3 56 9 88c42 220 226 322 481 322h9c240 0 421 -82 433 -250c-98 -34 -195 -68 -293 -102c-26 101 -105 142 -175 142c-86 0 -172 -36 -186 -104c-3 -14 -4 -27 -4 -38c0 -67 44 -87 90 -106c114 -48 183 -57 303 -118
c82 -44 156 -125 156 -266c0 -28 -3 -57 -9 -90c-48 -254 -224 -368 -422 -397c-4 -18 -14 -67 -15 -70c85 -4 153 -49 153 -138c0 -12 -1 -24 -4 -38c-26 -130 -153 -202 -311 -202c-66 0 -155 18 -204 54c30 49 59 98 89 147c30 -18 72 -29 123 -29c36 0 73 11 83 49v2
c1 3 1 7 1 10c0 25 -20 46 -62 46c-48 0 -81 -3 -111 -13c12 60 24 121 36 181c-225 32 -310 159 -310 319c0 34 4 69 11 105c88 -1 177 -1 265 -2c-5 -26 -8 -49 -8 -70c0 -98 55 -150 180 -150c108 0 216 36 245 182c3 15 4 29 4 42c0 82 -53 128 -115 158
c-106 51 -192 59 -313 120z" />
    <glyph glyph-name="scedilla" unicode="&#x15f;" 
d="M281 549c-60 33 -98 92 -98 173c0 18 2 38 6 59c36 186 238 248 413 248c139 0 290 -15 377 -136c-70 -54 -139 -109 -209 -163c-43 58 -108 99 -204 99c-82 0 -118 -22 -126 -61c-2 -9 -3 -16 -3 -23c0 -17 6 -31 24 -44c213 -94 426 -132 426 -346c0 -24 -3 -49 -8 -77
c-30 -162 -193 -252 -305 -278c-19 -4 -37 -8 -57 -11l-5 -25c-4 -20 -9 -44 -9 -46c84 -4 152 -49 152 -137c0 -12 -1 -25 -4 -39c-26 -130 -153 -202 -311 -202c-66 0 -155 18 -204 54c30 49 59 98 89 147c30 -18 73 -29 124 -29c36 0 72 11 82 49v2c1 4 1 8 1 11
c0 25 -19 45 -61 45c-48 0 -82 -3 -112 -13c12 61 24 121 36 182c-161 27 -250 124 -250 266c0 24 3 49 8 76h253c-4 -18 -5 -34 -5 -49c0 -71 43 -99 133 -99c59 0 178 20 193 108c2 13 4 25 4 36c0 38 -16 63 -49 89c-60 44 -217 89 -301 134z" />
    <glyph glyph-name="Scaron" unicode="&#x160;" 
d="M682 1373l-316 297l171 138l173 -189l299 201l112 -175zM292 702c-81 41 -128 135 -128 235c0 23 3 46 8 69c48 219 226 322 481 322h9c240 0 383 -46 461 -136l-180 -192c-81 102 -246 118 -316 118c-50 0 -173 -36 -186 -104c-3 -14 -4 -27 -4 -38
c0 -67 44 -87 90 -106c114 -48 183 -57 303 -118c82 -44 156 -125 156 -266c0 -28 -3 -57 -9 -90c-56 -300 -293 -405 -533 -405h-19c-295 8 -402 146 -402 326c0 34 4 69 11 105c89 -1 177 -1 266 -2c-5 -26 -8 -50 -8 -71c0 -97 54 -149 179 -149c79 0 216 36 245 182
c3 15 4 29 4 42c0 82 -53 128 -115 158c-106 51 -192 59 -313 120z" />
    <glyph glyph-name="scaron" unicode="&#x161;" 
d="M681 1158l-316 297l171 138l173 -189l299 201l112 -175zM311 549c-60 33 -98 92 -98 173c0 18 2 38 6 59c36 186 238 248 413 248c139 0 256 -16 394 -82c-39 -63 -79 -127 -118 -190c-80 52 -216 72 -312 72c-82 0 -118 -22 -126 -61c-2 -9 -3 -16 -3 -23
c0 -17 6 -31 24 -44c213 -94 426 -132 426 -346c0 -24 -3 -49 -8 -77c-30 -162 -193 -250 -305 -278c-59 -13 -120 -20 -177 -20c-224 0 -352 104 -352 274c0 24 3 49 8 76h253c-4 -18 -5 -34 -5 -49c0 -71 43 -99 133 -99c59 0 178 20 193 108c2 13 4 25 4 36
c0 38 -16 63 -49 89c-60 44 -217 89 -301 134z" />
    <glyph glyph-name="Tcommaaccent" unicode="&#x162;" 
d="M278 -9c73 376 146 751 219 1127c-198 0 -240 -1 -316 -1c13 69 27 138 40 207c122 0 577 1 765 1c73 0 140 -9 163 -16c-33 -68 -66 -135 -99 -203c0 0 -50 12 -110 12h-183c-73 -376 -146 -751 -219 -1127h-19c-4 -21 -13 -59 -13 -61c85 -4 153 -49 153 -138
c0 -12 -1 -24 -4 -38c-26 -130 -153 -203 -311 -203c-66 0 -155 18 -204 54c30 49 59 99 89 148c30 -18 72 -30 123 -30c36 0 73 12 83 50v2c1 4 1 8 1 11c0 24 -19 44 -61 44c-48 0 -81 -2 -111 -12c11 58 22 115 33 173h-19z" />
    <glyph glyph-name="tcommaaccent" unicode="&#x163;" 
d="M398 435c-3 -13 -5 -27 -8 -40c-6 -31 -9 -57 -9 -80c0 -73 32 -104 94 -115c17 -3 51 -4 64 -4c65 0 97 13 125 27c58 29 82 97 93 116c63 -33 125 -67 188 -100c-15 -28 -90 -138 -215 -204c-47 -25 -100 -35 -159 -39c-4 -21 -13 -61 -13 -63c85 -4 153 -49 153 -138
c0 -12 -1 -24 -4 -38c-26 -130 -153 -202 -311 -202c-66 0 -155 18 -204 54c30 49 59 98 89 147c30 -18 72 -29 123 -29c36 0 72 11 82 49c0 1 1 1 1 2c1 4 1 8 1 11c0 25 -19 45 -61 45c-48 0 -82 -3 -112 -13c12 60 23 121 35 181c-109 16 -189 58 -218 162
c-8 29 -12 59 -12 89c0 45 8 92 18 144c3 14 6 29 9 43c19 90 44 208 81 371h-14c-28 0 -57 -4 -84 -11c7 68 15 135 22 203c26 9 71 12 104 12h15c14 70 33 164 47 234c83 -2 167 -4 250 -6c-13 -66 -32 -155 -46 -223c109 -1 375 -4 383 -4l-42 -204c-137 0 -250 2 -383 2
c-38 -167 -59 -279 -82 -379z" />
    <glyph glyph-name="Tcaron" unicode="&#x164;" 
d="M664 1373l-316 297l171 138l173 -189l299 201l112 -175zM280 0c72 373 145 745 217 1118c-198 0 -240 -1 -316 -1c13 69 27 138 40 207c122 0 577 1 765 1c73 0 140 -9 163 -16c-33 -68 -66 -135 -99 -203c0 0 -50 12 -110 12h-183c-72 -373 -145 -745 -217 -1118h-260z
" />
    <glyph glyph-name="tcaron" unicode="&#x165;" 
d="M949 1476c-30 -115 -50 -227 -85 -381l-186 22c14 145 36 290 52 395zM443 1244zM977 145c-65 -34 -226 -151 -433 -151c-272 0 -367 153 -367 333c0 38 4 78 12 117l9 42c19 90 33 155 70 319h-14c-28 0 -56 -4 -84 -12c8 68 15 136 23 204c26 8 71 12 104 12h15
c14 70 34 171 48 241c83 -2 167 -4 250 -6c-13 -66 -33 -163 -47 -231c109 0 420 -4 428 -4c-14 -68 -29 -136 -43 -204c-137 0 -294 2 -427 2c-38 -166 -49 -225 -72 -325c-3 -13 -5 -27 -8 -40c-7 -35 -10 -66 -10 -93c0 -106 51 -153 150 -153c158 0 238 104 266 139
c3 0 130 -190 130 -190z" />
    <glyph glyph-name="Tbar" unicode="&#x166;" 
d="M378 504h-227c14 72 28 145 42 217h227c26 132 51 265 77 397c-198 0 -240 -1 -316 -1c13 69 27 138 40 207c122 0 577 1 765 1c73 0 140 -9 163 -16c-33 -68 -66 -135 -99 -203c0 0 -50 12 -110 12h-183c-26 -132 -51 -265 -77 -397h209c-14 -72 -28 -145 -42 -217h-209
c-33 -171 -67 -342 -100 -513h-260c33 171 67 342 100 513z" />
    <glyph glyph-name="tbar" unicode="&#x167;" 
d="M480 433c-2 -12 -5 -25 -7 -37c-6 -31 -9 -58 -9 -81c0 -74 32 -106 94 -115c18 -3 51 -4 64 -4c65 0 98 14 126 28c57 28 81 96 92 116c63 -33 126 -67 189 -100c-15 -28 -92 -140 -216 -204c-65 -34 -143 -42 -228 -42c-184 0 -329 22 -370 170c-8 29 -12 58 -12 89
c0 46 8 93 18 145c2 12 5 23 7 35h-199c13 68 27 137 40 205h203c11 49 23 104 37 167h-14c-28 0 -56 -4 -84 -12c8 68 15 136 23 204c26 8 71 12 104 12h15c14 70 34 171 48 241c83 -2 167 -4 250 -6c-13 -66 -33 -163 -47 -231c109 0 420 -4 428 -4
c-14 -68 -29 -136 -43 -204c-137 0 -294 2 -427 2c-14 -64 -27 -120 -38 -169h240c-13 -68 -27 -137 -40 -205h-244z" />
    <glyph glyph-name="Utilde" unicode="&#x168;" 
d="M618 1701c136 0 184 -52 223 -91c23 -23 43 -41 76 -41c50 0 81 31 100 100l172 -54c-40 -96 -123 -224 -285 -224c-111 0 -167 64 -213 102c-26 22 -37 28 -81 28c-42 0 -78 -37 -99 -100l-178 78c51 93 144 202 285 202zM888 1350c83 -9 165 -19 248 -28
c-17 -50 -24 -85 -33 -127c-2 -9 -3 -19 -5 -29c-29 -148 -51 -278 -73 -391c-4 -20 -8 -39 -12 -59c-46 -237 -94 -463 -232 -595c-101 -97 -236 -126 -366 -131c-255 0 -344 116 -344 325c0 43 4 90 11 141c10 77 32 201 59 339c34 175 75 373 112 534h258
c-37 -168 -85 -397 -122 -586c-10 -50 -19 -98 -27 -141c-12 -64 -22 -117 -24 -154c-1 -25 -3 -53 -3 -82c0 -81 16 -163 119 -166c202 9 249 231 304 518c24 126 48 275 82 448c14 72 26 121 48 184z" />
    <glyph glyph-name="utilde" unicode="&#x169;" 
d="M568 1486c136 0 184 -52 223 -91c23 -23 43 -41 76 -41c50 0 81 31 100 100l172 -54c-40 -96 -123 -224 -285 -224c-111 0 -167 64 -213 102c-26 22 -37 28 -81 28c-42 0 -78 -37 -99 -100l-178 78c51 93 144 202 285 202zM815 -17c-58 29 -103 68 -135 250
c-78 -110 -178 -228 -329 -231h-9c-136 0 -296 18 -296 185c0 19 2 41 7 64c17 82 31 157 50 253c38 197 74 393 74 469c0 7 0 14 -1 19c86 9 173 19 259 28v-10c0 -100 -55 -358 -122 -712v-3c0 -65 7 -80 52 -80c124 0 338 355 363 482c20 105 41 211 61 316h251
c-46 -236 -92 -471 -138 -707c-1 -4 -1 -7 -1 -11c0 -50 48 -109 92 -129c-59 -61 -119 -122 -178 -183z" />
    <glyph glyph-name="Umacron" unicode="&#x16a;" 
d="M1009 1680c-13 -65 -25 -129 -38 -194h-17c-58 -2 -157 -7 -231 -7s-166 1 -234 3c-6 0 -12 1 -18 1c13 66 25 131 38 197c6 -1 13 -2 19 -2c65 -2 179 -3 271 -3c61 0 148 5 193 5h17zM888 1350c83 -9 165 -19 248 -28c-17 -50 -24 -85 -33 -127c-2 -9 -3 -19 -5 -29
c-29 -148 -51 -278 -73 -391c-4 -20 -8 -39 -12 -59c-46 -237 -94 -463 -232 -595c-101 -97 -236 -126 -366 -131c-255 0 -344 116 -344 325c0 43 4 90 11 141c10 77 32 201 59 339c34 175 75 373 112 534h258c-37 -168 -85 -397 -122 -586c-10 -50 -19 -98 -27 -141
c-12 -64 -22 -117 -24 -154c-1 -25 -3 -53 -3 -82c0 -81 16 -163 119 -166c202 9 249 231 304 518c24 126 48 275 82 448c14 72 26 121 48 184z" />
    <glyph glyph-name="umacron" unicode="&#x16b;" 
d="M959 1465c-13 -65 -25 -129 -38 -194h-17c-58 -2 -157 -7 -231 -7s-166 1 -234 3c-6 0 -12 1 -18 1c13 66 25 131 38 197c6 -1 13 -2 19 -2c65 -2 179 -3 271 -3c61 0 148 5 193 5h17zM815 -17c-58 29 -103 68 -135 250c-78 -110 -178 -228 -329 -231h-9
c-136 0 -296 18 -296 185c0 19 2 41 7 64c17 82 31 157 50 253c38 197 74 393 74 469c0 7 0 14 -1 19c86 9 173 19 259 28v-10c0 -100 -55 -358 -122 -712v-3c0 -65 7 -80 52 -80c124 0 338 355 363 482c20 105 41 211 61 316h251c-46 -236 -92 -471 -138 -707
c-1 -4 -1 -7 -1 -11c0 -50 48 -109 92 -129c-59 -61 -119 -122 -178 -183z" />
    <glyph glyph-name="Ubreve" unicode="&#x16c;" 
d="M736 1651c91 0 173 48 208 141l213 -30c-58 -177 -178 -294 -450 -294c-162 0 -343 78 -347 303l225 30c4 -117 76 -150 151 -150zM888 1350c83 -9 165 -19 248 -28c-17 -50 -24 -85 -33 -127c-2 -9 -3 -19 -5 -29c-29 -148 -51 -278 -73 -391c-4 -20 -8 -39 -12 -59
c-46 -237 -94 -463 -232 -595c-101 -97 -236 -126 -366 -131c-255 0 -344 116 -344 325c0 43 4 90 11 141c10 77 32 201 59 339c34 175 75 373 112 534h258c-37 -168 -85 -397 -122 -586c-10 -50 -19 -98 -27 -141c-12 -64 -22 -117 -24 -154c-1 -25 -3 -53 -3 -82
c0 -81 16 -163 119 -166c202 9 249 231 304 518c24 126 48 275 82 448c14 72 26 121 48 184z" />
    <glyph glyph-name="ubreve" unicode="&#x16d;" 
d="M686 1436c91 0 173 48 208 141l213 -30c-58 -177 -178 -294 -450 -294c-162 0 -343 78 -347 303l225 30c4 -117 76 -150 151 -150zM815 -17c-58 29 -103 68 -135 250c-78 -110 -178 -228 -329 -231h-9c-136 0 -296 18 -296 185c0 19 2 41 7 64c17 82 31 157 50 253
c38 197 74 393 74 469c0 7 0 14 -1 19c86 9 173 19 259 28v-10c0 -100 -55 -358 -122 -712v-3c0 -65 7 -80 52 -80c124 0 338 355 363 482c20 105 41 211 61 316h251c-46 -236 -92 -471 -138 -707c-1 -4 -1 -7 -1 -11c0 -50 48 -109 92 -129c-59 -61 -119 -122 -178 -183z
" />
    <glyph glyph-name="Uring" unicode="&#x16e;" 
d="M755 1657c-53 0 -90 -32 -98 -62c-1 -3 -1 -5 -1 -8c0 -28 28 -55 75 -55c52 0 90 33 98 63c1 3 1 6 1 9c0 28 -27 53 -75 53zM468 1595c23 116 168 204 316 204c135 0 238 -73 238 -174c0 -10 -1 -20 -3 -30c-22 -115 -153 -195 -313 -195c-140 0 -241 68 -241 166
c0 9 1 19 3 29zM888 1350c83 -9 165 -19 248 -28c-17 -50 -24 -85 -33 -127c-2 -9 -3 -19 -5 -29c-29 -148 -51 -278 -73 -391c-4 -20 -8 -39 -12 -59c-46 -237 -94 -463 -232 -595c-101 -97 -236 -126 -366 -131c-255 0 -344 116 -344 325c0 43 4 90 11 141
c10 77 32 201 59 339c34 175 75 373 112 534h258c-37 -168 -85 -397 -122 -586c-10 -50 -19 -98 -27 -141c-12 -64 -22 -117 -24 -154c-1 -25 -3 -53 -3 -82c0 -81 16 -163 119 -166c202 9 249 231 304 518c24 126 48 275 82 448c14 72 26 121 48 184z" />
    <glyph glyph-name="uring" unicode="&#x16f;" 
d="M705 1442c-53 0 -90 -32 -98 -62c-1 -3 -1 -5 -1 -8c0 -28 28 -55 75 -55c52 0 90 33 98 63c1 3 1 6 1 9c0 28 -27 53 -75 53zM418 1380c23 116 168 204 316 204c135 0 238 -73 238 -174c0 -10 -1 -20 -3 -30c-22 -115 -153 -195 -313 -195c-140 0 -241 68 -241 166
c0 9 1 19 3 29zM815 -17c-58 29 -103 68 -135 250c-78 -110 -178 -228 -329 -231h-9c-136 0 -296 18 -296 185c0 19 2 41 7 64c17 82 31 157 50 253c38 197 74 393 74 469c0 7 0 14 -1 19c86 9 173 19 259 28v-10c0 -100 -55 -358 -122 -712v-3c0 -65 7 -80 52 -80
c124 0 338 355 363 482c20 105 41 211 61 316h251c-46 -236 -92 -471 -138 -707c-1 -4 -1 -7 -1 -11c0 -50 48 -109 92 -129c-59 -61 -119 -122 -178 -183z" />
    <glyph glyph-name="Uhungarumlaut" unicode="&#x170;" 
d="M765 1508c135 95 281 261 378 402c59 -42 117 -85 176 -127c-93 -144 -299 -324 -435 -418c-40 48 -79 95 -119 143zM383 1515c135 95 281 261 378 402c59 -42 117 -85 176 -127c-93 -144 -298 -324 -434 -418c-40 48 -80 95 -120 143zM888 1350c83 -9 165 -19 248 -28
c-17 -50 -24 -85 -33 -127c-2 -9 -3 -19 -5 -29c-29 -148 -51 -278 -73 -391c-4 -20 -8 -39 -12 -59c-46 -237 -94 -463 -232 -595c-101 -97 -236 -126 -366 -131c-255 0 -344 116 -344 325c0 43 4 90 11 141c10 77 32 201 59 339c34 175 75 373 112 534h258
c-37 -168 -85 -397 -122 -586c-10 -50 -19 -98 -27 -141c-12 -64 -22 -117 -24 -154c-1 -25 -3 -53 -3 -82c0 -81 16 -163 119 -166c202 9 249 231 304 518c24 126 48 275 82 448c14 72 26 121 48 184z" />
    <glyph glyph-name="uhungarumlaut" unicode="&#x171;" 
d="M715 1293c135 95 281 261 378 402c59 -42 117 -85 176 -127c-93 -144 -299 -324 -435 -418c-40 48 -79 95 -119 143zM333 1300c135 95 281 261 378 402c59 -42 117 -85 176 -127c-93 -144 -298 -324 -434 -418c-40 48 -80 95 -120 143zM815 -17c-58 29 -103 68 -135 250
c-78 -110 -178 -228 -329 -231h-9c-136 0 -296 18 -296 185c0 19 2 41 7 64c17 82 31 157 50 253c38 197 74 393 74 469c0 7 0 14 -1 19c86 9 173 19 259 28v-10c0 -100 -55 -358 -122 -712v-3c0 -65 7 -80 52 -80c124 0 338 355 363 482c20 105 41 211 61 316h251
c-46 -236 -92 -471 -138 -707c-1 -4 -1 -7 -1 -11c0 -50 48 -109 92 -129c-59 -61 -119 -122 -178 -183z" />
    <glyph glyph-name="Uogonek" unicode="&#x172;" 
d="M888 1350c83 -9 165 -19 248 -28c-17 -50 -24 -85 -33 -127c-2 -9 -3 -19 -5 -29c-29 -148 -51 -278 -73 -391c-4 -20 -8 -39 -12 -59c-46 -237 -94 -463 -232 -595c-175 -168 -364 -254 -395 -371c-1 -3 -1 -5 -1 -8c0 -37 50 -49 110 -49c58 0 104 29 138 51
c32 -47 65 -94 97 -141c-53 -48 -183 -106 -283 -106c-165 0 -317 46 -317 194c0 16 1 32 5 50c23 112 93 170 202 253c-196 23 -265 135 -265 321c0 43 3 90 10 141c10 77 32 201 59 339c34 175 75 373 112 534h258c-37 -168 -85 -397 -122 -586c-10 -50 -19 -98 -27 -141
c-12 -64 -22 -117 -24 -154c-1 -25 -3 -53 -3 -82c0 -81 16 -163 119 -166c202 9 249 231 304 518c24 126 48 275 82 448c14 72 26 121 48 184z" />
    <glyph glyph-name="uogonek" unicode="&#x173;" 
d="M700 108c-90 -77 -227 -103 -378 -106h-9c-139 0 -297 43 -297 185c0 13 1 27 4 42c16 82 35 179 54 275c38 197 74 393 74 469c0 7 0 14 -1 19c84 9 169 19 253 28v-10c0 -100 -55 -358 -122 -712v-6c0 -62 16 -86 98 -86c153 7 254 85 279 212c39 201 79 402 118 603
h257c-47 -238 -93 -477 -140 -715c-1 -4 -1 -7 -1 -11c0 -50 48 -109 92 -129c-280 -321 -491 -316 -517 -416c-1 -3 -1 -5 -1 -8c0 -37 50 -49 110 -49c58 0 104 29 138 51c32 -47 65 -94 97 -141c-53 -48 -183 -106 -283 -106c-165 0 -317 46 -317 194c0 16 1 32 5 50
c41 197 309 187 487 367z" />
    <glyph glyph-name="Wcircumflex" unicode="&#x174;" 
d="M773 1803l338 -292l-169 -156l-191 201l-268 -189l-128 156zM320 0h-241v22c0 215 109 1021 113 1268c81 10 161 19 242 29c-12 -193 -29 -269 -38 -333c-36 -246 -103 -574 -112 -670c0 0 236 600 256 672c21 0 52 -3 85 -3c39 0 82 4 114 19
c-13 -218 -13 -685 -13 -685c44 139 91 407 152 643c17 65 38 170 112 359c72 -13 145 -25 217 -38c-102 -256 -346 -1101 -414 -1283h-246c0 0 7 397 12 585c-92 -230 -232 -573 -239 -585z" />
    <glyph glyph-name="wcircumflex" unicode="&#x175;" 
d="M771 1588l338 -292l-169 -156l-191 201l-268 -189l-128 156zM133 984c88 24 175 48 263 72c8 -53 11 -104 11 -154c0 -148 -18 -293 -52 -414c-27 -95 -88 -232 -108 -269c121 87 212 220 235 285c33 93 49 197 55 332h197c0 0 -26 -166 -58 -331
c-19 -95 -39 -185 -54 -298c62 29 152 231 203 397c48 156 57 238 57 299c0 42 -6 80 -11 110h246c2 -24 3 -48 3 -72c0 -124 -20 -245 -72 -400c-69 -206 -216 -421 -399 -568l-189 48c0 0 3 120 14 207c-49 -74 -76 -102 -257 -252c-65 22 -130 43 -195 65
c79 169 128 435 128 663c0 156 -8 248 -17 280z" />
    <glyph glyph-name="Ycircumflex" unicode="&#x176;" 
d="M787 1820l338 -292l-169 -156l-191 201l-268 -189l-128 156zM279 18c100 197 187 377 287 574c-57 113 -359 522 -389 630c72 47 145 93 217 140c25 -79 236 -400 296 -540c84 185 168 369 252 554l219 -96c-206 -427 -445 -919 -651 -1346c-63 21 -156 48 -231 84z" />
    <glyph glyph-name="ycircumflex" unicode="&#x177;" 
d="M737 1588l338 -292l-169 -156l-191 201l-268 -189l-128 156zM54 -32c6 -7 79 -142 153 -142c85 0 144 38 244 211c-76 644 -143 714 -259 714c-20 0 -35 0 -45 -1c2 88 4 175 6 263h101c192 0 305 -222 355 -777c148 364 187 506 229 777h256c0 -40 -20 -123 -36 -174
c-107 -351 -200 -560 -425 -893c-180 -266 -284 -322 -430 -322c-180 0 -250 85 -341 176z" />
    <glyph glyph-name="Ydieresis" unicode="&#x178;" 
d="M848 1673l281 -3l-46 -238l-282 1zM428 1673h279l-47 -240h-279zM279 18c100 197 187 377 287 574c-57 113 -359 522 -389 630c72 47 145 93 217 140c25 -79 236 -400 296 -540c84 185 168 369 252 554l219 -96c-206 -427 -445 -919 -651 -1346c-63 21 -156 48 -231 84z
" />
    <glyph glyph-name="Zacute" unicode="&#x179;" 
d="M495 1543c152 48 316 151 452 259c34 -57 102 -125 136 -182c-133 -112 -377 -223 -529 -270c-19 58 -40 135 -59 193zM48 0c-15 49 -29 99 -44 148c272 324 545 647 817 971c-214 0 -476 -5 -590 -5l39 210c120 0 543 4 731 4c75 0 119 -13 137 -16c0 -2 0 -4 -1 -7
c-10 -38 -10 -146 -19 -179c-1 -3 -2 -6 -2 -8c-254 -300 -508 -601 -762 -901c121 0 242 -1 363 -1c85 0 113 5 182 26c10 -72 19 -143 29 -215c-48 -16 -119 -27 -194 -27h-679h-7z" />
    <glyph glyph-name="zacute" unicode="&#x17a;" 
d="M469 1328c152 48 316 151 452 259c34 -57 102 -125 136 -182c-133 -112 -377 -223 -529 -270c-19 58 -40 135 -59 193zM176 815c24 67 47 135 71 202c45 -5 507 -6 631 -6c60 0 86 2 134 27c37 -53 75 -105 112 -158c-39 -33 -562 -491 -730 -638c94 0 202 -48 310 -48
c69 0 87 83 87 99c78 -14 155 -27 233 -41c-22 -106 -36 -266 -296 -266c-159 0 -286 69 -408 69c-55 0 -110 -13 -165 -51c-20 -15 -39 -31 -59 -46c-14 10 -171 122 -171 122c165 192 569 540 777 726c-68 -1 -122 -3 -223 -3c-125 0 -248 3 -303 12z" />
    <glyph glyph-name="Zdotaccent" unicode="&#x17b;" 
d="M643 1693h284c-15 -82 -31 -164 -46 -246h-285c16 82 31 164 47 246zM48 0c-15 49 -29 99 -44 148c272 324 545 647 817 971c-214 0 -476 -5 -590 -5l39 210c120 0 543 4 731 4c75 0 119 -13 137 -16c0 -2 0 -4 -1 -7c-10 -38 -10 -146 -19 -179c-1 -3 -2 -6 -2 -8
c-254 -300 -508 -601 -762 -901c121 0 242 -1 363 -1c85 0 113 5 182 26c10 -72 19 -143 29 -215c-48 -16 -119 -27 -194 -27h-679h-7z" />
    <glyph glyph-name="zdotaccent" unicode="&#x17c;" 
d="M617 1478h284c-15 -82 -31 -164 -46 -246h-285c16 82 31 164 47 246zM176 815c24 67 47 135 71 202c45 -5 507 -6 631 -6c60 0 86 2 134 27c37 -53 75 -105 112 -158c-39 -33 -562 -491 -730 -638c94 0 202 -48 310 -48c69 0 87 83 87 99c78 -14 155 -27 233 -41
c-22 -106 -36 -266 -296 -266c-159 0 -286 69 -408 69c-55 0 -110 -13 -165 -51c-20 -15 -39 -31 -59 -46c-14 10 -171 122 -171 122c165 192 569 540 777 726c-68 -1 -122 -3 -223 -3c-125 0 -248 3 -303 12z" />
    <glyph glyph-name="Zcaron" unicode="&#x17d;" 
d="M709 1373l-316 297l171 138l173 -189l299 201l112 -175zM48 0c-15 49 -29 99 -44 148c272 324 545 647 817 971c-214 0 -476 -5 -590 -5l39 210c120 0 543 4 731 4c75 0 119 -13 137 -16c0 -2 0 -4 -1 -7c-10 -38 -10 -146 -19 -179c-1 -3 -2 -6 -2 -8
c-254 -300 -508 -601 -762 -901c121 0 242 -1 363 -1c85 0 113 5 182 26c10 -72 19 -143 29 -215c-48 -16 -119 -27 -194 -27h-679h-7z" />
    <glyph glyph-name="zcaron" unicode="&#x17e;" 
d="M683 1158l-316 297l171 138l173 -189l299 201l112 -175zM176 815c24 67 47 135 71 202c45 -5 507 -6 631 -6c60 0 86 2 134 27c37 -53 75 -105 112 -158c-39 -33 -562 -491 -730 -638c94 0 202 -48 310 -48c69 0 87 83 87 99c78 -14 155 -27 233 -41
c-22 -106 -36 -266 -296 -266c-159 0 -286 69 -408 69c-55 0 -110 -13 -165 -51c-20 -15 -39 -31 -59 -46c-14 10 -171 122 -171 122c165 192 569 540 777 726c-68 -1 -122 -3 -223 -3c-125 0 -248 3 -303 12z" />
    <glyph glyph-name="longs" unicode="&#x17f;" 
d="M1007 1206c-25 9 -83 11 -122 11c-132 0 -157 -74 -169 -134c-5 -27 -13 -71 -13 -71c-66 -337 -131 -675 -197 -1012h-257c52 269 105 538 157 807h-193c13 68 27 137 40 205h193c3 16 6 33 10 52c26 130 135 354 451 354c61 0 139 -4 185 -14
c-28 -66 -57 -132 -85 -198z" />
    <glyph glyph-name="Euro" unicode="&#x20ac;" 
d="M887 866c-32 -61 -65 -123 -97 -184h-12c-57 -2 -90 -6 -166 -6h-118c-4 -23 -10 -45 -15 -67c-2 -8 -2 -16 -4 -25c30 -1 33 -1 71 -1c86 0 77 1 166 2h26c-34 -64 -68 -129 -102 -193c-64 1 -128 1 -192 2c-4 -28 -6 -52 -6 -73c0 -102 40 -139 88 -139h18
c66 0 151 27 220 133c57 -53 113 -106 170 -159c-150 -156 -247 -187 -434 -187c-79 0 -199 28 -262 138c-44 76 -63 148 -63 249c0 12 0 25 1 38c-27 1 -51 2 -75 2c-29 0 -57 -1 -90 -2c22 54 54 128 91 189c40 0 79 1 97 1c3 17 6 33 9 48s5 30 9 44c-80 1 -112 1 -159 5
c34 56 77 145 105 189c27 -3 55 -3 110 -4c41 112 70 166 119 242c116 179 293 235 392 235c108 0 216 -31 288 -134c-48 -86 -96 -173 -144 -259c-34 103 -86 175 -183 175c-93 0 -164 -85 -207 -261h109h77c52 2 88 4 130 4c11 0 22 -1 33 -2z" />
    <glyph glyph-name="uniE000" unicode="&#xe000;" 
d="M171 491c81 112 152 153 216 153c104 0 180 -100 238 -100c23 0 50 16 85 80l14 26l84 -104l-10 -14c-75 -102 -142 -142 -203 -142c-104 0 -174 96 -232 96c-27 0 -51 -11 -89 -77l-13 -22l-102 88z" />
    <glyph glyph-name="uniE001" unicode="&#xe001;" 
d="M404 -11c-99 5 -137 98 -137 207c0 34 3 69 10 103c0 1 1 3 1 4c15 77 48 158 95 221c78 104 158 137 228 140h8c36 0 63 -12 80 -23c9 64 16 116 16 156c0 64 -17 97 -69 97c-59 0 -73 -34 -155 -167l-11 -18l-92 61l9 17c89 176 179 254 278 257c41 0 95 -19 125 -77
c20 -39 35 -97 35 -172c0 -39 -4 -83 -14 -132l-84 -434c-4 -28 -6 -45 -6 -57c0 -20 5 -24 14 -39c1 -2 3 -5 6 -7c11 6 21 23 31 43c51 98 77 217 102 346c19 97 28 187 28 269c0 244 -80 407 -214 407c-178 0 -367 -290 -442 -676c-19 -97 -28 -187 -28 -269
c0 -245 80 -408 207 -408c60 0 124 33 185 90l15 15l58 -96l-13 -13c-77 -73 -189 -146 -275 -146c-191 0 -301 227 -301 537c0 91 9 189 29 290c87 447 347 828 594 828c191 0 300 -227 300 -536c0 -91 -9 -190 -29 -292c-29 -151 -79 -293 -139 -417
c-14 -27 -65 -124 -132 -124h-3h-2l-1 1c-18 5 -45 16 -60 41h-1c-9 18 -30 43 -33 94c-29 -30 -52 -45 -86 -72c-37 -27 -82 -49 -127 -49zM432 141c26 0 57 14 77 29c76 59 103 129 121 164c6 33 18 99 22 118c-23 43 -49 61 -80 61h-3c-55 -2 -141 -98 -161 -203
c0 -2 -1 -3 -1 -5c-5 -28 -7 -53 -7 -74c0 -58 15 -90 32 -90z" />
    <glyph glyph-name="uniE002" unicode="&#xe002;" 
d="M937 703c0 0 -6 -25 -8 -37l-84 -435c-3 -18 -4 -33 -4 -47c0 -41 12 -65 32 -86l14 -15l-110 -79l-8 16c-9 19 -30 43 -33 93c-29 -30 -52 -45 -86 -72c-37 -27 -82 -50 -128 -50c-104 5 -144 147 -144 278c0 38 4 76 10 109c0 1 1 2 1 3c2 12 5 26 8 41
c14 74 38 178 109 289c72 112 162 140 231 143h6c43 0 78 -19 97 -33c4 33 9 61 11 82c5 43 11 90 11 134c0 87 -23 161 -120 161c-157 0 -353 -293 -428 -680c-19 -97 -28 -188 -28 -270c0 -244 79 -408 206 -408c60 0 125 34 186 91l15 15l57 -96l-13 -13
c-77 -73 -188 -147 -274 -147c-191 0 -301 228 -301 538c0 91 9 189 29 290c87 446 334 833 581 833c160 0 208 -130 208 -297c0 -109 -20 -235 -43 -351zM552 144c26 0 56 14 76 29c76 59 102 128 120 163l56 285c-23 44 -72 81 -101 81c-100 0 -162 -204 -186 -327l-3 -15
c-3 -20 -5 -40 -5 -59c0 -83 26 -157 43 -157z" />
    <glyph glyph-name="gravecomb" unicode="&#x300;" 
d="M942 1432l-102 -165c-134 47 -371 175 -460 287l145 163c94 -108 283 -237 417 -285z" />
    <glyph glyph-name="acutecomb" unicode="&#x301;" 
d="M401 1460c152 48 316 151 452 259c34 -57 102 -125 136 -182c-133 -112 -377 -223 -529 -270c-19 58 -40 135 -59 193z" />
    <glyph glyph-name="uni0302" unicode="&#x302;" 
d="M758 1700l338 -292l-169 -156l-191 201l-268 -189l-128 156z" />
    <glyph glyph-name="tildecomb" unicode="&#x303;" 
d="M592 1686c136 0 184 -52 223 -91c23 -23 43 -41 76 -41c50 0 81 31 100 100l172 -54c-40 -96 -123 -224 -285 -224c-111 0 -167 64 -213 102c-26 22 -37 28 -81 28c-42 0 -78 -37 -99 -100l-178 78c51 93 144 202 285 202z" />
    <glyph glyph-name="uni0304" unicode="&#x304;" 
d="M985 1657c-13 -65 -25 -129 -38 -194h-17c-58 -2 -157 -7 -231 -7s-166 1 -234 3c-6 0 -12 1 -18 1c13 66 25 131 38 197c6 -1 13 -2 19 -2c65 -2 179 -3 271 -3c61 0 148 5 193 5h17z" />
    <glyph glyph-name="uni0305" unicode="&#x305;" 
d="M1126 1658l-39 -201c-264 0 -528 1 -792 1c13 68 27 135 40 203c264 -1 527 -2 791 -3z" />
    <glyph glyph-name="uni0306" unicode="&#x306;" 
d="M728 1508c91 0 173 48 208 141l213 -30c-58 -177 -178 -294 -450 -294c-162 0 -343 78 -347 303l225 30c4 -117 76 -150 151 -150z" />
    <glyph glyph-name="uni0308" unicode="&#x308;" 
d="M843 1424l281 -3l-46 -238l-282 1zM423 1424h279l-47 -240h-279z" />
    <glyph glyph-name="uni0307" unicode="&#x307;" 
d="M560 1671h284c-15 -82 -31 -164 -46 -246h-285c16 82 31 164 47 246z" />
    <glyph glyph-name="uni030A" unicode="&#x30a;" 
d="M744 1535c-53 0 -90 -32 -98 -62c-1 -3 -1 -5 -1 -8c0 -28 28 -55 75 -55c52 0 90 33 98 63c1 3 1 6 1 9c0 28 -27 53 -75 53zM457 1473c23 116 168 204 316 204c135 0 238 -73 238 -174c0 -10 -1 -20 -3 -30c-22 -115 -153 -195 -313 -195c-140 0 -241 68 -241 166
c0 9 1 19 3 29z" />
    <glyph glyph-name="uni0237" unicode="&#x237;" 
d="M752 -78c-30 -153 -142 -311 -428 -311c-123 0 -273 28 -359 233c64 49 128 99 192 148c58 -145 120 -180 183 -180h18c120 0 137 105 146 140c51 254 102 507 153 761c2 11 3 23 3 33c0 53 -29 88 -85 88c-50 0 -120 -28 -210 -97l-120 135c153 120 243 141 396 141
c225 0 273 -154 273 -238c0 -12 -1 -24 -3 -32c-53 -274 -106 -547 -159 -821z" />
    <glyph glyph-name="uni030B" unicode="&#x30b;" 
d="M646 1286c135 95 281 261 378 402c59 -42 117 -85 176 -127c-93 -144 -299 -324 -435 -418c-40 48 -79 95 -119 143zM264 1293c135 95 281 261 378 402c59 -42 117 -85 176 -127c-93 -144 -298 -324 -434 -418c-40 48 -80 95 -120 143z" />
    <glyph glyph-name="uni030C" unicode="&#x30c;" 
d="M681 1206l-316 297l171 138l173 -189l299 201l112 -175z" />
    <glyph glyph-name="uni030F" unicode="&#x30f;" 
d="M758 1313c-59 -48 -117 -95 -176 -143c-100 94 -234 274 -271 418c75 42 150 85 225 127c43 -141 123 -307 222 -402zM1143 1320c-58 -47 -117 -95 -175 -142c-100 94 -236 274 -273 418c75 42 151 84 226 126c43 -141 123 -307 222 -402z" />
    <glyph glyph-name="hookabovecomb" unicode="&#x309;" 
 />
    <glyph glyph-name="uni030D" unicode="&#x30d;" 
 />
    <glyph glyph-name="uni030E" unicode="&#x30e;" 
 />
    <glyph glyph-name="uni0191" unicode="&#x191;" 
d="M345 78c-42 -186 -148 -381 -480 -381l51 264c104 0 139 31 165 124l240 1239h685c102 0 144 -17 175 -34c-39 -68 -79 -135 -118 -203c-23 14 -42 27 -140 28h-71c-104 0 -127 0 -310 -1l-51 -258c120 0 83 2 205 2c90 0 153 -18 190 -36c-36 -67 -71 -135 -107 -202
c-34 17 -83 22 -128 22h-85c-30 0 -52 0 -117 -2c-20 -101 -74 -404 -104 -562z" />
    <glyph glyph-name="florin" unicode="&#x192;" 
d="M494 126c-52 -246 -221 -466 -541 -466c16 81 33 163 49 244c142 0 201 66 238 234c43 223 87 446 130 669h-142c13 68 27 137 40 205h142c3 16 6 33 10 52c26 130 135 354 451 354c196 0 266 -50 314 -205c-77 -32 -154 -65 -231 -97c-10 82 -43 101 -104 101
c-132 0 -158 -74 -170 -134c-5 -27 -12 -71 -12 -71h184c105 0 144 -12 172 -21c-28 -66 -55 -131 -83 -197c-20 7 -39 13 -95 13h-220z" />
    <glyph glyph-name="alpha" unicode="&#x3b1;" 
d="M871 493c9 -77 5 -133 18 -230c8 -58 35 -84 96 -110c-46 -62 -92 -123 -138 -185c-122 32 -160 119 -167 179c-3 23 -5 46 -8 68c-94 -148 -181 -222 -312 -222c-222 0 -299 158 -299 353c0 58 7 119 19 181c71 367 285 491 460 491c165 0 232 -95 250 -251
c50 99 83 177 137 270c69 -23 137 -47 206 -70c-90 -126 -177 -306 -262 -474zM333 524c-13 -66 -18 -118 -18 -160c0 -161 76 -165 85 -165h8c53 0 117 127 190 296c-4 216 -15 320 -88 320c-49 0 -137 -85 -177 -291z" />
    <glyph glyph-name="beta" unicode="&#x3b2;" 
d="M285 112c-6 -29 -10 -53 -14 -73c-24 -124 -51 -242 -78 -339c-78 6 -155 11 -233 17c29 100 54 209 76 320c37 187 144 792 178 966c30 156 175 325 373 325c183 0 370 -44 370 -243c0 -23 -3 -48 -8 -75c-34 -178 -133 -208 -171 -231c136 -25 235 -109 235 -284
c0 -34 -4 -72 -12 -113c-65 -332 -218 -382 -462 -382h-8c-128 0 -170 39 -246 112zM580 199c122 0 157 92 176 188c4 20 6 38 6 55c0 141 -128 192 -308 192c13 69 27 138 40 207c140 0 188 42 208 162c1 7 2 14 2 21c0 49 -35 98 -119 98c-60 0 -104 -39 -121 -129
c-19 -100 -65 -353 -112 -595c64 -175 164 -199 228 -199z" />
    <glyph glyph-name="gamma" unicode="&#x3b3;" 
d="M321 -376c20 104 65 350 65 436v8c-9 247 -86 515 -149 672c-24 59 -37 64 -48 71c-13 9 -35 9 -60 9c-5 0 -10 -1 -15 -1c14 74 29 148 43 222c33 0 72 -1 99 -5c61 -10 133 -26 175 -119c68 -152 119 -365 150 -566c116 217 346 710 346 710c71 -25 143 -50 214 -75
c0 0 -325 -599 -493 -971c-10 -82 -30 -190 -53 -306c-6 -29 -11 -59 -17 -88c-86 1 -171 2 -257 3z" />
    <glyph glyph-name="delta" unicode="&#x3b4;" 
d="M585 748c-171 -32 -219 -192 -236 -279c-5 -27 -9 -58 -9 -89c0 -90 31 -182 149 -182c169 0 216 231 229 308c1 7 2 15 2 24c0 62 -36 158 -135 218zM967 504c-51 -260 -194 -503 -516 -503h-2c-232 1 -364 134 -364 347c0 37 4 75 12 116c37 191 147 360 269 390
c-41 22 -53 40 -76 61c-34 32 -73 93 -73 158c0 10 1 20 3 30c47 238 245 276 455 276c124 0 258 -28 373 -57c-28 -70 -55 -141 -83 -211c-126 37 -240 71 -336 71c-85 0 -160 -5 -160 -58c0 -26 36 -46 63 -61c214 -117 445 -205 445 -461c0 -30 -3 -63 -10 -98z" />
    <glyph glyph-name="epsilon" unicode="&#x3b5;" 
d="M989 138c-81 -53 -269 -142 -492 -142c-182 0 -271 18 -335 77c-53 50 -78 128 -78 190c0 13 1 26 3 38c23 130 106 247 265 283c-128 14 -176 82 -176 162c0 14 1 28 4 43c36 184 278 235 500 235h13c233 0 335 -61 351 -73c-34 -59 -68 -117 -102 -176
c-21 15 -154 50 -299 50c-115 0 -195 -12 -200 -64c0 -2 -1 -5 -1 -7c0 -67 203 -89 299 -89h7h5h18c-13 -66 -25 -131 -38 -197c-26 0 -52 1 -78 1c-201 0 -280 -51 -302 -163c-1 -5 -1 -10 -1 -15c0 -46 46 -98 209 -98c168 0 285 56 345 102c28 -52 55 -105 83 -157z" />
    <glyph glyph-name="zeta" unicode="&#x3b6;" 
d="M404 1414c32 -42 64 -62 144 -62c166 0 476 6 612 24c15 -67 29 -133 44 -200c-178 -198 -717 -330 -785 -672c-10 -49 -14 -92 -14 -130c0 -102 35 -159 102 -159c4 0 172 1 176 1c174 0 246 -89 246 -211c0 -23 -2 -46 -7 -71c-46 -231 -310 -271 -402 -281
c1 66 1 132 2 198c87 13 168 34 176 72c2 8 2 15 2 22c0 53 -49 55 -127 55h-20h-138c-164 0 -272 117 -272 337c0 50 6 106 18 167c70 357 358 487 636 660c-131 -7 -139 -9 -267 -9c-114 0 -228 20 -287 119c54 47 107 93 161 140z" />
    <glyph glyph-name="eta" unicode="&#x3b7;" 
d="M936 296l-69 -357c-10 -51 -20 -143 -20 -205c0 -19 1 -35 3 -46c-83 -21 -167 -41 -250 -62c-2 41 -6 78 -6 126c0 46 4 101 19 180c18 93 36 185 54 278c32 169 65 338 97 507c3 15 4 28 4 39c0 45 -23 63 -76 63c-63 0 -170 -38 -269 -112
c-45 -236 -91 -471 -136 -707h-252c46 235 91 471 137 706c23 118 30 170 30 218c0 25 -2 48 -4 80c80 16 161 32 241 48c4 -21 14 -65 14 -109v-16c66 50 205 99 315 99c148 0 273 -38 273 -166c0 -14 -2 -30 -5 -46c-33 -173 -67 -345 -100 -518z" />
    <glyph glyph-name="theta" unicode="&#x3b8;" 
d="M330 277c33 -74 67 -90 141 -90c79 0 140 62 186 139c30 46 67 150 92 240c-17 0 -34 1 -52 1c-85 0 -191 -5 -367 -18c-8 -53 -15 -114 -15 -168c0 -42 4 -79 15 -104zM709 1350c134 0 349 -51 349 -433c0 -76 -9 -165 -28 -270c-1 -4 -1 -7 -2 -11
c-32 -167 -95 -324 -161 -419c-103 -147 -270 -233 -435 -233c-122 0 -263 41 -324 143c-40 66 -57 147 -57 240c0 65 8 136 23 212c69 352 159 511 248 608c84 92 230 160 387 163zM792 789c6 44 9 89 9 130c0 33 -2 64 -7 90c-20 106 -65 138 -125 138
c-65 0 -108 -25 -162 -96c-45 -59 -89 -145 -127 -277c145 12 269 15 373 15h39z" />
    <glyph glyph-name="iota" unicode="&#x3b9;" 
d="M486 1013h255c-53 -273 -138 -717 -138 -717c-2 -11 -3 -21 -3 -31c0 -48 25 -81 73 -81c45 0 143 68 177 152c54 -33 107 -65 161 -98c-57 -140 -183 -256 -411 -256c-85 0 -175 14 -214 38c-51 31 -64 77 -64 122c0 22 3 44 7 64c39 202 79 405 118 607
c-49 0 -140 -6 -239 -28c2 62 5 124 7 186c99 28 191 42 271 42z" />
    <glyph glyph-name="kappa" unicode="&#x3ba;" 
d="M613 534c123 -105 330 -299 363 -424c-87 -42 -173 -84 -260 -126c-24 111 -157 265 -283 396c0 0 -68 -62 -112 -134l-48 -246h-258c66 341 133 681 199 1022h258c-23 -115 -45 -231 -68 -346c131 145 547 362 603 382c34 -67 71 -153 105 -220
c-229 -118 -425 -230 -499 -304z" />
    <glyph glyph-name="lambda" unicode="&#x3bb;" 
d="M127 -39c-62 47 -124 95 -186 142c98 134 471 532 636 880c0 169 -17 196 -47 196c-40 0 -55 -38 -62 -76c-70 1 -140 1 -210 2c62 232 168 285 330 285c136 0 237 -93 237 -267c0 -298 4 -619 13 -775c7 -65 15 -110 51 -110c26 0 63 21 63 21l33 -213
c-26 -24 -56 -53 -158 -53c-91 0 -195 61 -207 257c-5 80 -8 357 -8 357c-84 -147 -287 -379 -485 -646z" />
    <glyph glyph-name="uni03BC" unicode="&#x3bc;" 
d="M241 8c-28 -135 -55 -271 -83 -406c-83 1 -167 2 -250 3c42 208 86 416 127 624c16 82 35 179 54 275c38 197 74 393 74 469c0 7 0 14 -1 19c84 9 169 19 253 28v-10c0 -100 -55 -358 -122 -712v-6c0 -62 16 -86 98 -86c198 0 254 164 264 212l114 582h257
c-45 -231 -91 -463 -136 -694c-1 -4 -1 -7 -1 -11c0 -50 48 -109 92 -129c-59 -61 -119 -122 -178 -183c-58 29 -92 75 -103 125c-90 -77 -212 -103 -363 -106h-9c-29 0 -58 2 -87 6z" />
    <glyph glyph-name="nu" unicode="&#x3bd;" 
d="M349 1054c115 -283 155 -546 173 -803c195 121 253 237 295 453c8 42 11 78 11 110c0 75 -17 124 -25 158c84 27 169 55 253 82c23 -61 34 -127 34 -195c0 -44 -4 -88 -13 -133c-106 -536 -469 -734 -802 -734c8 41 12 88 12 139c0 268 -99 639 -175 793
c79 43 158 87 237 130z" />
    <glyph glyph-name="xi" unicode="&#x3be;" 
d="M403 1428c32 -42 71 -76 153 -76c164 0 356 6 492 24c16 -66 32 -133 48 -199c-96 -74 -422 -131 -436 -213c-1 -7 -2 -14 -2 -20c0 -75 99 -86 238 -86c-13 -66 -26 -131 -39 -197c-277 -66 -472 -158 -508 -322c-1 -4 -1 -8 -1 -13c0 -41 31 -111 165 -111
c2 0 172 1 174 1c144 0 247 -61 247 -207c0 -23 -3 -48 -8 -75c-41 -214 -276 -269 -400 -281c1 66 1 132 2 198c87 13 166 32 174 72c2 9 3 17 3 24c0 38 -28 53 -102 53h-20h-164c-177 0 -340 46 -340 240c0 26 3 54 9 85c49 252 294 391 417 427c-35 10 -116 38 -116 154
c0 18 2 38 6 61c16 90 107 158 206 194c0 0 -59 -6 -89 -6c-116 0 -209 27 -269 109c53 55 107 109 160 164z" />
    <glyph glyph-name="omicron" unicode="&#x3bf;" 
d="M598 247c57 52 92 156 115 283c1 6 2 10 3 16c8 45 13 87 13 125c0 94 -31 159 -123 159c-151 0 -223 -140 -263 -348c-7 -37 -11 -72 -11 -103c0 -110 45 -182 139 -182c55 1 84 14 127 50zM431 -6c-254 0 -359 127 -359 327c0 44 5 92 15 143c72 371 252 568 544 568
c197 0 294 -69 338 -201c13 -39 18 -86 18 -136c0 -51 -5 -103 -15 -152c-57 -285 -203 -549 -539 -549h-2z" />
    <glyph glyph-name="pi" unicode="&#x3c0;" 
d="M937 1020c41 0 59 18 93 68c45 -25 91 -49 136 -74c-46 -74 -92 -192 -224 -192h-31c3 -14 4 -30 4 -48c0 -41 -7 -96 -25 -187c-18 -90 -35 -181 -53 -271c-2 -12 -3 -23 -3 -32c0 -31 11 -47 28 -47c25 0 42 3 64 22l66 -174c-38 -42 -88 -85 -215 -85
c-113 0 -194 99 -194 206c0 109 9 159 51 377c15 78 20 125 20 157c0 39 -7 57 -15 82c-40 0 -81 -1 -121 -1c-39 -202 -79 -404 -118 -606c-14 -73 -42 -171 -67 -228c-82 11 -164 23 -246 34c31 68 44 125 58 198c38 198 77 397 115 595c-48 -9 -72 -17 -110 -44
c-6 62 -11 124 -17 186c56 32 160 63 260 63c0 0 332 1 544 1z" />
    <glyph glyph-name="rho" unicode="&#x3c1;" 
d="M728 517l3 15c8 40 12 79 12 114c0 99 -35 172 -135 172c-98 0 -200 -84 -239 -285c-8 -41 -12 -79 -12 -113c0 -143 63 -228 143 -228c136 0 196 159 228 325zM136 562c58 292 271 470 533 470c197 0 294 -69 338 -201c13 -39 18 -86 18 -136c0 -51 -5 -103 -15 -152
c-57 -285 -184 -549 -506 -549h-2c-137 0 -180 23 -231 102c2 -17 3 -34 3 -51c0 -60 -11 -115 -16 -144c-8 -44 -12 -84 -12 -119c0 -68 12 -119 21 -159c-89 -20 -178 -41 -267 -61c-7 27 -11 74 -11 130c0 72 7 159 22 238c42 211 83 421 125 632z" />
    <glyph glyph-name="sigma1" unicode="&#x3c2;" 
d="M411 528c-8 -43 -12 -81 -12 -114c0 -133 60 -190 121 -192c3 0 169 -9 172 -9c141 -4 237 -60 237 -201c0 -23 -2 -50 -8 -78c-44 -214 -276 -269 -401 -281c1 66 1 132 2 198c87 13 166 32 175 72c2 8 2 15 2 22c0 38 -28 53 -102 55c-7 0 -13 1 -20 1
c-4 0 -157 9 -161 9c-63 2 -136 24 -180 63c-73 67 -103 157 -103 269c0 56 8 118 21 185c66 340 274 491 589 491c95 0 188 -19 243 -61c52 -40 87 -99 99 -151l-240 -102c-3 38 -21 103 -161 103c-147 0 -246 -136 -273 -279z" />
    <glyph glyph-name="sigma" unicode="&#x3c3;" 
d="M983 814c9 -36 13 -78 13 -122c0 -50 -5 -102 -14 -149c-55 -285 -203 -549 -539 -549h-2c-254 0 -359 127 -359 327c0 44 5 92 15 143c72 368 248 565 536 568h8c127 0 468 -11 517 -20c-16 -69 -33 -139 -49 -208c-29 5 -74 8 -126 10zM608 247c57 52 92 156 115 283
c1 6 2 10 3 16c10 55 15 97 15 136c0 52 -9 95 -27 146c0 0 -75 2 -98 2c-151 0 -223 -140 -263 -348c-7 -37 -11 -72 -11 -103c0 -110 45 -182 139 -182c55 1 84 14 127 50z" />
    <glyph glyph-name="tau" unicode="&#x3c4;" 
d="M693 1020h122h139h147h18c-13 -66 -25 -131 -38 -197c-101 1 -203 1 -304 2h-52c-49 -204 -64 -285 -87 -385c-3 -13 -5 -27 -8 -40c-8 -39 -11 -71 -11 -95c0 -76 32 -88 63 -88c57 0 78 26 121 102c60 -29 121 -57 181 -86c-31 -56 -146 -236 -343 -236
c-205 0 -289 68 -289 235c0 47 7 102 19 165c3 14 6 29 9 43c24 104 41 193 85 386c-20 -1 -104 -2 -104 -2c-70 -1 -90 -13 -146 -45c-26 51 -53 103 -79 154c59 44 162 86 258 86c100 0 199 1 299 1z" />
    <glyph glyph-name="upsilon" unicode="&#x3c5;" 
d="M88 364c12 60 23 123 35 183c36 183 68 352 68 432c0 9 0 17 -1 24c89 10 179 19 268 29v-9c0 -77 -34 -253 -72 -450c-11 -56 -12 -61 -23 -118c-7 -37 -12 -75 -12 -110c0 -78 23 -140 91 -140c58 0 122 23 193 104c75 86 86 122 132 360c5 26 7 54 7 83
c0 73 -13 151 -20 211c90 29 179 57 269 86c21 -47 28 -119 28 -187c0 -71 -6 -138 -14 -172c-1 -4 -1 -8 -2 -12c-2 -12 -5 -25 -7 -37c-34 -191 -93 -338 -301 -518c-76 -66 -208 -127 -371 -127c-168 0 -276 127 -276 291c0 25 3 51 8 77z" />
    <glyph glyph-name="phi" unicode="&#x3c6;" 
d="M553 -11c-38 -204 -68 -366 -71 -387c-81 1 -163 1 -244 2c2 21 34 185 73 388c-89 17 -158 66 -204 141c-41 65 -58 142 -58 231c0 62 9 131 23 205c44 228 134 410 243 491l165 -120c-97 -84 -145 -175 -182 -367c-9 -48 -14 -103 -14 -155c0 -104 20 -199 68 -219
c28 147 57 294 85 441c61 315 231 400 375 400c118 0 270 -21 270 -257c0 -43 -5 -93 -16 -151c-1 -4 -1 -7 -2 -11c-32 -164 -94 -349 -160 -442c-88 -123 -215 -170 -351 -190zM591 196c140 33 200 209 245 428c1 6 3 13 4 19c9 47 14 83 14 110c0 70 -30 82 -80 82h-1
c-38 0 -62 -12 -97 -191c-28 -142 -52 -275 -85 -448z" />
    <glyph glyph-name="chi" unicode="&#x3c7;" 
d="M391 372c0 0 -58 281 -113 382c-32 58 -85 68 -163 68l42 219h68c103 0 165 -8 226 -107c79 -129 102 -358 102 -358c132 201 325 481 325 481c58 -33 117 -65 175 -98c0 0 -206 -309 -432 -642c28 -172 101 -487 155 -487c12 0 17 4 26 20c41 -33 83 -67 124 -100
c-13 -38 -84 -148 -186 -148c-205 0 -257 360 -290 476c-107 -160 -214 -319 -321 -479c-65 38 -129 76 -194 114c152 220 304 439 456 659z" />
    <glyph glyph-name="psi" unicode="&#x3c8;" 
d="M44 366c12 60 24 123 36 183c36 181 65 350 65 430c0 10 0 19 -1 26c77 9 153 18 230 27v-10c0 -78 -32 -253 -70 -449c-11 -56 -13 -70 -24 -127c-9 -45 -13 -84 -13 -117c0 -86 29 -131 84 -131c56 284 102 495 147 729l18 93h237c-9 -48 -19 -97 -28 -145
c-46 -236 -80 -400 -132 -663c143 39 219 268 270 526c7 34 9 67 9 99c0 54 -8 104 -19 148c81 20 163 41 244 61c10 -40 13 -95 13 -148c0 -58 -3 -115 -11 -149c-1 -4 -1 -8 -2 -12c-2 -12 -5 -25 -7 -37c-34 -191 -87 -423 -295 -603c-55 -48 -112 -68 -241 -89
c-9 -44 -17 -88 -26 -132c-22 -115 -34 -171 -59 -272c-79 0 -159 1 -238 1c16 62 25 105 36 160c9 47 18 103 36 189c3 14 5 28 8 42h-5c-185 0 -271 121 -271 277c0 30 3 61 9 93z" />
    <glyph glyph-name="omega" unicode="&#x3c9;" 
d="M457 684c79 6 157 13 236 19c-19 -85 -36 -179 -55 -272c-1 -8 -2 -17 -4 -26c-19 -93 -25 -145 -25 -173c0 -26 7 -32 21 -32c77 0 131 70 160 220c22 116 38 223 38 317c0 79 -11 150 -38 210c83 31 167 61 250 92c28 -68 37 -150 37 -233c0 -137 -26 -277 -43 -365
c-43 -223 -155 -453 -400 -453c-114 0 -158 32 -167 116c-43 -72 -83 -114 -217 -114c-168 0 -224 127 -224 284c0 55 7 112 18 170c32 168 96 422 242 605c67 -33 135 -67 202 -100c-106 -127 -167 -274 -207 -481c-11 -58 -17 -107 -17 -148c0 -79 20 -124 56 -124
c42 0 61 91 83 199c2 9 3 19 5 29c21 106 32 160 49 260z" />
    <glyph glyph-name="iotadieresis" unicode="&#x3ca;" 
d="M794 1458l281 -3l-46 -238l-282 1zM374 1458h279l-47 -240h-279zM486 1013h255c-53 -273 -138 -717 -138 -717c-2 -11 -3 -21 -3 -31c0 -48 25 -81 73 -81c45 0 143 68 177 152c54 -33 107 -65 161 -98c-57 -140 -183 -256 -411 -256c-85 0 -175 14 -214 38
c-51 31 -64 77 -64 122c0 22 3 44 7 64c39 202 79 405 118 607c-49 0 -140 -6 -239 -28c2 62 5 124 7 186c99 28 191 42 271 42z" />
    <glyph glyph-name="upsilondieresis" unicode="&#x3cb;" 
d="M787 1458l281 -3l-46 -238l-282 1zM367 1458h279l-47 -240h-279zM88 364c12 60 23 123 35 183c36 183 68 352 68 432c0 9 0 17 -1 24c89 10 179 19 268 29v-9c0 -77 -34 -253 -72 -450c-11 -56 -12 -61 -23 -118c-7 -37 -12 -75 -12 -110c0 -78 23 -140 91 -140
c58 0 122 23 193 104c75 86 86 122 132 360c5 26 7 54 7 83c0 73 -13 151 -20 211c90 29 179 57 269 86c21 -47 28 -119 28 -187c0 -71 -6 -138 -14 -172c-1 -4 -1 -8 -2 -12c-2 -12 -5 -25 -7 -37c-34 -191 -93 -338 -301 -518c-76 -66 -208 -127 -371 -127
c-168 0 -276 127 -276 291c0 25 3 51 8 77z" />
    <glyph glyph-name="Alpha" unicode="&#x391;" 
d="M674 504v7c0 114 -38 262 -38 394c0 32 2 63 8 93c-39 -168 -172 -373 -237 -512c63 13 183 13 267 18zM601 1325h224c49 -442 104 -877 147 -1325h-276c-8 94 -15 188 -23 281c-153 -3 -237 1 -363 -29l-48 -90c-32 -61 -60 -119 -71 -162h-260c16 61 55 143 97 223
c191 367 382 735 573 1102z" />
    <glyph glyph-name="Beta" unicode="&#x392;" 
d="M154 837c34 177 63 341 79 471c82 6 227 17 340 17h18c195 0 328 -71 328 -237c0 -23 -3 -47 -8 -74c-27 -144 -89 -190 -172 -231c133 -39 243 -122 243 -288c0 -27 -3 -56 -9 -87c-59 -302 -250 -384 -421 -405c-40 -5 -82 -8 -121 -8c-74 0 -131 5 -216 5h-38h-194
c38 198 89 413 171 837zM653 1012c3 12 3 22 3 31c0 77 -70 80 -91 80h-4h-16c-39 0 -56 -2 -87 -5c-4 -35 -11 -73 -19 -114c-10 -54 -23 -112 -34 -170h38c73 0 177 12 208 170c1 3 1 5 2 8zM528 638c-49 0 -46 -2 -119 -2h-44c-49 -242 -74 -360 -90 -438
c48 -3 87 -6 125 -6c30 0 60 2 96 6c33 4 188 40 222 222c4 22 6 42 6 60c0 123 -91 158 -196 158z" />
    <glyph glyph-name="Gamma" unicode="&#x393;" 
d="M332 1328h683c75 0 134 -18 178 -34c-37 -66 -73 -131 -110 -197c-41 15 -53 18 -111 21h-427c-72 -373 -145 -745 -217 -1118h-254c86 443 172 885 258 1328z" />
    <glyph glyph-name="Epsilon" unicode="&#x395;" 
d="M283 1319c57 4 127 4 205 4h98h110c149 0 285 -3 359 -3h16c-13 -67 -27 -135 -40 -202h-529c-17 -90 -35 -179 -52 -269h338c-13 -68 -26 -135 -39 -203h-338c-2 -10 -4 -21 -6 -31c-40 -207 -67 -332 -82 -411c139 1 277 1 416 2c56 0 130 27 130 27
c11 -66 23 -133 34 -199c-51 -13 -96 -34 -194 -34h-682c85 440 171 879 256 1319z" />
    <glyph glyph-name="Zeta" unicode="&#x396;" 
d="M48 0c-15 49 -29 99 -44 148c272 324 545 647 817 971c-214 0 -476 -5 -590 -5l39 210c120 0 543 4 731 4c75 0 119 -13 137 -16c0 -2 0 -4 -1 -7c-10 -38 -10 -146 -19 -179c-1 -3 -2 -6 -2 -8c-254 -300 -508 -601 -762 -901c121 0 242 -1 363 -1c85 0 113 5 182 26
c10 -72 19 -143 29 -215c-48 -16 -119 -27 -194 -27h-679h-7z" />
    <glyph glyph-name="Eta" unicode="&#x397;" 
d="M499 1322l-105 -537c96 21 157 29 277 29h87c54 280 65 338 97 503h256c-85 -439 -171 -878 -256 -1317h-255c39 200 77 399 116 599h-32c-146 0 -209 -3 -332 -29c-68 -350 -73 -385 -109 -570h-258c86 440 171 880 257 1320c86 1 171 1 257 2z" />
    <glyph glyph-name="Theta" unicode="&#x398;" 
d="M735 1350c139 0 361 -51 361 -433c0 -76 -9 -165 -29 -270c-1 -4 -1 -7 -2 -11c-33 -167 -98 -324 -167 -419c-107 -147 -279 -233 -450 -233c-126 0 -272 41 -335 143c-41 66 -59 147 -59 240c0 65 9 136 24 212c70 352 165 511 257 608c87 92 238 160 400 163zM489 187
c142 0 269 276 306 453c1 6 3 11 4 17c15 69 30 168 30 258c0 123 -30 232 -135 232c-144 0 -288 -278 -344 -555c-13 -65 -24 -134 -24 -196c0 -116 38 -209 163 -209zM467 818h321c-19 -68 -38 -135 -57 -203h-321c19 68 38 135 57 203z" />
    <glyph glyph-name="Iota" unicode="&#x399;" 
d="M314 1324c157 4 258 5 354 5c105 0 205 -1 368 -3c-14 -70 -28 -141 -42 -211c-123 0 -134 5 -229 5c-58 -300 -117 -601 -175 -901c46 0 31 1 82 1c45 0 92 -1 143 -4c-14 -72 -27 -145 -41 -217c-84 5 -146 6 -209 6c-47 0 -96 -1 -155 -1c-74 0 -197 -7 -352 -7
l42 216c86 4 124 5 181 5h52c59 300 117 601 176 901c-66 -1 -123 -1 -230 -7c12 71 23 141 35 212z" />
    <glyph glyph-name="Kappa" unicode="&#x39a;" 
d="M638 742c97 -119 330 -550 354 -688c-78 -29 -156 -57 -234 -86c-24 111 -188 477 -293 606c0 0 -68 -62 -112 -134c-29 -148 -58 -297 -87 -445h-258c87 447 173 893 260 1340h258c-30 -155 -60 -309 -90 -464c131 145 518 468 562 505l162 -177
c-208 -135 -448 -383 -522 -457z" />
    <glyph glyph-name="Mu" unicode="&#x39c;" 
d="M244 1323h204c54 -114 115 -303 141 -489c89 182 216 356 323 489h216c-77 -398 -255 -1323 -255 -1323h-247c38 199 76 397 114 596c20 104 84 302 84 302c-87 -123 -194 -310 -212 -347c-50 -1 -100 -1 -150 -2c0 0 -50 268 -82 349c0 0 -5 -189 -27 -302
c-39 -199 -77 -397 -116 -596h-250c86 441 171 882 257 1323z" />
    <glyph glyph-name="Nu" unicode="&#x39d;" 
d="M616 0c-40 259 -117 626 -208 845c-17 -92 -35 -183 -52 -275c-57 -299 -81 -418 -111 -573h-246c86 443 173 885 259 1328c70 -2 139 -5 209 -7c89 -188 232 -662 253 -911c15 123 21 250 45 371c37 190 76 377 119 551c81 0 163 -1 244 -1c-28 -115 -60 -267 -92 -433
c-45 -231 -92 -490 -137 -725c-11 -58 -24 -116 -34 -170h-249z" />
    <glyph glyph-name="Omicron" unicode="&#x39f;" 
d="M709 1350c134 0 349 -51 349 -433c0 -76 -9 -165 -28 -270c-1 -4 -1 -7 -2 -11c-32 -167 -95 -324 -161 -419c-103 -147 -270 -233 -435 -233c-122 0 -263 41 -324 143c-40 66 -57 147 -57 240c0 65 8 136 23 212c69 352 159 511 248 608c84 92 230 160 387 163zM471 187
c137 0 260 276 296 453c1 6 3 11 4 17c14 69 29 168 29 258c0 123 -29 232 -131 232c-139 0 -277 -278 -332 -555c-13 -65 -23 -134 -23 -196c0 -116 36 -209 157 -209z" />
    <glyph glyph-name="Rho" unicode="&#x3a1;" 
d="M816 909c6 28 8 53 8 74c0 131 -96 134 -167 134h-9c-61 0 -106 -4 -151 -5c-5 -24 -9 -47 -14 -71c-36 -187 -78 -392 -78 -392c36 -1 71 -2 104 -2c116 0 260 30 307 262zM279 0h-250c86 440 171 880 257 1320c118 0 157 8 290 8c225 0 393 -13 481 -154
c25 -40 35 -90 35 -144c0 -34 -4 -70 -11 -106c-63 -324 -219 -485 -563 -485c-48 0 -99 1 -153 3c-52 -268 -55 -283 -86 -442z" />
    <glyph glyph-name="Tau" unicode="&#x3a4;" 
d="M280 0c72 373 145 745 217 1118c-198 0 -240 -1 -316 -1c13 69 27 138 40 207c122 0 577 1 765 1c73 0 140 -9 163 -16c-33 -68 -66 -135 -99 -203c0 0 -50 12 -110 12h-183c-72 -373 -145 -745 -217 -1118h-260z" />
    <glyph glyph-name="Upsilon" unicode="&#x3a5;" 
d="M279 18c100 197 187 377 287 574c-57 113 -359 522 -389 630c72 47 145 93 217 140c25 -79 236 -400 296 -540c84 185 168 369 252 554l219 -96c-206 -427 -445 -919 -651 -1346c-63 21 -156 48 -231 84z" />
    <glyph glyph-name="Chi" unicode="&#x3a7;" 
d="M985 1367c56 -39 113 -77 169 -116l-456 -594c118 -272 146 -424 261 -564c-63 -41 -126 -83 -189 -124c-123 150 -127 252 -231 499c-131 -174 -263 -348 -394 -522c-62 44 -123 88 -185 132l480 615c-80 208 -150 389 -259 548c68 45 137 90 205 135
c101 -149 151 -322 220 -497c126 163 253 325 379 488z" />
    <glyph glyph-name="uni0394" unicode="&#x394;" 
d="M662 199c0 121 -35 461 -35 670c0 53 2 98 8 129c-38 -166 -294 -655 -362 -799h389zM74 0c-50 13 -101 25 -151 38c223 429 447 858 670 1287h223c43 -428 86 -855 129 -1283c-48 -14 -97 -28 -145 -42h-726z" />
    <glyph glyph-name="Lambda" unicode="&#x39b;" 
d="M398 486l-243 -513c-77 22 -155 43 -232 65c223 429 447 858 670 1287h223c43 -428 86 -855 129 -1283c-90 -21 -181 -42 -271 -63c-8 175 -15 350 -23 525v9c0 108 -25 245 -25 370c0 40 2 79 9 115c-39 -168 -172 -373 -237 -512z" />
    <glyph glyph-name="Xi" unicode="&#x39e;" 
d="M402 849h377c-13 -68 -26 -135 -39 -203h-377c13 68 26 135 39 203zM274 1319c57 4 127 4 205 4h98h111c149 0 285 -3 359 -3h15c-13 -67 -27 -135 -40 -202h-790zM57 201c224 1 449 1 673 2c56 0 130 27 130 27c11 -66 23 -133 34 -199c-51 -13 -97 -34 -195 -34h-682
c13 68 27 136 40 204z" />
    <glyph glyph-name="Pi" unicode="&#x3a0;" 
d="M310 0h-255c70 362 141 725 211 1087c-30 -4 -58 -9 -89 -15c-2 65 -3 129 -5 194c96 21 216 30 336 30h676c-13 -65 -25 -131 -38 -196h-103c-47 -241 -94 -481 -141 -722c-25 -127 -38 -252 -47 -369c-84 -4 -169 -9 -253 -13c5 121 23 259 48 388
c46 239 93 477 139 716h-143c-44 0 -82 0 -120 -1c-72 -366 -144 -733 -216 -1099z" />
    <glyph glyph-name="Sigma" unicode="&#x3a3;" 
d="M587 658c-128 159 -255 317 -383 476c51 63 103 125 154 188c23 2 41 2 60 2c29 0 60 -1 107 -1h98h111c148 0 284 -3 359 -3h15c-13 -67 -27 -135 -40 -202h-505c105 -131 209 -261 314 -392c-13 -53 -25 -107 -38 -160c-149 -122 -298 -243 -447 -365
c127 1 256 2 384 2c56 0 130 27 130 27c11 -66 23 -133 34 -199c-51 -13 -97 -34 -195 -34c-215 1 -429 2 -644 3l-81 183c189 158 378 317 567 475z" />
    <glyph glyph-name="Phi" unicode="&#x3a6;" 
d="M371 420c38 195 75 389 113 584c-6 -4 -11 -8 -17 -13c-73 -59 -137 -151 -171 -322c-4 -20 -6 -44 -6 -68c0 -56 13 -114 41 -148c10 -13 25 -24 40 -33zM656 412c39 18 74 43 100 71c44 41 94 151 108 220c1 4 1 8 2 12c6 31 10 67 10 103c0 50 -8 100 -28 139
c-19 37 -44 62 -73 78c-32 -171 -60 -320 -110 -575zM332 214c-78 17 -148 47 -190 94c-57 64 -88 147 -88 244c0 33 4 68 11 104c53 271 155 394 244 469c52 44 129 81 219 103c7 35 13 70 20 105c7 34 13 67 20 101h284c-10 -53 -21 -105 -31 -158c-2 -12 -5 -23 -7 -34
c140 -24 297 -107 297 -372c0 -47 -5 -101 -16 -161c-1 -3 -1 -6 -2 -9c-25 -129 -95 -250 -159 -323c-76 -85 -190 -144 -317 -168c-15 -74 -27 -128 -47 -209c-95 0 -190 1 -285 1c17 68 28 114 39 174c2 12 5 25 8 39z" />
    <glyph glyph-name="Psi" unicode="&#x3a8;" 
d="M134 839c12 65 24 126 35 182c32 164 36 192 36 267c0 12 -1 22 -2 31c86 10 171 19 257 29v-15c0 -78 -3 -104 -38 -283c-10 -52 -13 -65 -25 -127s-21 -115 -21 -157c0 -70 26 -110 110 -110c49 240 75 362 117 576c6 34 13 68 19 102c79 0 157 1 236 1
c-10 -53 -21 -105 -31 -158c-38 -197 -57 -290 -104 -521c135 0 143 23 211 372c18 100 35 209 43 294c87 6 173 12 260 18c-7 -89 -23 -199 -38 -271c-3 -14 -5 -26 -7 -37c-72 -383 -121 -589 -500 -589c-32 -153 -63 -305 -93 -443h-249c17 68 51 239 63 299
c9 45 19 93 28 141c-228 0 -317 138 -317 301c0 32 4 65 10 98z" />
    <glyph glyph-name="uni03A9" unicode="&#x3a9;" 
d="M330 1h-376c13 72 27 144 40 216h175c-59 102 -114 212 -114 350c0 34 3 70 11 109c98 489 362 700 678 700c204 0 403 -134 403 -432c0 -416 -142 -574 -354 -727c28 0 55 1 83 1c59 0 129 28 129 28c1 -71 3 -142 4 -213c-52 -14 -91 -33 -167 -33h-6h-282
c-2 70 -4 141 -6 211c207 131 341 320 341 743c0 156 -84 205 -184 205c-133 0 -311 -176 -370 -476c-8 -40 -11 -81 -11 -121c0 -168 61 -320 105 -347c-33 -71 -66 -143 -99 -214z" />
    <glyph glyph-name="tonos" unicode="&#x384;" 
d="M510 1334c118 117 156 189 225 342l225 -54c-63 -154 -170 -284 -288 -400c-54 37 -108 75 -162 112z" />
    <glyph glyph-name="alphatonos" unicode="&#x3ac;" 
d="M581 1282c118 117 156 189 225 342l225 -54c-63 -154 -170 -284 -288 -400c-54 37 -108 75 -162 112zM871 493c9 -77 5 -133 18 -230c8 -58 35 -84 96 -110c-46 -62 -92 -123 -138 -185c-122 32 -160 119 -167 179c-3 23 -5 46 -8 68c-94 -148 -181 -222 -312 -222
c-222 0 -299 158 -299 353c0 58 7 119 19 181c71 367 285 491 460 491c165 0 232 -95 250 -251c50 99 83 177 137 270c69 -23 137 -47 206 -70c-90 -126 -177 -306 -262 -474zM333 524c-13 -66 -18 -118 -18 -160c0 -161 76 -165 85 -165h8c53 0 117 127 190 296
c-4 216 -15 320 -88 320c-49 0 -137 -85 -177 -291z" />
    <glyph glyph-name="Iotadieresis" unicode="&#x3aa;" 
d="M812.088 1713l281 -3l-46 -238l-282 1zM392.088 1713h279l-47 -240h-279zM314 1324c157 4 258 5 354 5c105 0 205 -1 368 -3c-14 -70 -28 -141 -42 -211c-123 0 -134 5 -229 5c-58 -300 -117 -601 -175 -901c46 0 31 1 82 1c45 0 92 -1 143 -4c-14 -72 -27 -145 -41 -217
c-84 5 -146 6 -209 6c-47 0 -96 -1 -155 -1c-74 0 -197 -7 -352 -7l42 216c86 4 124 5 181 5h52c59 300 117 601 176 901c-66 -1 -123 -1 -230 -7c12 71 23 141 35 212z" />
    <glyph glyph-name="Upsilondieresis" unicode="&#x3ab;" 
d="M852 1673l281 -3l-46 -238l-282 1zM432 1673h279l-47 -240h-279zM279 18c100 197 187 377 287 574c-57 113 -359 522 -389 630c72 47 145 93 217 140c25 -79 236 -400 296 -540c84 185 168 369 252 554l219 -96c-206 -427 -445 -919 -651 -1346c-63 21 -156 48 -231 84z
" />
    <glyph glyph-name="epsilontonos" unicode="&#x3ad;" 
d="M630 1282c118 117 156 189 225 342l225 -54c-63 -154 -170 -284 -288 -400c-54 37 -108 75 -162 112zM989 138c-81 -53 -269 -142 -492 -142c-182 0 -271 18 -335 77c-53 50 -78 128 -78 190c0 13 1 26 3 38c23 130 106 247 265 283c-128 14 -176 82 -176 162
c0 14 1 28 4 43c36 184 278 235 500 235h13c233 0 335 -61 351 -73c-34 -59 -68 -117 -102 -176c-21 15 -154 50 -299 50c-115 0 -195 -12 -200 -64c0 -2 -1 -5 -1 -7c0 -67 203 -89 299 -89h7h5h18c-13 -66 -25 -131 -38 -197c-26 0 -52 1 -78 1c-201 0 -280 -51 -302 -163
c-1 -5 -1 -10 -1 -15c0 -46 46 -98 209 -98c168 0 285 56 345 102c28 -52 55 -105 83 -157z" />
    <glyph glyph-name="etatonos" unicode="&#x3ae;" 
d="M639 1282c118 117 156 189 225 342l225 -54c-63 -154 -170 -284 -288 -400c-54 37 -108 75 -162 112zM936 296l-69 -357c-10 -51 -20 -143 -20 -205c0 -19 1 -35 3 -46c-83 -21 -167 -41 -250 -62c-2 41 -6 78 -6 126c0 46 4 101 19 180c18 93 36 185 54 278
c32 169 65 338 97 507c3 15 4 28 4 39c0 45 -23 63 -76 63c-63 0 -170 -38 -269 -112c-45 -236 -91 -471 -136 -707h-252c46 235 91 471 137 706c23 118 30 170 30 218c0 25 -2 48 -4 80c80 16 161 32 241 48c4 -21 14 -65 14 -109v-16c66 50 205 99 315 99
c148 0 273 -38 273 -166c0 -14 -2 -30 -5 -46c-33 -173 -67 -345 -100 -518z" />
    <glyph glyph-name="iotatonos" unicode="&#x3af;" 
d="M562 1282c118 117 156 189 225 342l225 -54c-63 -154 -170 -284 -288 -400c-54 37 -108 75 -162 112zM486 1013h255c-53 -273 -138 -717 -138 -717c-2 -11 -3 -21 -3 -31c0 -48 25 -81 73 -81c45 0 143 68 177 152c54 -33 107 -65 161 -98c-57 -140 -183 -256 -411 -256
c-85 0 -175 14 -214 38c-51 31 -64 77 -64 122c0 22 3 44 7 64c39 202 79 405 118 607c-49 0 -140 -6 -239 -28c2 62 5 124 7 186c99 28 191 42 271 42z" />
    <glyph glyph-name="upsilondieresistonos" unicode="&#x3b0;" 
d="M583.5 1455.54c109.324 107.662 144.529 173.916 208.456 314.706l208.456 -49.6904c-58.3672 -141.71 -157.5 -261.335 -266.823 -368.077c-50.0303 34.0469 -100.06 69.0146 -150.089 103.062zM792 1394.64l281 -2.56055l-46 -203.176l-282 0.853516zM372 1394.64h279
l-47 -204.883h-279zM88 364c12 60 23 123 35 183c36 183 68 352 68 432c0 9 0 17 -1 24c89 10 179 19 268 29v-9c0 -77 -34 -253 -72 -450c-11 -56 -12 -61 -23 -118c-7 -37 -12 -75 -12 -110c0 -78 23 -140 91 -140c58 0 122 23 193 104c75 86 86 122 132 360
c5 26 7 54 7 83c0 73 -13 151 -20 211c90 29 179 57 269 86c21 -47 28 -119 28 -187c0 -71 -6 -138 -14 -172c-1 -4 -1 -8 -2 -12c-2 -12 -5 -25 -7 -37c-34 -191 -93 -338 -301 -518c-76 -66 -208 -127 -371 -127c-168 0 -276 127 -276 291c0 25 3 51 8 77z" />
    <glyph glyph-name="omicrontonos" unicode="&#x3cc;" 
d="M643 1282c118 117 156 189 225 342l225 -54c-63 -154 -170 -284 -288 -400c-54 37 -108 75 -162 112zM598 247c57 52 92 156 115 283c1 6 2 10 3 16c8 45 13 87 13 125c0 94 -31 159 -123 159c-151 0 -223 -140 -263 -348c-7 -37 -11 -72 -11 -103
c0 -110 45 -182 139 -182c55 1 84 14 127 50zM431 -6c-254 0 -359 127 -359 327c0 44 5 92 15 143c72 371 252 568 544 568c197 0 294 -69 338 -201c13 -39 18 -86 18 -136c0 -51 -5 -103 -15 -152c-57 -285 -203 -549 -539 -549h-2z" />
    <glyph glyph-name="upsilontonos" unicode="&#x3cd;" 
d="M555 1282c118 117 156 189 225 342l225 -54c-63 -154 -170 -284 -288 -400c-54 37 -108 75 -162 112zM88 364c12 60 23 123 35 183c36 183 68 352 68 432c0 9 0 17 -1 24c89 10 179 19 268 29v-9c0 -77 -34 -253 -72 -450c-11 -56 -12 -61 -23 -118
c-7 -37 -12 -75 -12 -110c0 -78 23 -140 91 -140c58 0 122 23 193 104c75 86 86 122 132 360c5 26 7 54 7 83c0 73 -13 151 -20 211c90 29 179 57 269 86c21 -47 28 -119 28 -187c0 -71 -6 -138 -14 -172c-1 -4 -1 -8 -2 -12c-2 -12 -5 -25 -7 -37
c-34 -191 -93 -338 -301 -518c-76 -66 -208 -127 -371 -127c-168 0 -276 127 -276 291c0 25 3 51 8 77z" />
    <glyph glyph-name="omegatonos" unicode="&#x3ce;" 
d="M572 1282c118 117 156 189 225 342l225 -54c-63 -154 -170 -284 -288 -400c-54 37 -108 75 -162 112zM457 684c79 6 157 13 236 19c-19 -85 -36 -179 -55 -272c-1 -8 -2 -17 -4 -26c-19 -93 -25 -145 -25 -173c0 -26 7 -32 21 -32c77 0 131 70 160 220
c22 116 38 223 38 317c0 79 -11 150 -38 210c83 31 167 61 250 92c28 -68 37 -150 37 -233c0 -137 -26 -277 -43 -365c-43 -223 -155 -453 -400 -453c-114 0 -158 32 -167 116c-43 -72 -83 -114 -217 -114c-168 0 -224 127 -224 284c0 55 7 112 18 170
c32 168 96 422 242 605c67 -33 135 -67 202 -100c-106 -127 -167 -274 -207 -481c-11 -58 -17 -107 -17 -148c0 -79 20 -124 56 -124c42 0 61 91 83 199c2 9 3 19 5 29c21 106 32 160 49 260z" />
    <glyph glyph-name="Upsilontonos" unicode="&#x38e;" 
d="M121.138 1309c91.6553 117 121.171 189 174.767 342c58.2549 -18 116.511 -36 174.766 -54c-48.9346 -154 -132.045 -284 -223.7 -400c-41.9443 37 -83.8887 75 -125.832 112zM451.562 18c86.2227 197 161.236 377 247.46 574c-49.1475 113 -309.541 522 -335.408 630
c62.0811 47 125.023 93 187.104 140c21.5557 -79 203.486 -400 255.22 -540c72.4277 185 144.854 369 217.282 554c62.9424 -32 125.886 -64 188.828 -96c-177.619 -427 -383.692 -919 -561.312 -1346c-54.3203 21 -134.508 48 -199.175 84z" />
    <glyph glyph-name="Omegatonos" unicode="&#x38f;" 
d="M105.163 1305c84.0254 117 111.085 189 160.219 342l160.219 -54c-44.8613 -154 -121.055 -284 -205.08 -400c-38.4521 37 -76.9053 75 -115.357 112zM399.753 1h-346.095c11.9668 72 24.8525 144 36.8193 216h161.081c-54.3076 102 -104.933 212 -104.933 350
c0 34 2.76074 70 10.125 109c90.2051 489 333.208 700 624.074 700c187.774 0 370.947 -134 370.947 -432c0 -416 -130.706 -574 -325.845 -727c25.7734 0 50.626 1 76.3984 1c54.3076 0 118.74 28 118.74 28c0.919922 -71 2.76172 -142 3.68164 -213
c-47.8643 -14 -83.7617 -33 -153.718 -33h-5.52246h-259.57c-1.8418 70 -3.68262 141 -5.52344 211c190.536 131 313.879 320 313.879 743c0 156 -77.3193 205 -169.366 205c-122.421 0 -286.264 -176 -340.571 -476c-7.36328 -40 -10.125 -81 -10.125 -121
c0 -168 56.1484 -320 96.6484 -347c-30.375 -71 -60.75 -143 -91.126 -214z" />
    <glyph glyph-name="iotadieresistonos" unicode="&#x390;" 
d="M590.5 1455.54c109.324 107.662 144.529 173.916 208.456 314.706l208.456 -49.6904c-58.3672 -141.71 -157.5 -261.335 -266.823 -368.077c-50.0303 34.0469 -100.06 69.0146 -150.089 103.062zM799 1394.64l281 -2.56055l-46 -203.176l-282 0.853516zM379 1394.64h279
l-47 -204.883h-279zM486 1013h255c-53 -273 -138 -717 -138 -717c-2 -11 -3 -21 -3 -31c0 -48 25 -81 73 -81c45 0 143 68 177 152c54 -33 107 -65 161 -98c-57 -140 -183 -256 -411 -256c-85 0 -175 14 -214 38c-51 31 -64 77 -64 122c0 22 3 44 7 64
c39 202 79 405 118 607c-49 0 -140 -6 -239 -28c2 62 5 124 7 186c99 28 191 42 271 42z" />
    <glyph glyph-name="Omicrontonos" unicode="&#x38c;" 
d="M128.626 1306c92 117 121.627 189 175.424 342c58.4736 -18 116.948 -36 175.423 -54c-49.1182 -154 -132.542 -284 -224.542 -400c-42.1016 37 -84.2031 75 -126.305 112zM762.249 1350c127.433 0 331.895 -51 331.895 -433c0 -76 -8.55957 -165 -26.6279 -270
c-0.951172 -4 -0.951172 -7 -1.90234 -11c-30.4316 -167 -90.3438 -324 -153.108 -419c-97.9512 -147 -256.767 -233 -413.679 -233c-116.021 0 -250.109 41 -308.12 143c-38.0391 66 -54.2061 147 -54.2061 240c0 65 7.6084 136 21.873 212
c65.6182 352 151.207 511 235.845 608c79.8828 92 218.727 160 368.031 163zM535.914 187c130.285 0 247.257 276 281.492 453c0.951172 6 2.85254 11 3.80371 17c13.3145 69 27.5791 168 27.5791 258c0 123 -27.5791 232 -124.579 232
c-132.188 0 -263.424 -278 -315.728 -555c-12.3633 -65 -21.873 -134 -21.873 -196c0 -116 34.2354 -209 149.305 -209z" />
    <glyph glyph-name="Epsilontonos" unicode="&#x388;" 
d="M59.4805 1309c94.2793 117 124.641 189 179.771 342c59.9238 -18 119.848 -36 179.771 -54c-50.3359 -154 -135.826 -284 -230.106 -400c-43.1445 37 -86.29 75 -129.435 112zM432.355 1319c50.4248 4 112.351 4 181.353 4h86.6953h97.3115
c131.812 0 252.125 -3 317.589 -3h14.1543c-11.5 -67 -23.8857 -135 -35.3857 -202h-467.979c-15.0391 -90 -30.9629 -179 -46.002 -269h299.011c-11.5 -68 -23.001 -135 -34.501 -203h-299.012c-1.76855 -10 -3.53809 -21 -5.30762 -31
c-35.3857 -207 -59.2715 -332 -72.541 -411c122.966 1 245.048 1 368.014 2c49.54 0 115.004 27 115.004 27c9.73145 -66 20.3477 -133 30.0781 -199c-45.1172 -13 -84.9258 -34 -171.621 -34h-603.33c75.1953 440 151.274 879 226.47 1319z" />
    <glyph glyph-name="Etatonos" unicode="&#x389;" 
d="M130.447 1345c92.6523 117 122.489 189 176.667 342c58.8896 -18 117.779 -36 176.668 -54c-49.4668 -154 -133.482 -284 -226.135 -400c-42.4004 37 -84.8008 75 -127.2 112zM648.517 1322l-94.5879 -537c86.4795 21 141.431 29 249.531 29h78.3721
c48.6455 280 58.5547 338 87.3809 503h230.613c-76.5703 -439 -154.042 -878 -230.613 -1317h-229.713c35.1328 200 69.3643 399 104.497 599h-28.8262c-131.522 0 -188.274 -3 -299.077 -29c-61.2568 -350 -65.7607 -385 -98.1914 -570h-232.415
c77.4717 440 154.043 880 231.515 1320c77.4717 1 154.043 1 231.515 2z" />
    <glyph glyph-name="Iotatonos" unicode="&#x38a;" 
d="M165.313 1327c98.8691 117 130.708 189 188.521 342c62.8408 -18 125.681 -36 188.521 -54c-52.7861 -154 -142.438 -284 -241.307 -400c-45.2451 37 -90.4902 75 -135.735 112zM491 1324c157 4 258 5 354 5c105 0 205 -1 368 -3c-14 -70 -28 -141 -42 -211
c-123 0 -134 5 -229 5c-58 -300 -117 -601 -175 -901c46 0 31 1 82 1c45 0 92 -1 143 -4c-14 -72 -27 -145 -41 -217c-84 5 -146 6 -209 6c-47 0 -96 -1 -155 -1c-74 0 -197 -7 -352 -7l42 216c86 4 124 5 181 5h52c59 300 117 601 176 901c-66 -1 -123 -1 -230 -7
c12 71 23 141 35 212z" />
    <glyph glyph-name="Alphatonos" unicode="&#x386;" 
d="M213 1301c118 117 156 189 225 342l225 -54c-63 -154 -170 -284 -288 -400c-54 37 -108 75 -162 112zM674 504v7c0 114 -38 262 -38 394c0 32 2 63 8 93c-39 -168 -172 -373 -237 -512c63 13 183 13 267 18zM601 1325h224c49 -442 104 -877 147 -1325h-276
c-8 94 -15 188 -23 281c-153 -3 -237 1 -363 -29l-48 -90c-32 -61 -60 -119 -71 -162h-260c16 61 55 143 97 223c191 367 382 735 573 1102z" />
    <glyph glyph-name="dieresistonos" unicode="&#x385;" 
d="M634.5 1438.54c109.324 107.662 144.529 173.916 208.456 314.706l208.456 -49.6904c-58.3672 -141.71 -157.5 -261.335 -266.823 -368.077c-50.0303 34.0469 -100.06 69.0146 -150.089 103.062zM843 1377.64l281 -2.56055l-46 -203.176l-282 0.853516zM423 1377.64h279
l-47 -204.883h-279z" />
    <glyph glyph-name="anoteleia" unicode="&#x387;" 
d="M414 700h315c-20 -104 -41 -209 -61 -313h-315c20 104 41 209 61 313z" />
    <glyph glyph-name="uni03D0" unicode="&#x3d0;" 
d="M147 736c83 420 236 592 460 592c163 0 333 -56 333 -244c0 -22 -3 -47 -8 -73c-20 -102 -73 -195 -176 -232c140 -23 240 -112 240 -288c0 -33 -3 -70 -11 -110c-54 -275 -175 -381 -507 -381c-287 0 -373 157 -373 386c0 104 17 224 42 350zM416 838
c159 0 237 17 270 167c2 8 2 16 2 23c0 63 -55 92 -121 92c-58 0 -118 -112 -151 -282zM376 619c-12 -63 -18 -118 -18 -165c0 -181 81 -252 174 -252c148 0 183 59 208 193c3 17 5 32 5 47c0 130 -116 190 -238 190c-33 0 -81 -3 -131 -13z" />
    <glyph glyph-name="theta1" unicode="&#x3d1;" 
d="M824 786c8 75 19 143 19 198c0 97 -32 156 -159 156c-123 0 -256 -91 -277 -213c-2 -13 -4 -24 -4 -35c0 -83 75 -100 174 -100c180 0 197 -1 247 -6zM165 922c46 243 265 428 554 428c135 0 361 -51 361 -440c0 -74 -8 -162 -27 -263c-1 -4 -1 -7 -2 -11
c-32 -167 -108 -324 -174 -419c-103 -147 -270 -233 -435 -233c-122 0 -263 41 -324 143c-43 71 -63 192 -63 307c0 25 1 50 3 74c89 17 178 33 267 50c-4 -40 -7 -93 -7 -142c0 -55 4 -106 15 -132c25 -60 68 -97 148 -97c85 0 151 62 199 139c31 45 70 146 95 236
c-26 1 -54 2 -84 2c-285 0 -535 28 -535 271c0 26 3 55 9 87z" />
    <glyph glyph-name="Upsilon1" unicode="&#x3d2;" 
d="M635 1020c91 145 234 356 400 356c123 0 161 -57 161 -152c0 -42 -12 -92 -18 -148c0 -2 -1 -4 -1 -6c-66 -11 -131 -21 -197 -32c6 42 13 97 15 110c-21 -13 -244 -241 -295 -502c-42 -215 -84 -431 -126 -646h-261c41 212 83 425 124 637c4 23 7 49 7 75
c0 178 -101 407 -266 450c39 81 77 162 116 243c190 -42 315 -243 341 -385z" />
    <glyph glyph-name="uni03D3" unicode="&#x3d3;" 
d="M89.6074 1293c90.8389 117 120.092 189 173.21 342l173.209 -54c-48.499 -154 -130.869 -284 -221.708 -400c-41.5703 37 -83.1406 75 -124.711 112zM713.859 1020c77.9385 145 200.414 356 342.588 356c105.346 0 137.892 -57 137.892 -152
c0 -42 -10.2773 -92 -15.416 -148c0 -2 -0.856445 -4 -0.856445 -6c-56.5273 -11 -112.197 -21 -168.725 -32c5.13867 42 11.1338 97 12.8467 110c-17.9854 -13 -208.979 -241 -252.659 -502c-35.9717 -215 -71.9434 -431 -107.915 -646h-223.539
c35.1152 212 71.0869 425 106.202 637c3.42676 23 5.99609 49 5.99609 75c0 178 -86.5039 407 -227.821 450c33.4023 81 65.9482 162 99.3506 243c162.729 -42 269.788 -243 292.057 -385z" />
    <glyph glyph-name="uni03D4" unicode="&#x3d4;" 
d="M852 1673l281 -3l-46 -238l-282 1zM432 1673h279l-47 -240h-279zM635 1020c91 145 234 356 400 356c123 0 161 -57 161 -152c0 -42 -12 -92 -18 -148c0 -2 -1 -4 -1 -6c-66 -11 -131 -21 -197 -32c6 42 13 97 15 110c-21 -13 -244 -241 -295 -502
c-42 -215 -84 -431 -126 -646h-261c41 212 83 425 124 637c4 23 7 49 7 75c0 178 -101 407 -266 450c39 81 77 162 116 243c190 -42 315 -243 341 -385z" />
    <glyph glyph-name="phi1" unicode="&#x3d5;" 
d="M452 794c-103 -54 -158 -167 -185 -312c-5 -27 -8 -53 -8 -77c0 -79 29 -142 88 -177c33 177 70 378 105 566zM305 5c-204 36 -291 158 -291 332c0 40 4 82 13 127c62 315 215 504 467 554c19 102 36 193 50 265l18 93h271c-9 -48 -19 -97 -28 -145
c-12 -60 -25 -131 -39 -208c146 -22 227 -87 270 -192c18 -45 26 -100 26 -157c0 -44 -5 -89 -13 -131c-48 -249 -179 -482 -470 -537l-9 -48c-22 -115 -34 -171 -59 -272c-91 0 -181 1 -272 1c16 62 25 105 36 160c8 41 17 89 30 158zM656 247c78 52 118 156 141 283
c1 6 2 10 3 16c6 34 10 66 10 96c0 75 -22 135 -83 166c-35 -193 -72 -402 -106 -580c11 6 23 12 35 19z" />
    <glyph glyph-name="omega1" unicode="&#x3d6;" 
d="M158 1018c57 4 140 4 218 4h98h110c149 0 476 -4 550 -4h16c-13 -66 -25 -131 -38 -197h-82c13 -70 19 -140 19 -206c0 -64 -6 -125 -15 -174c-42 -223 -155 -453 -400 -453c-114 0 -158 32 -167 116c-43 -72 -83 -114 -217 -114c-168 0 -224 127 -224 284
c0 55 7 112 18 170c23 116 73 247 149 377h-71c12 66 24 131 36 197zM457 684c79 6 157 13 236 19c-19 -85 -36 -179 -55 -272c-1 -8 -2 -17 -4 -26c-19 -93 -25 -145 -25 -173c0 -26 7 -32 21 -32c77 0 131 70 160 220c13 65 18 125 18 182c0 80 -11 153 -29 219h-336
c-71 -96 -133 -205 -162 -353c-11 -58 -17 -107 -17 -148c0 -79 20 -124 56 -124c42 0 61 91 83 199c2 9 3 19 5 29c21 106 32 160 49 260z" />
    <glyph glyph-name="uni03D7" unicode="&#x3d7;" 
d="M109 838c0 0 112 182 338 182c138 0 193 -64 193 -168c0 -23 -3 -48 -8 -74c-13 -66 -40 -123 -71 -169c0 0 76 66 149 117c7 5 13 9 20 14c61 140 153 281 289 281c86 0 111 -48 111 -101c0 -13 -1 -28 -4 -41c-23 -110 -188 -211 -306 -291c-44 -77 -67 -152 -84 -242
c-1 -3 -1 -7 -2 -10c-6 -34 -13 -67 -13 -93s7 -44 26 -44c32 0 78 38 120 88c42 -32 83 -64 125 -96c-1 -7 -3 -15 -4 -22c-9 -45 -16 -88 -24 -128c-51 -257 -104 -406 -470 -406c13 62 25 125 38 187c203 0 207 26 254 204c1 3 1 7 2 10c-31 -20 -69 -36 -126 -36
c-85 0 -201 10 -201 139c0 16 2 34 6 54c19 98 56 176 87 222c-54 -34 -63 -38 -136 -89c-5 -4 -11 -9 -16 -13c-74 -142 -207 -312 -344 -312h-1c-53 0 -87 33 -87 96c0 13 1 26 4 41c31 156 149 214 267 294c44 77 123 204 140 294c5 26 7 45 7 59c0 36 -15 39 -34 39
c-27 0 -79 -55 -133 -120c-37 45 -75 89 -112 134z" />
    <glyph glyph-name="uni03CF" unicode="&#x3cf;" 
d="M762 0c-24 111 -192 445 -297 574c0 0 -68 -62 -112 -134c-29 -148 -58 -297 -87 -445h-258c87 447 173 893 260 1340h258c-30 -155 -60 -309 -90 -464c131 145 518 468 562 505l162 -177c-208 -135 -448 -383 -522 -457c97 -119 330 -550 354 -688
c-53 -267 -141 -418 -513 -418c12 59 23 118 35 177c162 0 230 94 248 187z" />
    <glyph glyph-name="uni03D8" unicode="&#x3d8;" 
d="M314 284c26 -60 69 -97 149 -97c86 0 150 62 198 139c41 59 95 215 115 314c1 6 3 11 4 17c13 69 23 152 23 228c0 43 -3 83 -10 117c-22 106 -67 145 -132 145c-70 0 -116 -25 -173 -96c-66 -83 -129 -216 -177 -459c-10 -50 -16 -113 -16 -171c0 -54 5 -105 19 -137z
M700 1350c135 0 362 -52 362 -441c0 -74 -8 -161 -27 -262c-1 -4 -1 -7 -2 -11c-32 -167 -109 -324 -175 -419c-77 -109 -190 -186 -310 -217c-20 -105 -41 -211 -61 -316h-246c20 104 40 209 60 313c-84 19 -160 61 -201 130c-45 75 -69 169 -69 278c0 55 6 113 18 174
c69 352 175 511 264 608c84 92 230 160 387 163z" />
    <glyph glyph-name="uni03D9" unicode="&#x3d9;" 
d="M307 9c-157 39 -225 154 -225 314c0 44 5 91 15 141c73 371 252 568 544 568c197 0 294 -69 338 -201c13 -39 18 -86 18 -136c0 -51 -5 -103 -15 -152c-50 -252 -170 -488 -430 -539c-21 -106 -41 -213 -62 -319h-246zM608 247c57 52 92 156 115 283c1 6 2 10 3 16
c8 45 13 87 13 125c0 94 -31 159 -123 159c-151 0 -223 -140 -263 -348c-7 -37 -11 -72 -11 -103c0 -110 45 -182 139 -182c55 1 84 14 127 50z" />
    <glyph glyph-name="uni03DB" unicode="&#x3db;" 
d="M370 -3c-39 7 -128 32 -180 76c-75 63 -104 152 -104 262c0 59 8 123 22 192c67 340 274 491 589 491c144 0 233 3 328 3c32 0 64 0 99 -1c-13 -73 -27 -145 -40 -218c-24 4 -142 5 -260 5h-186c-147 0 -245 -136 -273 -279c-9 -46 -13 -86 -13 -120
c0 -167 93 -199 140 -211c224 -59 370 -111 370 -248c0 -14 -2 -28 -5 -44c-25 -129 -152 -283 -448 -285l15 198c117 14 187 31 200 83c1 3 1 6 1 8c0 65 -173 74 -255 88z" />
    </font>
</defs>
</svg>
