<?xml version="1.0" standalone="no"?>
<!DOCTYPE svg PUBLIC "-//W3C//DTD SVG 1.1//EN" "http://www.w3.org/Graphics/SVG/1.1/DTD/svg11.dtd" >
<!--
2013-9-13: Created.
-->
<svg xmlns="http://www.w3.org/2000/svg" xmlns:xlink="http://www.w3.org/1999/xlink" version="1.1">
<metadata>
Created by FontForge 20170921 at Sun Jan  7 19:01:00 2018
 By Jany Belluz
Created by Jany Belluz with FontForge 2.0 (http://fontforge.sf.net)
</metadata>
<defs>
<font id="FantasqueSansMono-Italic" horiz-adv-x="1060" >
  <font-face 
    font-family="Fantasque Sans Mono"
    font-weight="400"
    font-style="italic"
    font-stretch="normal"
    units-per-em="2048"
    panose-1="2 11 6 9 2 2 4 3 2 4"
    ascent="1650"
    descent="-398"
    x-height="1028"
    cap-height="1292"
    bbox="-107 -797 1304.45 2212"
    underline-thickness="96"
    underline-position="-192"
    slope="-11"
    unicode-range="U+0020-FF63"
  />
    <missing-glyph />
    <glyph glyph-name="a" unicode="a" 
d="M243 514c-17 -63 -25 -119 -25 -168c0 -128 54 -202 132 -202c226 0 358 298 416 464l45 196c-50 35 -123 86 -227 86c-191 0 -270 -116 -341 -376zM1006 1002l-120 -646c-13 -66 -20 -110 -20 -142c0 -52 18 -72 53 -105l-106 -119c-41 37 -97 64 -97 201c0 8 0 16 1 25
c-58 -84 -184 -224 -396 -224c-155 0 -255 148 -255 351c0 51 6 105 19 161c84 358 218 530 519 530c126 0 189 -40 237 -73c5 23 8 45 10 65z" />
    <glyph glyph-name="b" unicode="b" 
d="M767 478c12 61 17 115 17 161c0 166 -71 234 -169 234c-103 0 -227 -137 -332 -424l-29 -142c49 -114 87 -160 224 -160c170 0 249 127 289 331zM920 459c-52 -268 -197 -466 -472 -466c-112 0 -186 35 -238 91c-9 -42 -18 -64 -29 -96l-162 19c23 66 49 153 65 236
l177 914c18 94 27 178 33 246l161 9c-5 -73 -16 -170 -37 -260l-75 -319c73 102 166 195 288 195c195 0 307 -154 307 -393c0 -55 -6 -114 -18 -176z" />
    <glyph glyph-name="c" unicode="c" 
d="M242 389c0 -149 78 -239 259 -239h13c156 0 244 80 313 167l116 -111c-41 -42 -176 -213 -455 -213c-241 0 -411 149 -411 349c0 73 11 145 22 205c63 331 281 471 586 471c177 0 269 -95 300 -229l-156 -53c-13 66 -43 129 -183 129c-214 0 -346 -111 -387 -326
c-8 -44 -17 -98 -17 -150z" />
    <glyph glyph-name="d" unicode="d" 
d="M206 514c-17 -63 -25 -119 -25 -168c0 -128 54 -202 132 -202c226 0 358 298 416 464l45 196c-50 35 -123 86 -227 86c-191 0 -270 -116 -341 -376zM1044 1388l-195 -1032c-13 -66 -19 -110 -19 -142c0 -52 17 -72 52 -105l-106 -119c-41 37 -98 80 -98 183
c0 8 0 16 1 25c-58 -84 -183 -206 -395 -206c-155 0 -255 148 -255 351c0 51 6 105 19 161c84 358 218 530 519 530c126 0 189 -40 237 -73c5 23 83 431 85 451z" />
    <glyph glyph-name="e" unicode="e" 
d="M262 492c115 8 324 21 438 89c75 45 111 102 111 154c0 73 -71 134 -207 134c-170 0 -293 -126 -342 -377zM632 1021c215 0 325 -136 325 -281c0 -101 -54 -206 -163 -273c-153 -93 -404 -115 -548 -126v-11c0 -72 39 -187 233 -187c179 0 278 81 327 135l102 -109
c-50 -45 -170 -179 -463 -179c-244 0 -359 142 -359 366c0 49 6 103 17 160c56 286 246 505 529 505z" />
    <glyph glyph-name="f" unicode="f" 
d="M1111 1194c-108 68 -240 72 -372 72c-147 0 -175 -98 -196 -206l-8 -39c68 0 192 -1 265 -1c103 -3 129 -11 157 -20l-40 -147c-20 7 -50 14 -106 14h-305c-29 -154 -165 -863 -166 -867h-157c5 25 139 720 166 867h-131l6 153h155c3 16 4 25 8 44c28 143 97 354 374 354
c132 0 304 -8 435 -85z" />
    <glyph glyph-name="g" unicode="g" 
d="M243 514c-17 -63 -25 -119 -25 -168c0 -128 54 -202 132 -202c226 0 358 298 416 464l45 196c-50 35 -123 86 -227 86c-191 0 -270 -116 -341 -376zM1006 1002l-120 -646c-48 -257 -136 -758 -532 -758c-115 0 -256 42 -429 145l76 150c145 -101 258 -140 347 -140
c254 0 323 331 361 454c-58 -84 -176 -215 -388 -215c-155 0 -255 148 -255 351c0 51 6 105 19 161c84 358 218 530 519 530c126 0 189 -40 237 -73c5 23 8 45 10 65z" />
    <glyph glyph-name="p" unicode="p" 
d="M790 527c12 63 19 118 19 165c0 105 -34 166 -113 166c-137 0 -294 -191 -405 -428l-32 -168c42 -51 87 -114 178 -114c163 0 298 96 353 379zM196 757c2 8 3 16 5 24c16 83 24 169 27 235l168 20c-1 -32 -35 -222 -42 -264c132 210 229 241 371 241
c158 0 241 -128 241 -317c0 -47 -5 -97 -15 -150c-65 -336 -235 -553 -558 -553c-100 0 -137 46 -179 77l-45 -221c-14 -95 -25 -181 -31 -249l-162 6c5 73 16 157 35 248z" />
    <glyph glyph-name="h" unicode="h" 
d="M755 576c12 62 26 130 26 171c0 66 -33 120 -118 120c-78 0 -263 -80 -400 -383l-52 -286c-14 -79 -34 -152 -48 -198l-156 8c22 72 34 119 49 196c98 504 232 1198 232 1198h159l-111 -570c82 123 199 188 301 188c182 0 305 -64 305 -245c0 -40 -8 -83 -17 -133
c-30 -153 -52 -262 -73 -367c-2 -9 -13 -63 -13 -78c0 -70 36 -74 80 -96l-66 -136c-92 22 -175 93 -175 191c0 37 11 85 15 104z" />
    <glyph glyph-name="i" unicode="i" 
d="M511 1406h235l-43 -225h-235zM661 1020l-147 -736c-4 -19 -5 -36 -5 -52c0 -71 37 -108 112 -108c93 0 191 24 270 76l76 -117c-100 -71 -248 -101 -372 -101c-191 0 -245 117 -245 227c0 25 2 48 7 71l108 533c-35 -26 -145 -88 -219 -112l-58 144
c232 98 265 146 283 175h190z" />
    <glyph glyph-name="j" unicode="j" 
d="M758 1404l233 -3l-43 -225l-234 3zM859 748l-174 -866c-28 -145 -113 -269 -351 -269c-123 0 -263 22 -349 227l145 98c68 -162 150 -169 213 -169h17c112 0 161 82 170 117l176 876c2 12 4 28 4 45c0 40 -11 84 -54 85h-3c-49 0 -114 -1 -234 -111l-97 133
c135 89 201 127 336 127c176 0 208 -98 208 -206c0 -25 -2 -63 -7 -87z" />
    <glyph glyph-name="k" unicode="k" 
d="M218 0h-157l239 1228c7 36 11 72 11 108c0 25 -2 49 -6 74l163 17c2 -11 4 -37 4 -69c0 -37 -3 -82 -10 -118l-161 -818c202 280 445 488 653 636l95 -136c-149 -89 -347 -256 -520 -453c104 -177 215 -287 392 -332l-35 -155c-206 53 -352 183 -464 355
c-84 -109 -155 -224 -204 -337z" />
    <glyph glyph-name="l" unicode="l" 
d="M648 1431l-198 -1055c-6 -32 -9 -60 -9 -85c0 -133 76 -167 183 -167c93 0 191 24 270 76l76 -117c-100 -71 -248 -101 -372 -101c-213 0 -318 124 -318 299c0 29 3 59 9 91l197 1072z" />
    <glyph glyph-name="m" unicode="m" 
d="M889 1026c100 0 126 -92 126 -180c0 -39 -5 -78 -11 -107l-102 -523c-1 -5 -1 -10 -1 -15c0 -43 39 -75 73 -89l-87 -133c-59 12 -135 58 -135 163c0 15 2 31 5 49l1 2l110 567c1 4 1 8 2 13c2 12 5 28 5 43c0 29 -10 57 -49 57c-48 0 -110 -46 -198 -181l-134 -692h-141
l157 806c2 9 3 19 3 29c0 20 -7 38 -38 38c-48 0 -127 -46 -215 -182l-134 -691h-141l155 815c10 51 13 90 13 122c0 26 -2 48 -5 70l158 40c3 -12 5 -34 5 -58c0 -38 -4 -84 -8 -112c62 80 162 149 235 149c85 0 128 -60 128 -122c0 -9 -1 -18 -3 -27
c58 79 134 149 226 149z" />
    <glyph glyph-name="o" unicode="o" 
d="M621 215c77 61 121 167 150 315c1 6 3 12 4 18c7 40 12 79 12 114c0 127 -25 216 -191 216c-174 0 -303 -165 -350 -409c-7 -36 -11 -70 -11 -101c0 -134 28 -212 196 -212c76 1 132 17 190 59zM407 1h-2c-204 0 -332 127 -332 328c0 42 5 87 14 135
c57 292 213 568 505 568c197 0 294 -69 338 -201c13 -39 18 -86 18 -136c0 -51 -5 -103 -15 -152c-55 -285 -185 -542 -524 -542h-2z" />
    <glyph glyph-name="n" unicode="n" 
d="M374 856c118 118 230 174 358 174c108 0 222 -69 222 -192c0 -13 -1 -27 -4 -42l-114 -585c-2 -8 -2 -14 -2 -21c0 -50 41 -70 85 -97l-106 -112c-70 38 -141 81 -141 178c0 14 2 29 5 45l109 561c3 13 4 26 4 37c0 49 -26 75 -86 75c-116 0 -299 -137 -395 -391
l-98 -486l-158 -1l137 706c17 88 22 141 22 184c0 44 -5 77 -8 125l170 18c2 -18 3 -48 3 -84c0 -28 -1 -60 -3 -92z" />
    <glyph glyph-name="q" unicode="q" 
d="M266 514c-17 -63 -25 -119 -25 -168c0 -128 54 -202 132 -202c149 0 331 312 423 520l38 140c-50 35 -123 86 -227 86c-191 0 -270 -116 -341 -376zM1029 1002l-104 -498c-19 -97 -107 -403 -129 -556c-6 -42 -9 -82 -9 -119c0 -72 12 -136 36 -201l-156 -52
c-30 80 -45 173 -45 259c0 39 3 76 9 110c28 160 74 253 85 317c-58 -84 -160 -270 -372 -270c-155 0 -255 148 -255 351c0 51 6 105 19 161c84 358 218 530 519 530c126 0 189 -40 237 -73c5 23 8 45 10 65z" />
    <glyph glyph-name="r" unicode="r" 
d="M421 731c148 224 266 294 421 294c109 0 173 -63 173 -171c0 -37 -5 -79 -14 -125c0 -2 -1 -4 -1 -6h-156c5 33 12 62 12 86c0 34 -15 56 -69 56c-101 0 -263 -196 -406 -419l-90 -446l-156 1l149 763c2 9 3 18 3 27c0 47 -26 93 -88 140l120 136
c45 -43 119 -116 119 -227c0 -16 -14 -92 -17 -109z" />
    <glyph glyph-name="s" unicode="s" 
d="M367 574c-66 48 -100 111 -100 182c0 17 2 34 6 52c32 147 159 222 367 222c136 0 245 -17 344 -58l-58 -149c-69 37 -175 59 -300 59c-130 0 -191 -61 -191 -116c0 -22 9 -42 28 -58c179 -150 424 -209 424 -402c0 -16 -2 -33 -5 -50c-43 -221 -236 -276 -459 -276
c-194 0 -352 109 -352 287c0 20 2 41 6 63l157 -1c-2 -12 -3 -23 -3 -34c0 -112 114 -172 217 -172c123 0 245 49 266 159c1 4 1 9 1 13c0 96 -207 176 -348 279z" />
    <glyph glyph-name="t" unicode="t" 
d="M377 474l-7 -40c-7 -34 -10 -65 -10 -92c0 -140 84 -193 208 -193c151 0 222 76 261 145l121 -93c-46 -83 -165 -207 -410 -207c-193 0 -342 105 -342 324c0 35 4 72 12 113l8 43c24 104 43 198 87 391h-79c-28 0 -57 -4 -84 -11l-19 146c26 9 99 12 132 12h80
c14 70 32 164 46 234l158 -1c-13 -66 -32 -160 -46 -228h122c145 1 299 2 299 2h18l-29 -147h-316c-46 0 -74 -3 -120 -3c-49 -204 -67 -295 -90 -395z" />
    <glyph glyph-name="u" unicode="u" 
d="M808 -10c-39 33 -108 64 -108 192c0 32 5 70 15 116c-96 -177 -239 -297 -390 -298c-130 0 -246 88 -246 225c0 16 2 33 5 50c46 252 144 594 144 702c0 7 0 12 -1 17l165 27v-10c0 -99 -73 -345 -141 -705c-3 -18 -5 -36 -5 -52c0 -55 21 -99 88 -99
c165 0 342 302 437 536l69 337l158 -22l-151 -767c-1 -8 -2 -15 -2 -22c0 -57 38 -81 68 -110z" />
    <glyph glyph-name="v" unicode="v" 
d="M274 1048c55 -75 66 -102 77 -177c20 -120 98 -532 98 -661c0 -7 -1 -13 -1 -18c201 189 406 494 424 819l157 4c0 -355 -259 -727 -476 -944c-71 -71 -156 -74 -262 -74c3 17 5 41 5 69c0 200 -76 638 -104 773c-4 21 -37 88 -58 113z" />
    <glyph glyph-name="w" unicode="w" 
d="M122 1006l158 36c18 -52 34 -127 34 -247c-1 -242 -19 -433 -61 -602c101 93 188 198 268 351c4 29 6 65 6 103c0 50 -3 103 -8 148l128 2c11 -125 16 -255 16 -377c0 -98 -4 -191 -10 -273c95 115 256 297 256 630c0 75 -29 166 -58 219l154 52c50 -99 58 -201 58 -270
c0 -384 -251 -650 -401 -787c-11 0 -146 15 -157 15c16 101 29 161 30 325c-60 -88 -154 -183 -322 -352c-24 8 -98 38 -126 40c26 142 71 493 71 718c0 86 -15 212 -36 269z" />
    <glyph glyph-name="x" unicode="x" 
d="M953 863c-67 -85 -220 -268 -321 -375c58 -103 152 -310 169 -323c3 -3 18 -9 52 -9c18 0 36 3 53 6l-29 -154c-21 -3 -43 -5 -63 -5c-40 0 -78 12 -113 40c-63 47 -130 218 -191 336c-188 -195 -384 -379 -402 -397l-114 117c10 11 247 234 440 422
c-61 118 -144 291 -242 465l149 75c91 -170 152 -312 211 -428c89 87 160 174 254 297c27 35 44 72 51 89l174 1c-16 -49 -36 -106 -78 -157z" />
    <glyph glyph-name="y" unicode="y" 
d="M-2 -110c24 -31 105 -113 179 -113c97 0 182 137 234 223c-28 302 -111 845 -232 862c-4 0 -7 1 -11 1c-21 0 -39 -7 -40 -8l-13 168c32 4 56 6 77 6c26 0 46 -3 71 -9c159 -41 252 -542 285 -837c116 223 280 632 351 859l152 -42c-87 -253 -252 -707 -453 -1027
c-156 -248 -279 -349 -438 -349c-125 0 -227 98 -267 148z" />
    <glyph glyph-name="z" unicode="z" 
d="M289 801l-94 124c104 89 196 95 298 95h299c50 0 155 1 217 10l66 -144c-183 -206 -315 -309 -497 -454c-77 -61 -163 -130 -265 -217c146 0 231 -65 316 -65c100 0 154 68 164 150l152 -28c-16 -128 -108 -277 -304 -277c-143 1 -212 66 -354 66
c-105 0 -150 -40 -227 -95l-93 128c256 245 423 376 574 498c106 85 203 165 317 275c-26 -2 -53 -3 -81 -3c-97 0 -201 -1 -296 -1c-61 0 -131 -4 -192 -62z" />
    <glyph glyph-name="A" unicode="A" 
d="M739 495l-80 587l-304 -607c63 13 119 13 203 17zM800 0l-50 332c-142 -3 -364 -5 -480 -32l-93 -179c-16 -29 -43 -93 -48 -121h-162c6 28 42 116 63 159l582 1142h171l186 -1301h-169z" />
    <glyph glyph-name="B" unicode="B" 
d="M182 823c34 173 62 335 78 462c82 6 132 14 245 14h18c167 0 351 -63 351 -237c0 -19 -2 -39 -6 -60c-19 -96 -46 -177 -132 -235c124 -45 215 -148 215 -296c0 -25 -3 -51 -8 -78c-44 -225 -169 -345 -391 -390c-40 -8 -82 -8 -121 -8c-85 0 -173 8 -281 8h-136
c38 194 87 404 168 820zM709 992c2 12 3 23 3 33c0 109 -83 125 -206 125h-17c-39 0 -55 -2 -86 -5c-4 -37 -12 -81 -21 -128c-13 -67 -30 -140 -44 -214c191 4 338 22 369 181zM745 578c-61 61 -120 71 -215 71c-49 0 -107 -2 -180 -2h-44c-48 -237 -84 -418 -100 -494
c108 0 146 -7 221 -7c40 0 76 2 112 7c109 13 221 112 249 256c4 20 6 38 6 55c0 48 -16 82 -49 114z" />
    <glyph glyph-name="C" unicode="C" 
d="M718 1152c-275 0 -430 -386 -457 -527c-12 -60 -19 -118 -19 -172c0 -92 21 -172 71 -229c51 -58 95 -73 177 -73h14c148 5 248 79 321 191l125 -76c-104 -155 -261 -269 -451 -269h-3c-111 0 -238 25 -314 117c-66 84 -100 189 -100 319c0 58 7 121 20 190
c49 254 161 410 228 486c93 106 246 197 421 197c140 0 267 -78 324 -237l-135 -81c-38 120 -136 164 -222 164z" />
    <glyph glyph-name="D" unicode="D" 
d="M458 1152h-30c-16 0 -27 1 -45 -2c-4 -25 -10 -56 -16 -86c-12 -62 -27 -130 -40 -198c-58 -300 -124 -626 -144 -722c87 -3 132 -3 192 -3c114 0 300 26 400 205c25 45 54 133 64 187c13 67 20 136 20 200c0 87 -13 166 -40 221c-64 128 -140 198 -361 198zM19 125
c10 54 93 443 154 758l14 74c24 126 44 248 52 334c83 8 128 13 227 13c271 0 412 -80 500 -259c38 -79 57 -178 57 -285c0 -62 -7 -127 -19 -192c-61 -318 -188 -532 -521 -571c-56 -6 -107 -7 -162 -7c-84 0 -216 7 -330 7c6 33 6 32 28 128z" />
    <glyph glyph-name="E" unicode="E" 
d="M278 1293c57 4 127 4 205 4h98h110c149 0 285 -3 359 -3h16v-150h-659l-63 -328h438v-150h-468l-5 -30c-39 -203 -83 -411 -98 -488h519c56 0 105 20 105 20l50 -141c-45 -18 -89 -30 -165 -30h-694z" />
    <glyph glyph-name="F" unicode="F" 
d="M202 -1l-160 4l251 1295h685c76 -3 122 -18 153 -35l-69 -146c-23 14 -42 27 -140 28h-70c-104 0 -250 -1 -433 -2l-64 -328c120 0 188 3 310 3c88 0 144 -14 145 -14l17 -5l-48 -145c-35 9 -85 14 -130 14c-106 0 -214 0 -323 -3c-24 -121 -106 -573 -124 -666z" />
    <glyph glyph-name="G" unicode="G" 
d="M1050 733l-15 -128c-51 -440 -231 -556 -418 -602c-47 -10 -112 -11 -154 -11c-294 0 -416 188 -416 444c0 61 7 125 20 192c46 237 137 431 293 558c117 88 236 116 351 116h20c213 -5 325 -113 368 -276l-166 -46c-30 114 -87 170 -242 170c-84 0 -147 -6 -238 -73
c-129 -95 -193 -288 -226 -460c-12 -61 -19 -119 -19 -172c0 -174 74 -298 296 -298c211 0 301 128 361 440h-14c-44 0 -83 1 -122 1c-75 0 -147 -5 -238 -36l-37 141c103 36 208 42 309 42c103 0 192 0 287 -2z" />
    <glyph glyph-name="H" unicode="H" 
d="M397 1296l-107 -547c96 21 192 28 312 28h228c53 274 68 352 99 514h159l-251 -1291h-158l121 625h-129c-146 0 -288 -3 -411 -28c-67 -343 -79 -416 -114 -597h-161l252 1294z" />
    <glyph glyph-name="K" unicode="K" 
d="M554 705c97 -117 367 -537 392 -672l-156 -50c-25 109 -249 478 -355 604c0 0 -103 -98 -147 -169l-90 -423h-158l255 1313h158l-117 -605c102 111 188 190 307 293c229 195 374 293 399 314l90 -130c-208 -132 -504 -402 -578 -475z" />
    <glyph glyph-name="L" unicode="L" 
d="M65 -3l253 1301h161l-223 -1147h521c60 3 56 4 103 19l54 -142c-58 -28 -110 -31 -185 -31h-684z" />
    <glyph glyph-name="M" unicode="M" 
d="M235 1292l155 -1c19 -149 49 -229 87 -353c23 -77 49 -141 61 -179c113 155 288 387 368 532h157l-251 -1296h-157l178 915c-101 -141 -248 -335 -266 -371l-122 3c-5 16 -51 135 -106 304c-12 44 -9 35 -19 63l-176 -914h-158z" />
    <glyph glyph-name="N" unicode="N" 
d="M676 -6c-94 357 -190 654 -323 1007l-40 -204c-57 -293 -125 -648 -155 -800h-159l253 1301l159 -4c90 -184 267 -689 336 -937c23 130 49 266 75 400c36 186 75 369 117 540h154c-28 -113 -58 -262 -90 -425c-44 -226 -90 -480 -135 -710c-11 -57 -23 -114 -33 -167z
" />
    <glyph glyph-name="O" unicode="O" 
d="M687 1326c105 0 340 -53 340 -444c0 -71 -7 -152 -25 -247l-2 -11c-32 -164 -105 -317 -171 -410c-103 -144 -250 -227 -415 -227c-122 0 -240 43 -302 143c-46 73 -69 165 -69 272c0 53 5 110 17 170c67 345 173 494 261 589c83 90 209 162 366 165zM239 245
c36 -65 97 -105 205 -105c88 0 202 67 263 150c52 64 114 230 136 337l4 19c12 65 22 143 22 216c0 56 -6 110 -20 155c-36 114 -98 156 -186 156c-68 0 -157 -28 -230 -104c-86 -89 -163 -231 -214 -493c-9 -44 -14 -98 -14 -150c0 -71 10 -139 34 -181z" />
    <glyph glyph-name="P" unicode="P" 
d="M884 900c5 27 8 51 8 73c0 161 -115 173 -328 178c-61 0 -107 -4 -152 -5l-25 -126c-36 -183 -80 -407 -80 -407c36 -1 70 -1 103 -1c246 0 430 60 474 288zM185 -10l-158 1l254 1303c118 0 157 8 290 8c225 0 362 -13 450 -151c26 -41 36 -91 36 -145
c0 -32 -4 -66 -10 -100c-18 -91 -45 -191 -122 -278c-125 -140 -256 -168 -495 -168c-48 0 -98 1 -152 3c-51 -263 -63 -317 -93 -473z" />
    <glyph glyph-name="Q" unicode="Q" 
d="M789 -131c-115 0 -237 19 -238 146c-43 -11 -86 -18 -126 -18c-116 0 -215 43 -278 124c-50 65 -74 162 -74 280c0 69 8 146 24 228c40 207 107 399 226 521c116 120 222 155 345 155c167 0 270 -65 322 -206c25 -69 34 -139 34 -205c0 -317 -123 -664 -326 -797v-9
c0 -64 32 -67 109 -68h11c37 0 61 4 86 10l-11 -156c-23 -5 -59 -5 -104 -5zM489 430c119 0 191 -50 206 -144c92 171 169 353 169 588c0 49 -7 100 -26 149c-31 77 -101 129 -202 129c-181 0 -328 -255 -368 -461c-13 -69 -31 -161 -31 -259c0 -48 4 -97 15 -144
c55 113 189 142 237 142zM553 166c0 8 1 15 1 22c0 67 -20 93 -86 93c-58 0 -114 -42 -125 -98c0 -1 -1 -2 -1 -3c21 -27 63 -36 101 -36c31 0 71 7 110 22z" />
    <glyph glyph-name="R" unicode="R" 
d="M682 540c54 -122 163 -299 206 -364c15 -16 39 -49 79 -60l-76 -132c-56 9 -103 46 -129 88c-76 107 -222 368 -260 462c-80 8 -147 20 -220 33l-109 -567h-158l216 1113c13 67 21 114 29 175c43 4 160 15 221 15c250 0 416 -14 509 -164c28 -44 45 -104 45 -167
c0 -21 -2 -42 -6 -63c-43 -220 -141 -343 -347 -369zM871 895c3 17 5 34 5 50c0 36 -9 70 -32 103c-52 78 -163 102 -387 102c-26 0 -35 0 -64 -1l-81 -430c96 -18 170 -35 252 -35c171 0 275 42 307 211z" />
    <glyph glyph-name="S" unicode="S" 
d="M166 358c0 -120 106 -216 295 -216c213 0 332 135 332 287c0 79 -43 132 -103 160c-106 50 -259 60 -380 120c-70 36 -128 106 -128 214c0 264 243 379 466 379c208 0 349 -45 418 -98l-99 -153c-57 51 -159 97 -344 97c-144 0 -270 -76 -270 -189c0 -59 27 -90 70 -112
c106 -56 263 -55 383 -115c82 -44 151 -133 151 -264c0 -338 -263 -477 -513 -477h-19c-291 7 -421 156 -421 328z" />
    <glyph glyph-name="T" unicode="T" 
d="M326 -9l224 1153c-198 0 -288 -1 -364 -1l30 155c122 0 577 1 765 1c73 0 120 -12 137 -15l-63 -152s-60 12 -110 12h-235l-224 -1153h-160z" />
    <glyph glyph-name="U" unicode="U" 
d="M957 1313l154 -13c-21 -60 -29 -103 -39 -157c-28 -145 -50 -272 -72 -383l-12 -58c-45 -232 -92 -454 -229 -583c-100 -95 -214 -124 -344 -129c-256 0 -345 116 -345 322c0 42 3 86 10 135c10 75 31 197 57 332c33 172 74 365 111 523h158c-36 -165 -83 -389 -119 -574
c-24 -123 -43 -229 -50 -289c-3 -27 -5 -53 -5 -76c0 -155 67 -222 199 -222c107 5 164 28 229 84c81 74 132 280 170 477c24 123 48 269 81 439c14 71 24 110 46 172z" />
    <glyph glyph-name="V" unicode="V" 
d="M337 -5c1 10 1 22 1 36c0 246 -107 1044 -155 1255l162 53c52 -252 105 -616 131 -984c135 314 389 738 538 986l146 -83c-143 -231 -605 -1062 -662 -1262z" />
    <glyph glyph-name="W" unicode="W" 
d="M257 0h-131c-1 13 -1 29 -1 49c0 246 53 1005 56 1237l160 32c-5 -643 -52 -710 -68 -1020c115 230 253 588 273 659c45 0 133 0 169 12c0 -89 -3 -200 -3 -312c0 -129 3 -258 15 -357c88 285 61 324 322 1015l151 -32c-101 -251 -372 -1105 -440 -1283h-136
s-59 403 -59 595v18c-91 -225 -296 -591 -308 -613z" />
    <glyph glyph-name="X" unicode="X" 
d="M979 1340l131 -91l-487 -616c119 -267 185 -433 300 -570l-135 -93c-123 147 -172 285 -277 527l-423 -539l-125 96l469 600c-80 204 -149 438 -259 594l156 83c102 -146 156 -360 226 -532z" />
    <glyph glyph-name="Y" unicode="Y" 
d="M296 42l270 482c-57 111 -334 627 -364 733l154 57c36 -90 234 -475 310 -621c47 112 287 542 319 646l150 -59c-225 -465 -461 -894 -690 -1312z" />
    <glyph glyph-name="Z" unicode="Z" 
d="M47 -5l-78 88l935 1067c-214 0 -553 -5 -667 -5l-1 153c120 0 572 4 760 4c75 0 119 -13 137 -16c-9 -33 -37 -114 -45 -137l-871 -998l487 -1c85 0 128 4 172 27l50 -133c-45 -33 -118 -47 -193 -47h-243c-212 0 -388 -2 -436 -2h-7z" />
    <glyph glyph-name="I" unicode="I" 
d="M329 1298c157 4 238 4 334 4c105 0 201 -1 364 -3l-30 -152c-123 0 -170 5 -266 5l-194 -1000c46 0 72 1 123 1c45 0 92 -1 143 -4l-29 -150c-84 5 -146 6 -209 6c-47 0 -96 -1 -155 -1c-74 0 -176 -7 -331 -7l29 149c86 4 136 5 193 5h75l195 1000
c-66 -1 -159 -1 -266 -7z" />
    <glyph glyph-name="J" unicode="J" 
d="M337 -8c-223 0 -301 144 -301 313c0 39 4 80 12 121l160 -1c-5 -30 -7 -59 -7 -87c0 -111 42 -196 164 -196c186 0 256 185 321 517c18 95 51 348 66 485c-49 0 -194 1 -231 1c-62 -1 -104 -9 -146 -18l-26 153c31 7 81 19 200 22h386l-18 -157
c-19 -178 -52 -380 -76 -503c-69 -354 -174 -650 -504 -650z" />
    <glyph glyph-name="zero" unicode="0" 
d="M293 455l486 498c-12 100 -28 202 -138 202c-199 0 -291 -344 -332 -557c-10 -50 -15 -119 -16 -143zM790 818l-489 -501c8 -95 33 -180 144 -180c207 0 281 323 324 542c10 49 17 98 21 139zM669 1308c214 0 280 -174 280 -381c0 -87 -12 -179 -29 -267
c-59 -302 -187 -676 -505 -676c-215 0 -284 169 -284 377c0 82 10 169 27 255c59 304 208 692 511 692z" />
    <glyph glyph-name="period" unicode="." 
d="M374 269h251l-52 -269h-251z" />
    <glyph glyph-name="comma" unicode="," 
d="M379 274h252l-45 -263v-3c-38 -197 -147 -325 -329 -401l-34 139c102 51 165 121 192 259h-88z" />
    <glyph glyph-name="eacute" unicode="&#xe9;" 
d="M442 1210c145 43 377 207 496 311l117 -150c-115 -108 -405 -269 -550 -311zM262 492c115 8 324 21 438 89c75 45 111 102 111 154c0 73 -71 134 -207 134c-170 0 -293 -126 -342 -377zM632 1021c215 0 325 -136 325 -281c0 -101 -54 -206 -163 -273
c-153 -93 -404 -115 -548 -126v-11c0 -72 39 -187 233 -187c179 0 278 81 327 135l102 -109c-50 -45 -170 -179 -463 -179c-244 0 -359 142 -359 366c0 49 6 103 17 160c56 286 246 505 529 505z" />
    <glyph glyph-name="egrave" unicode="&#xe8;" 
d="M985 1187l-107 -123c-124 86 -313 286 -387 426l160 104c80 -136 210 -321 334 -407zM262 492c115 8 324 21 438 89c75 45 111 102 111 154c0 73 -71 134 -207 134c-170 0 -293 -126 -342 -377zM632 1021c215 0 325 -136 325 -281c0 -101 -54 -206 -163 -273
c-153 -93 -404 -115 -548 -126v-11c0 -72 39 -187 233 -187c179 0 278 81 327 135l102 -109c-50 -45 -170 -179 -463 -179c-244 0 -359 142 -359 366c0 49 6 103 17 160c56 286 246 505 529 505z" />
    <glyph glyph-name="ecircumflex" unicode="&#xea;" 
d="M771 1495l293 -327l-117 -102l-204 231l-339 -236l-87 122zM262 492c115 8 324 21 438 89c75 45 111 102 111 154c0 73 -71 134 -207 134c-170 0 -293 -126 -342 -377zM632 1021c215 0 325 -136 325 -281c0 -101 -54 -206 -163 -273c-153 -93 -404 -115 -548 -126v-11
c0 -72 39 -187 233 -187c179 0 278 81 327 135l102 -109c-50 -45 -170 -179 -463 -179c-244 0 -359 142 -359 366c0 49 6 103 17 160c56 286 246 505 529 505z" />
    <glyph glyph-name="edieresis" unicode="&#xeb;" 
d="M382 1403l234 -3l-44 -225l-234 3zM787 1400l234 -3l-43 -225l-235 3zM262 492c115 8 324 21 438 89c75 45 111 102 111 154c0 73 -71 134 -207 134c-170 0 -293 -126 -342 -377zM632 1021c215 0 325 -136 325 -281c0 -101 -54 -206 -163 -273
c-153 -93 -404 -115 -548 -126v-11c0 -72 39 -187 233 -187c179 0 278 81 327 135l102 -109c-50 -45 -170 -179 -463 -179c-244 0 -359 142 -359 366c0 49 6 103 17 160c56 286 246 505 529 505z" />
    <glyph glyph-name="agrave" unicode="&#xe0;" 
d="M965 1187l-107 -123c-124 86 -313 286 -387 426l160 104c80 -136 210 -321 334 -407zM243 514c-17 -63 -25 -119 -25 -168c0 -128 54 -202 132 -202c226 0 358 298 416 464l45 196c-50 35 -123 86 -227 86c-191 0 -270 -116 -341 -376zM1006 1002l-120 -646
c-13 -66 -20 -110 -20 -142c0 -52 18 -72 53 -105l-106 -119c-41 37 -97 64 -97 201c0 8 0 16 1 25c-58 -84 -184 -224 -396 -224c-155 0 -255 148 -255 351c0 51 6 105 19 161c84 358 218 530 519 530c126 0 189 -40 237 -73c5 23 8 45 10 65z" />
    <glyph glyph-name="aacute" unicode="&#xe1;" 
d="M416 1214c145 43 377 207 496 311l117 -150c-115 -108 -405 -269 -550 -311zM243 514c-17 -63 -25 -119 -25 -168c0 -128 54 -202 132 -202c226 0 358 298 416 464l45 196c-50 35 -123 86 -227 86c-191 0 -270 -116 -341 -376zM1006 1002l-120 -646
c-13 -66 -20 -110 -20 -142c0 -52 18 -72 53 -105l-106 -119c-41 37 -97 64 -97 201c0 8 0 16 1 25c-58 -84 -184 -224 -396 -224c-155 0 -255 148 -255 351c0 51 6 105 19 161c84 358 218 530 519 530c126 0 189 -40 237 -73c5 23 8 45 10 65z" />
    <glyph glyph-name="acircumflex" unicode="&#xe2;" 
d="M727 1498l293 -327l-117 -102l-204 231l-339 -236l-87 122zM243 514c-17 -63 -25 -119 -25 -168c0 -128 54 -202 132 -202c226 0 358 298 416 464l45 196c-50 35 -123 86 -227 86c-191 0 -270 -116 -341 -376zM1006 1002l-120 -646c-13 -66 -20 -110 -20 -142
c0 -52 18 -72 53 -105l-106 -119c-41 37 -97 64 -97 201c0 8 0 16 1 25c-58 -84 -184 -224 -396 -224c-155 0 -255 148 -255 351c0 51 6 105 19 161c84 358 218 530 519 530c126 0 189 -40 237 -73c5 23 8 45 10 65z" />
    <glyph glyph-name="atilde" unicode="&#xe3;" 
d="M578 1372c136 0 177 -129 267 -129c85 0 141 39 172 127l153 -58c-56 -120 -166 -222 -318 -222c-162 0 -192 129 -276 129c-78 0 -134 -29 -192 -135l-150 75c106 164 210 213 344 213zM243 514c-17 -63 -25 -119 -25 -168c0 -128 54 -202 132 -202
c226 0 358 298 416 464l45 196c-50 35 -123 86 -227 86c-191 0 -270 -116 -341 -376zM1006 1002l-120 -646c-13 -66 -20 -110 -20 -142c0 -52 18 -72 53 -105l-106 -119c-41 37 -97 64 -97 201c0 8 0 16 1 25c-58 -84 -184 -224 -396 -224c-155 0 -255 148 -255 351
c0 51 6 105 19 161c84 358 218 530 519 530c126 0 189 -40 237 -73c5 23 8 45 10 65z" />
    <glyph glyph-name="adieresis" unicode="&#xe4;" 
d="M430 1406l234 -3l-44 -225l-234 3zM835 1403l234 -3l-43 -225l-235 3zM243 514c-17 -63 -25 -119 -25 -168c0 -128 54 -202 132 -202c226 0 358 298 416 464l45 196c-50 35 -123 86 -227 86c-191 0 -270 -116 -341 -376zM1006 1002l-120 -646c-13 -66 -20 -110 -20 -142
c0 -52 18 -72 53 -105l-106 -119c-41 37 -97 64 -97 201c0 8 0 16 1 25c-58 -84 -184 -224 -396 -224c-155 0 -255 148 -255 351c0 51 6 105 19 161c84 358 218 530 519 530c126 0 189 -40 237 -73c5 23 8 45 10 65z" />
    <glyph glyph-name="aring" unicode="&#xe5;" 
d="M597.312 1290c-1 -3 -1 -7 -1 -10c0 -32 28 -62 74 -62c51 0 92 37 99 72c1 4 1 7 1 11c0 31 -26 58 -73 58c-52 0 -93 -34 -100 -69zM467.312 1288c22 111 140 195 255 195c103 0 181 -67 181 -160c0 -11 -1 -23 -3 -35c-22 -111 -139 -195 -254 -195
c-103 0 -182 67 -182 161c0 11 1 22 3 34zM243 514c-17 -63 -25 -119 -25 -168c0 -128 54 -202 132 -202c226 0 358 298 416 464l45 196c-50 35 -123 86 -227 86c-191 0 -270 -116 -341 -376zM1006 1002l-120 -646c-13 -66 -20 -110 -20 -142c0 -52 18 -72 53 -105
l-106 -119c-41 37 -97 64 -97 201c0 8 0 16 1 25c-58 -84 -184 -224 -396 -224c-155 0 -255 148 -255 351c0 51 6 105 19 161c84 358 218 530 519 530c126 0 189 -40 237 -73c5 23 8 45 10 65z" />
    <glyph glyph-name="ae" unicode="&#xe6;" 
d="M145 894c118 92 223 140 305 140c131 0 167 -70 191 -166c77 96 172 165 263 165c180 0 205 -147 205 -257c0 -112 -69 -205 -133 -272c-90 -93 -235 -148 -379 -159v-11c0 -72 20 -189 98 -189c88 0 129 51 178 105l102 -109c-50 -45 -144 -149 -314 -149
c-97 0 -149 49 -175 128c-48 -66 -115 -128 -271 -128c-106 0 -182 79 -182 249c0 193 132 446 364 446c51 0 105 -53 109 -69c0 0 22 78 22 120c0 94 -24 151 -104 151c-54 0 -123 -43 -199 -105zM185 244c0 -73 32 -100 59 -100c172 0 205 235 220 286
c-9 34 -51 113 -87 113c-104 0 -192 -199 -192 -299zM613 496c115 8 200 46 267 114c44 45 83 96 83 164c0 40 -8 112 -88 112c-82 0 -213 -139 -262 -390z" />
    <glyph glyph-name="colon" unicode=":" 
d="M519.279 1021h251l-52 -269h-251zM374 269h251l-52 -269h-251z" />
    <glyph glyph-name="semicolon" unicode=";" 
d="M379 274h252l-45 -263v-3c-38 -197 -147 -325 -329 -401l-34 139c102 51 165 121 192 259h-88zM513.03 1019h251l-52 -269h-251z" />
    <glyph glyph-name="exclam" unicode="!" 
d="M794 1319l-190 -886l-166 -2l158 888h198zM365 270h250l-52 -270h-250z" />
    <glyph glyph-name="space" unicode=" " 
 />
    <glyph glyph-name="quotesingle" unicode="'" 
d="M584 1464l211 -31c-55 -283 -99 -444 -172 -645l-150 36c35 97 73 248 73 373c0 21 -1 41 -2 61z" />
    <glyph glyph-name="Agrave" unicode="&#xc0;" 
d="M1012 1442l-107 -123c-124 86 -313 286 -387 426l160 104c80 -136 210 -321 334 -407zM739 495l-80 587l-304 -607c63 13 119 13 203 17zM800 0l-50 332c-142 -3 -364 -5 -480 -32l-93 -179c-16 -29 -43 -93 -48 -121h-162c6 28 42 116 63 159l582 1142h171l186 -1301
h-169z" />
    <glyph glyph-name="Aacute" unicode="&#xc1;" 
d="M424 1480c145 43 377 207 496 311l117 -150c-115 -108 -405 -269 -550 -311zM739 495l-80 587l-304 -607c63 13 119 13 203 17zM800 0l-50 332c-142 -3 -364 -5 -480 -32l-93 -179c-16 -29 -43 -93 -48 -121h-162c6 28 42 116 63 159l582 1142h171l186 -1301h-169z" />
    <glyph glyph-name="Acircumflex" unicode="&#xc2;" 
d="M779 1747l293 -327l-117 -102l-204 231l-339 -236l-87 122zM739 495l-80 587l-304 -607c63 13 119 13 203 17zM800 0l-50 332c-142 -3 -364 -5 -480 -32l-93 -179c-16 -29 -43 -93 -48 -121h-162c6 28 42 116 63 159l582 1142h171l186 -1301h-169z" />
    <glyph glyph-name="Atilde" unicode="&#xc3;" 
d="M627 1642c136 0 177 -129 267 -129c85 0 141 39 172 127l153 -58c-56 -120 -166 -222 -318 -222c-162 0 -192 129 -276 129c-78 0 -134 -29 -192 -135l-150 75c106 164 210 213 344 213zM739 495l-80 587l-304 -607c63 13 119 13 203 17zM800 0l-50 332
c-142 -3 -364 -5 -480 -32l-93 -179c-16 -29 -43 -93 -48 -121h-162c6 28 42 116 63 159l582 1142h171l186 -1301h-169z" />
    <glyph glyph-name="Adieresis" unicode="&#xc4;" 
d="M444 1607l234 -3l-44 -225l-234 3zM849 1604l234 -3l-43 -225l-235 3zM739 495l-80 587l-304 -607c63 13 119 13 203 17zM800 0l-50 332c-142 -3 -364 -5 -480 -32l-93 -179c-16 -29 -43 -93 -48 -121h-162c6 28 42 116 63 159l582 1142h171l186 -1301h-169z" />
    <glyph glyph-name="Aring" unicode="&#xc5;" 
d="M739 495l-80 587l-304 -607c63 13 119 13 203 17zM654 1452c-1 -3 -1 -7 -1 -10c0 -32 28 -62 74 -62c51 0 92 37 99 72c1 4 1 7 1 11c0 31 -26 58 -73 58c-52 0 -93 -34 -100 -69zM524 1450c22 111 140 195 255 195c103 0 181 -67 181 -160c0 -11 -1 -23 -3 -35
c-17 -83 -86 -152 -169 -181l181 -1269h-169l-50 332c-142 -3 -364 -5 -480 -32l-93 -179c-16 -29 -43 -93 -48 -121h-162c6 28 42 116 63 159l571 1121c-49 28 -80 77 -80 136c0 11 1 22 3 34z" />
    <glyph glyph-name="igrave" unicode="&#xec;" 
d="M884 1229l-107 -123c-124 86 -313 286 -387 426l160 104c80 -136 210 -321 334 -407zM661 1020l-147 -736c-4 -19 -5 -36 -5 -52c0 -71 37 -108 112 -108c93 0 191 24 270 76l76 -117c-100 -71 -248 -101 -372 -101c-191 0 -245 117 -245 227c0 25 2 48 7 71l108 533
c-35 -26 -145 -88 -219 -112l-58 144c232 98 265 146 283 175h190z" />
    <glyph glyph-name="iacute" unicode="&#xed;" 
d="M373 1220c145 43 377 207 496 311l117 -150c-115 -108 -405 -269 -550 -311zM661 1020l-147 -736c-4 -19 -5 -36 -5 -52c0 -71 37 -108 112 -108c93 0 191 24 270 76l76 -117c-100 -71 -248 -101 -372 -101c-191 0 -245 117 -245 227c0 25 2 48 7 71l108 533
c-35 -26 -145 -88 -219 -112l-58 144c232 98 265 146 283 175h190z" />
    <glyph glyph-name="icircumflex" unicode="&#xee;" 
d="M699 1501l293 -327l-117 -102l-204 231l-339 -236l-87 122zM661 1020l-147 -736c-4 -19 -5 -36 -5 -52c0 -71 37 -108 112 -108c93 0 191 24 270 76l76 -117c-100 -71 -248 -101 -372 -101c-191 0 -245 117 -245 227c0 25 2 48 7 71l108 533c-35 -26 -145 -88 -219 -112
l-58 144c232 98 265 146 283 175h190z" />
    <glyph glyph-name="idieresis" unicode="&#xef;" 
d="M351 1406l234 -3l-44 -225l-234 3zM756 1403l234 -3l-43 -225l-235 3zM661 1020l-147 -736c-4 -19 -5 -36 -5 -52c0 -71 37 -108 112 -108c93 0 191 24 270 76l76 -117c-100 -71 -248 -101 -372 -101c-191 0 -245 117 -245 227c0 25 2 48 7 71l108 533
c-35 -26 -145 -88 -219 -112l-58 144c232 98 265 146 283 175h190z" />
    <glyph glyph-name="ccedilla" unicode="&#xe7;" 
d="M257 527c-10 -53 -15 -99 -15 -138c0 -234 165 -239 259 -239h13c156 0 244 65 313 152l108 -91c-41 -42 -168 -218 -447 -218h-4c-5 -21 -12 -59 -13 -61c81 -4 127 -49 127 -126c0 -14 -2 -29 -5 -45c-20 -101 -133 -168 -217 -168c-66 0 -133 25 -182 61l59 106
c30 -18 65 -42 116 -42c36 0 81 20 91 58v2c0 2 1 5 1 7c0 26 -32 47 -76 47c-48 0 -51 -7 -81 -17l36 188s-79 6 -160 70c-78 61 -103 157 -103 269c0 56 8 118 21 185c71 367 274 491 589 491c95 0 164 -24 215 -70c52 -47 71 -107 83 -159l-165 -60
c-3 41 -14 136 -174 136c-221 0 -343 -99 -389 -338z" />
    <glyph glyph-name="AE" unicode="&#xc6;" 
d="M478 347c-162 -5 -243 -25 -243 -25l-90 -201c-13 -30 -43 -93 -48 -121h-162c6 28 43 116 63 159l533 1134c62 2 173 2 270 2c157 0 239 -1 336 -1l-30 -150h-405l-37 -328h300l-30 -150h-281l-58 -519l244 2c56 0 122 26 122 26l15 -148c-50 -13 -87 -30 -159 -30h-6
l-378 3zM495 490l67 604l-264 -619s72 13 197 15z" />
    <glyph glyph-name="Ccedilla" unicode="&#xc7;" 
d="M718 1152c-275 0 -430 -386 -457 -527c-12 -60 -19 -118 -19 -172c0 -92 21 -172 71 -229c51 -58 95 -73 177 -73h14c148 5 248 79 321 191l125 -76c-104 -155 -261 -269 -451 -269h-3h-8c-4 -20 -8 -43 -9 -45c81 -4 127 -49 127 -126c0 -14 -2 -29 -5 -45
c-20 -101 -133 -168 -217 -168c-66 0 -133 25 -182 61l59 106c30 -18 65 -42 116 -42c36 0 81 20 91 58v2c0 2 1 5 1 7c0 26 -32 47 -76 47c-48 0 -51 -7 -81 -17l34 180c-63 17 -121 47 -164 99c-66 84 -100 189 -100 319c0 58 7 121 20 190c49 254 161 410 228 486
c93 106 246 197 421 197c140 0 267 -78 324 -237l-135 -81c-38 120 -136 164 -222 164z" />
    <glyph glyph-name="Egrave" unicode="&#xc8;" 
d="M989 1453l-107 -123c-124 86 -313 286 -387 426l160 104c80 -136 210 -321 334 -407zM278 1293c57 4 127 4 205 4h98h110c149 0 285 -3 359 -3h16v-150h-659l-63 -328h438v-150h-468l-5 -30c-39 -203 -83 -411 -98 -488h519c56 0 105 20 105 20l50 -141
c-45 -18 -89 -30 -165 -30h-694z" />
    <glyph glyph-name="Eacute" unicode="&#xc9;" 
d="M402 1482c145 43 377 207 496 311l117 -150c-115 -108 -405 -269 -550 -311zM278 1293c57 4 127 4 205 4h98h110c149 0 285 -3 359 -3h16v-150h-659l-63 -328h438v-150h-468l-5 -30c-39 -203 -83 -411 -98 -488h519c56 0 105 20 105 20l50 -141c-45 -18 -89 -30 -165 -30
h-694z" />
    <glyph glyph-name="Ecircumflex" unicode="&#xca;" 
d="M772 1783l293 -327l-117 -102l-204 231l-339 -236l-87 122zM278 1293c57 4 127 4 205 4h98h110c149 0 285 -3 359 -3h16v-150h-659l-63 -328h438v-150h-468l-5 -30c-39 -203 -83 -411 -98 -488h519c56 0 105 20 105 20l50 -141c-45 -18 -89 -30 -165 -30h-694z" />
    <glyph glyph-name="Edieresis" unicode="&#xcb;" 
d="M425 1652l234 -3l-44 -225l-234 3zM830 1649l234 -3l-43 -225l-235 3zM278 1293c57 4 127 4 205 4h98h110c149 0 285 -3 359 -3h16v-150h-659l-63 -328h438v-150h-468l-5 -30c-39 -203 -83 -411 -98 -488h519c56 0 105 20 105 20l50 -141c-45 -18 -89 -30 -165 -30h-694z
" />
    <glyph glyph-name="Igrave" unicode="&#xcc;" 
d="M1015 1475l-107 -123c-124 86 -313 286 -387 426l160 104c80 -136 210 -321 334 -407zM329 1298c157 4 238 4 334 4c105 0 201 -1 364 -3l-30 -152c-123 0 -170 5 -266 5l-194 -1000c46 0 72 1 123 1c45 0 92 -1 143 -4l-29 -150c-84 5 -146 6 -209 6
c-47 0 -96 -1 -155 -1c-74 0 -176 -7 -331 -7l29 149c86 4 136 5 193 5h75l195 1000c-66 -1 -159 -1 -266 -7z" />
    <glyph glyph-name="Iacute" unicode="&#xcd;" 
d="M424 1490c145 43 377 207 496 311l117 -150c-115 -108 -405 -269 -550 -311zM329 1298c157 4 238 4 334 4c105 0 201 -1 364 -3l-30 -152c-123 0 -170 5 -266 5l-194 -1000c46 0 72 1 123 1c45 0 92 -1 143 -4l-29 -150c-84 5 -146 6 -209 6c-47 0 -96 -1 -155 -1
c-74 0 -176 -7 -331 -7l29 149c86 4 136 5 193 5h75l195 1000c-66 -1 -159 -1 -266 -7z" />
    <glyph glyph-name="Icircumflex" unicode="&#xce;" 
d="M765 1780l293 -327l-117 -102l-204 231l-339 -236l-87 122zM329 1298c157 4 238 4 334 4c105 0 201 -1 364 -3l-30 -152c-123 0 -170 5 -266 5l-194 -1000c46 0 72 1 123 1c45 0 92 -1 143 -4l-29 -150c-84 5 -146 6 -209 6c-47 0 -96 -1 -155 -1c-74 0 -176 -7 -331 -7
l29 149c86 4 136 5 193 5h75l195 1000c-66 -1 -159 -1 -266 -7z" />
    <glyph glyph-name="Idieresis" unicode="&#xcf;" 
d="M423 1646l234 -3l-44 -225l-234 3zM828 1643l234 -3l-43 -225l-235 3zM329 1298c157 4 238 4 334 4c105 0 201 -1 364 -3l-30 -152c-123 0 -170 5 -266 5l-194 -1000c46 0 72 1 123 1c45 0 92 -1 143 -4l-29 -150c-84 5 -146 6 -209 6c-47 0 -96 -1 -155 -1
c-74 0 -176 -7 -331 -7l29 149c86 4 136 5 193 5h75l195 1000c-66 -1 -159 -1 -266 -7z" />
    <glyph glyph-name="quotedbl" unicode="&#x22;" 
d="M815 1464l185 -38c-55 -283 -99 -427 -172 -628l-124 36c36 98 73 238 73 363c0 21 -1 41 -2 61zM444 1464l185 -38c-55 -283 -99 -427 -172 -628l-124 36c36 98 73 238 73 363c0 21 -1 41 -2 61z" />
    <glyph glyph-name="numbersign" unicode="#" 
d="M497 795c-22 -80 -51 -172 -76 -254c41 2 73 2 107 2h74c27 84 53 177 77 255c-71 0 -114 -2 -182 -3zM262 -19l-168 1c29 113 61 226 112 393c-53 -1 -98 -10 -128 -19l-21 147c60 20 133 26 200 31c32 80 53 177 77 256h-14c-66 -4 -117 -9 -155 -22l-24 147
c70 25 161 29 246 34c58 184 63 242 98 382c29 0 74 1 112 1c19 0 36 0 50 -1c-31 -121 -58 -232 -101 -376h182c51 163 78 252 120 371l162 -2c-49 -121 -79 -210 -129 -368h135l-31 -161c-28 1 -61 4 -153 4c-23 -79 -52 -170 -79 -255h179l-32 -161c-27 1 -76 3 -190 3
c-60 -197 -83 -287 -116 -408l-164 1c33 112 66 230 120 406h-24c-54 0 -104 -2 -155 -5c-44 -150 -109 -399 -109 -399z" />
    <glyph glyph-name="dollar" unicode="$" 
d="M310 709c-70 36 -128 106 -128 214c0 20 3 43 7 66c39 199 243 286 454 286h9l55 235l172 -14l-67 -232c125 -20 243 -101 274 -218l-154 -77c-15 88 -93 124 -163 139l-89 -333c44 -10 87 -23 126 -43c83 -44 154 -121 154 -249c0 -24 -3 -50 -8 -77
c-50 -258 -265 -345 -467 -352l-56 -230l-176 14l73 227c-176 35 -265 129 -265 282c0 29 3 59 9 92h158c-4 -22 -6 -41 -6 -59c0 -95 56 -141 145 -163l117 434c-59 15 -120 31 -174 58zM611 1121c-131 -1 -243 -31 -262 -127c-2 -13 -4 -24 -4 -35c0 -59 35 -90 78 -112
c31 -16 66 -28 103 -37zM526 207c145 9 239 62 264 191c3 17 5 33 5 47c0 76 -44 115 -105 144c-17 8 -35 15 -54 22z" />
    <glyph glyph-name="oe" unicode="&#x153;" 
d="M931 187c0 0 -67 -187 -298 -187c-92 0 -151 35 -193 90c-30 -32 -80 -90 -179 -90c-56 0 -124 5 -187 91c-42 57 -54 133 -54 203c0 66 11 127 18 165c9 46 25 126 45 176c45 122 136 382 363 382h4c79 -1 112 -27 146 -63c9 -9 15 -17 19 -23c30 37 84 85 199 87h3
c127 0 208 -101 208 -244c0 -237 -213 -408 -453 -468l-19 -91c31 -39 75 -61 114 -61c67 0 116 67 139 102zM640 652l-33 -172c157 24 269 159 269 264c0 82 -30 118 -92 118c-40 0 -82 -11 -104 -57c-18 -35 -30 -102 -40 -153zM285 154c52 0 118 73 129 132l93 468
c1 4 2 11 2 19c0 33 -13 90 -88 90c-94 0 -184 -176 -228 -389l-3 -18c-7 -34 -13 -80 -13 -126c0 -49 7 -99 26 -139c13 -27 49 -37 82 -37z" />
    <glyph glyph-name="bracketleft" unicode="[" 
d="M1057 1483l2 -154c-103 -9 -198 -9 -366 -13l-276 -1417c97 3 202 4 221 4h13c63 0 128 -6 141 -9l-31 -162c-24 3 -63 9 -134 9c-59 0 -306 -5 -399 -5c35 178 52 261 87 441c17 90 40 211 74 390c34 175 67 351 92 482l82 421c93 0 338 7 389 7c73 3 82 4 105 6z" />
    <glyph glyph-name="bracketright" unicode="]" 
d="M412 1483c23 -2 32 -3 103 -6c51 0 294 -7 387 -7l-82 -421c-25 -131 -62 -307 -96 -482c-36 -179 -61 -300 -78 -390c-35 -180 -48 -263 -83 -441c-93 0 -338 5 -397 5c-71 0 -112 -6 -138 -9l31 162c15 3 82 9 145 9h13c19 0 124 -1 219 -4l276 1417
c-166 4 -263 4 -362 13z" />
    <glyph glyph-name="parenleft" unicode="(" 
d="M1076 1326h-9c-377 0 -636 -427 -636 -922c0 -316 127 -499 367 -500l-32 -166c-297 2 -501 262 -501 609c0 713 358 1123 841 1137z" />
    <glyph glyph-name="parenright" unicode=")" 
d="M329 1326l30 158c342 -10 507 -262 507 -577c0 -714 -418 -1165 -845 -1169l32 166c360 1 648 502 648 961c0 288 -102 461 -363 461h-9z" />
    <glyph glyph-name="hyphen" unicode="-" 
d="M145 603l838 -1l-29 -159h-833z" />
    <glyph glyph-name="plus" unicode="+" 
d="M100 589c60 11 128 12 221 12h160l82 423l154 -1c-7 -41 -19 -101 -31 -164c-24 -125 -51 -259 -51 -259c126 -2 232 -2 295 -2h83l-30 -155h-15c-6 0 -151 0 -360 3l-82 -426l-161 2l82 423c-199 0 -307 -1 -377 -11z" />
    <glyph glyph-name="less" unicode="&#x3c;" 
d="M807 87l-113 -117c-17 36 -53 72 -94 110c-80 79 -433 355 -456 373l23 120c182 129 526 372 674 450c33 17 57 31 94 42l60 -142c-178 -85 -471 -295 -654 -418c123 -101 400 -286 466 -418z" />
    <glyph glyph-name="greater" unicode="&#x3e;" 
d="M821 577l-10 -124c-109 -69 -599 -431 -790 -496l-66 126c193 94 506 316 669 429c-109 90 -313 276 -406 382c-22 25 -40 44 -53 74l131 94c82 -126 451 -418 525 -485z" />
    <glyph glyph-name="slash" unicode="/" 
d="M6 -57c9 13 48 70 74 112c140 225 697 1120 861 1406l139 -81c-206 -352 -759 -1239 -934 -1521z" />
    <glyph glyph-name="one" unicode="1" 
d="M674 1302l196 -12l-253 -1299h-164l205 1064c-85 -85 -232 -184 -372 -274l-72 151c340 180 447 356 460 370z" />
    <glyph glyph-name="two" unicode="2" 
d="M393 857l-157 -36c-2 14 -3 33 -3 53s2 41 4 59c2 9 2 17 4 25c43 222 233 348 431 348c200 0 307 -82 307 -261c0 -35 -5 -74 -13 -117c-25 -127 -125 -240 -222 -325c-102 -85 -237 -171 -358 -271c-85 -70 -127 -141 -136 -177l586 2l-31 -155h-759c6 30 11 62 17 95
c5 26 12 53 22 81c37 97 99 182 227 283c125 98 237 164 330 240c91 73 153 164 165 225c4 21 6 42 6 62c0 90 -45 162 -163 162c-130 0 -227 -70 -258 -230c-4 -21 -1 -52 1 -63z" />
    <glyph glyph-name="three" unicode="3" 
d="M68 335l158 1c-3 -15 -4 -28 -4 -42c0 -94 66 -161 195 -161c158 0 272 93 301 241c5 28 8 52 8 76c0 71 -26 125 -91 165c-81 51 -161 51 -241 51l31 158h16c38 0 88 2 165 26c90 30 142 77 162 178c1 7 2 13 2 19c0 66 -72 103 -164 103c-127 0 -206 -104 -231 -140
l-126 79c8 15 133 214 376 214h11c160 0 297 -63 297 -214c0 -17 -2 -36 -6 -56c-25 -128 -97 -235 -196 -276c113 -60 159 -153 159 -270c0 -35 -4 -72 -12 -111c-17 -85 -67 -196 -149 -275c-81 -77 -183 -123 -342 -123c-210 0 -327 116 -327 281c0 24 3 50 8 76z" />
    <glyph glyph-name="four" unicode="4" 
d="M641 570l81 420c-98 -129 -288 -323 -399 -420h318zM109 543c43 46 614 600 668 763h163l-143 -736h128l-30 -154h-128l-81 -418h-156l80 415h-467z" />
    <glyph glyph-name="five" unicode="5" 
d="M552 731c-131 0 -230 -91 -250 -108l-115 54l164 611l599 -2l-30 -154h-458l-81 -297c52 28 121 54 199 54c57 0 122 -10 184 -43c82 -48 150 -149 150 -295c0 -32 -3 -65 -10 -101c-58 -300 -267 -450 -507 -452h-2c-175 0 -272 116 -319 233l150 88
c35 -86 90 -165 202 -165c167 0 281 105 318 294c7 34 10 65 10 92c0 88 -35 137 -89 165c-38 20 -79 26 -115 26z" />
    <glyph glyph-name="six" unicode="6" 
d="M969 1154c-301 -21 -467 -159 -564 -316c-37 -62 -60 -124 -81 -184c63 46 119 92 269 92c192 0 310 -110 310 -288c0 -28 -3 -58 -9 -90c-49 -253 -247 -371 -483 -371c-214 0 -313 141 -313 342c0 45 4 92 14 142c23 119 72 271 159 419c113 192 313 368 688 401z
M260 403c-1 -15 -2 -29 -2 -43c0 -137 63 -210 183 -210c144 0 268 82 294 218c4 19 5 37 5 54c0 104 -67 169 -186 169c-133 0 -261 -103 -294 -188z" />
    <glyph glyph-name="seven" unicode="7" 
d="M327 1292c84 0 191 -6 268 -6h492h41l30 -82c-393 -537 -667 -750 -755 -1204h-165c79 407 340 714 694 1133c-52 -2 -127 -2 -198 -2h-129c-63 0 -149 5 -211 8c-26 -37 -43 -73 -64 -116l-123 61c30 59 79 133 120 208z" />
    <glyph glyph-name="eight" unicode="8" 
d="M458 147c166 0 280 87 306 221c3 16 5 32 5 47c0 122 -105 188 -212 242c-144 -60 -289 -137 -319 -289c-3 -17 -5 -33 -5 -48c0 -107 80 -173 225 -173zM589 821c113 27 204 102 217 168c2 9 3 17 3 26c0 67 -53 121 -159 121c-120 0 -199 -68 -214 -147
c-1 -6 -2 -11 -2 -17c0 -61 61 -126 155 -151zM680 1293c190 0 289 -102 289 -242c0 -21 -3 -43 -7 -66c-20 -103 -124 -208 -220 -247c89 -47 188 -148 188 -294c0 -21 -2 -43 -6 -66c-43 -222 -238 -387 -497 -387c-226 0 -355 126 -355 306c0 26 3 53 8 81
c35 182 200 306 322 360c-70 34 -128 118 -128 208c0 13 1 26 4 39c34 173 183 308 402 308z" />
    <glyph glyph-name="nine" unicode="9" 
d="M653 1152c-130 0 -260 -58 -288 -200c-2 -13 -4 -24 -4 -35c0 -104 102 -149 210 -149c128 0 230 91 263 160c0 6 1 11 1 17c0 105 -71 207 -182 207zM207 955c42 215 228 347 450 347c261 0 334 -159 334 -362c0 -93 -15 -196 -35 -296c-63 -324 -197 -646 -544 -646
c-245 0 -318 102 -414 231l122 99c110 -132 139 -174 322 -174c221 0 306 221 350 449c7 36 12 72 18 107c-75 -64 -153 -94 -282 -94c-189 0 -329 88 -329 264c0 23 3 49 8 75z" />
    <glyph glyph-name="equal" unicode="=" 
d="M43 349c142 8 253 8 367 8c179 0 312 -8 480 -8l-33 -161c-174 0 -317 5 -500 5c-50 0 -100 1 -152 1c-60 0 -123 -1 -193 -5zM133 825c141 -9 252 -11 346 -11c192 0 303 9 501 9l-31 -159c-193 0 -306 -12 -503 -12c-96 0 -203 6 -346 15c10 53 20 107 33 158z" />
    <glyph glyph-name="backslash" unicode="\" 
d="M804 -108l-163 -39c-65 282 -273 1206 -343 1558l168 38c65 -357 272 -1271 338 -1557z" />
    <glyph glyph-name="asciicircum" unicode="^" 
d="M653 1101l365 -518l-122 -115l-267 371l-442 -381l-98 118z" />
    <glyph glyph-name="underscore" unicode="_" 
d="M852 -334h-950l30 156h950z" />
    <glyph glyph-name="grave" unicode="`" 
d="M549 1483c52 -114 356 -370 443 -406l-108 -152c-172 123 -349 238 -483 423z" />
    <glyph glyph-name="question" unicode="?" 
d="M147 1146c134 161 332 190 476 190c194 0 353 -105 353 -248c0 -230 -157 -336 -270 -418c-61 -44 -130 -111 -146 -193l-9 -46h-175l8 44c23 120 91 198 189 272c130 99 237 162 237 296c0 84 -115 138 -225 138c-92 0 -202 0 -358 -161zM310 270h250l-52 -270h-250z
" />
    <glyph glyph-name="asciitilde" unicode="~" 
d="M446 766c180 0 176 -196 283 -196c87 0 182 124 209 189l132 -61c-40 -88 -146 -281 -375 -281c-161 0 -177 195 -289 195c-83 0 -193 -97 -258 -184l-112 91c96 135 203 247 410 247z" />
    <glyph glyph-name="exclamdown" unicode="&#xa1;" 
d="M215.169 -298.831l192.414 885.479l166.004 1.54785l-160.419 -887.566zM647.025 748.996l-249.999 0.680664l52.7363 269.857l249.999 -0.681641z" />
    <glyph glyph-name="Ograve" unicode="&#xd2;" 
d="M1016.5 1487l-107 -123c-124 86 -313 286 -387 426l160 104c80 -136 210 -321 334 -407zM687 1326c105 0 340 -53 340 -444c0 -71 -7 -152 -25 -247l-2 -11c-32 -164 -105 -317 -171 -410c-103 -144 -250 -227 -415 -227c-122 0 -240 43 -302 143c-46 73 -69 165 -69 272
c0 53 5 110 17 170c67 345 173 494 261 589c83 90 209 162 366 165zM239 245c36 -65 97 -105 205 -105c88 0 202 67 263 150c52 64 114 230 136 337l4 19c12 65 22 143 22 216c0 56 -6 110 -20 155c-36 114 -98 156 -186 156c-68 0 -157 -28 -230 -104
c-86 -89 -163 -231 -214 -493c-9 -44 -14 -98 -14 -150c0 -71 10 -139 34 -181z" />
    <glyph glyph-name="Oacute" unicode="&#xd3;" 
d="M473.5 1516c145 43 377 207 496 311l117 -150c-115 -108 -405 -269 -550 -311zM687 1326c105 0 340 -53 340 -444c0 -71 -7 -152 -25 -247l-2 -11c-32 -164 -105 -317 -171 -410c-103 -144 -250 -227 -415 -227c-122 0 -240 43 -302 143c-46 73 -69 165 -69 272
c0 53 5 110 17 170c67 345 173 494 261 589c83 90 209 162 366 165zM239 245c36 -65 97 -105 205 -105c88 0 202 67 263 150c52 64 114 230 136 337l4 19c12 65 22 143 22 216c0 56 -6 110 -20 155c-36 114 -98 156 -186 156c-68 0 -157 -28 -230 -104
c-86 -89 -163 -231 -214 -493c-9 -44 -14 -98 -14 -150c0 -71 10 -139 34 -181z" />
    <glyph glyph-name="Ocircumflex" unicode="&#xd4;" 
d="M774.5 1786l293 -327l-117 -102l-204 231l-339 -236l-87 122zM687 1326c105 0 340 -53 340 -444c0 -71 -7 -152 -25 -247l-2 -11c-32 -164 -105 -317 -171 -410c-103 -144 -250 -227 -415 -227c-122 0 -240 43 -302 143c-46 73 -69 165 -69 272c0 53 5 110 17 170
c67 345 173 494 261 589c83 90 209 162 366 165zM239 245c36 -65 97 -105 205 -105c88 0 202 67 263 150c52 64 114 230 136 337l4 19c12 65 22 143 22 216c0 56 -6 110 -20 155c-36 114 -98 156 -186 156c-68 0 -157 -28 -230 -104c-86 -89 -163 -231 -214 -493
c-9 -44 -14 -98 -14 -150c0 -71 10 -139 34 -181z" />
    <glyph glyph-name="Otilde" unicode="&#xd5;" 
d="M625.5 1681c136 0 177 -129 267 -129c85 0 141 39 172 127l153 -58c-56 -120 -166 -222 -318 -222c-162 0 -192 129 -276 129c-78 0 -134 -29 -192 -135l-150 75c106 164 210 213 344 213zM687 1326c105 0 340 -53 340 -444c0 -71 -7 -152 -25 -247l-2 -11
c-32 -164 -105 -317 -171 -410c-103 -144 -250 -227 -415 -227c-122 0 -240 43 -302 143c-46 73 -69 165 -69 272c0 53 5 110 17 170c67 345 173 494 261 589c83 90 209 162 366 165zM239 245c36 -65 97 -105 205 -105c88 0 202 67 263 150c52 64 114 230 136 337l4 19
c12 65 22 143 22 216c0 56 -6 110 -20 155c-36 114 -98 156 -186 156c-68 0 -157 -28 -230 -104c-86 -89 -163 -231 -214 -493c-9 -44 -14 -98 -14 -150c0 -71 10 -139 34 -181z" />
    <glyph glyph-name="Odieresis" unicode="&#xd6;" 
d="M465.5 1637l234 -3l-44 -225l-234 3zM870.5 1634l234 -3l-43 -225l-235 3zM687 1326c105 0 340 -53 340 -444c0 -71 -7 -152 -25 -247l-2 -11c-32 -164 -105 -317 -171 -410c-103 -144 -250 -227 -415 -227c-122 0 -240 43 -302 143c-46 73 -69 165 -69 272
c0 53 5 110 17 170c67 345 173 494 261 589c83 90 209 162 366 165zM239 245c36 -65 97 -105 205 -105c88 0 202 67 263 150c52 64 114 230 136 337l4 19c12 65 22 143 22 216c0 56 -6 110 -20 155c-36 114 -98 156 -186 156c-68 0 -157 -28 -230 -104
c-86 -89 -163 -231 -214 -493c-9 -44 -14 -98 -14 -150c0 -71 10 -139 34 -181z" />
    <glyph glyph-name="Oslash" unicode="&#xd8;" 
d="M6 -57c9 13 48 70 74 112c11 17 25 39 40 64c-3 4 -6 7 -8 11c-46 73 -69 165 -69 272c0 53 5 110 17 170c67 345 173 494 261 589c83 90 209 162 366 165c39 0 97 -8 153 -37c41 69 76 128 101 172l139 -81c-33 -56 -74 -125 -121 -203c41 -66 68 -161 68 -295
c0 -71 -7 -152 -25 -247l-2 -11c-32 -164 -105 -317 -171 -410c-103 -144 -250 -227 -415 -227c-59 0 -118 10 -169 32c-40 -64 -73 -119 -99 -160zM223 284c150 242 368 596 533 867c-27 15 -58 22 -93 22c-68 0 -157 -28 -230 -104c-86 -89 -163 -231 -214 -493
c-9 -44 -14 -98 -14 -150s6 -102 18 -142zM853 1003c-165 -271 -366 -596 -520 -844c30 -13 66 -19 111 -19c88 0 202 67 263 150c52 64 114 230 136 337l4 19c12 65 22 143 22 216c0 50 -5 99 -16 141z" />
    <glyph glyph-name="multiply" unicode="&#xd7;" 
d="M418 529c-97 120 -165 226 -254 326l112 116c89 -101 179 -218 269 -335c211 170 379 309 399 327l82 -131c-23 -19 -187 -158 -390 -325c142 -191 175 -246 256 -346l-128 -91c-60 104 -122 168 -253 336c-181 -149 -326 -282 -382 -332l-100 106c74 72 218 207 389 349
z" />
    <glyph glyph-name="Ugrave" unicode="&#xd9;" 
d="M1011 1477l-107 -123c-124 86 -313 286 -387 426l160 104c80 -136 210 -321 334 -407zM957 1313l154 -13c-21 -60 -29 -103 -39 -157c-28 -145 -50 -272 -72 -383l-12 -58c-45 -232 -92 -454 -229 -583c-100 -95 -214 -124 -344 -129c-256 0 -345 116 -345 322
c0 42 3 86 10 135c10 75 31 197 57 332c33 172 74 365 111 523h158c-36 -165 -83 -389 -119 -574c-24 -123 -43 -229 -50 -289c-3 -27 -5 -53 -5 -76c0 -155 67 -222 199 -222c107 5 164 28 229 84c81 74 132 280 170 477c24 123 48 269 81 439c14 71 24 110 46 172z" />
    <glyph glyph-name="Uacute" unicode="&#xda;" 
d="M462 1486c145 43 377 207 496 311l117 -150c-115 -108 -405 -269 -550 -311zM957 1313l154 -13c-21 -60 -29 -103 -39 -157c-28 -145 -50 -272 -72 -383l-12 -58c-45 -232 -92 -454 -229 -583c-100 -95 -214 -124 -344 -129c-256 0 -345 116 -345 322c0 42 3 86 10 135
c10 75 31 197 57 332c33 172 74 365 111 523h158c-36 -165 -83 -389 -119 -574c-24 -123 -43 -229 -50 -289c-3 -27 -5 -53 -5 -76c0 -155 67 -222 199 -222c107 5 164 28 229 84c81 74 132 280 170 477c24 123 48 269 81 439c14 71 24 110 46 172z" />
    <glyph glyph-name="Ucircumflex" unicode="&#xdb;" 
d="M784 1798l293 -327l-117 -102l-204 231l-339 -236l-87 122zM957 1313l154 -13c-21 -60 -29 -103 -39 -157c-28 -145 -50 -272 -72 -383l-12 -58c-45 -232 -92 -454 -229 -583c-100 -95 -214 -124 -344 -129c-256 0 -345 116 -345 322c0 42 3 86 10 135
c10 75 31 197 57 332c33 172 74 365 111 523h158c-36 -165 -83 -389 -119 -574c-24 -123 -43 -229 -50 -289c-3 -27 -5 -53 -5 -76c0 -155 67 -222 199 -222c107 5 164 28 229 84c81 74 132 280 170 477c24 123 48 269 81 439c14 71 24 110 46 172z" />
    <glyph glyph-name="Udieresis" unicode="&#xdc;" 
d="M445 1652l234 -3l-44 -225l-234 3zM850 1649l234 -3l-43 -225l-235 3zM957 1313l154 -13c-21 -60 -29 -103 -39 -157c-28 -145 -50 -272 -72 -383l-12 -58c-45 -232 -92 -454 -229 -583c-100 -95 -214 -124 -344 -129c-256 0 -345 116 -345 322c0 42 3 86 10 135
c10 75 31 197 57 332c33 172 74 365 111 523h158c-36 -165 -83 -389 -119 -574c-24 -123 -43 -229 -50 -289c-3 -27 -5 -53 -5 -76c0 -155 67 -222 199 -222c107 5 164 28 229 84c81 74 132 280 170 477c24 123 48 269 81 439c14 71 24 110 46 172z" />
    <glyph glyph-name="Yacute" unicode="&#xdd;" 
d="M432 1498c145 43 377 207 496 311l117 -150c-115 -108 -405 -269 -550 -311zM296 42l270 482c-57 111 -334 627 -364 733l154 57c36 -90 234 -475 310 -621c47 112 287 542 319 646l150 -59c-225 -465 -461 -894 -690 -1312z" />
    <glyph glyph-name="ntilde" unicode="&#xf1;" 
d="M568.5 1410c136 0 177 -129 267 -129c85 0 141 39 172 127l153 -58c-56 -120 -166 -222 -318 -222c-162 0 -192 129 -276 129c-78 0 -134 -29 -192 -135l-150 75c106 164 210 213 344 213zM374 856c118 118 230 174 358 174c108 0 222 -69 222 -192c0 -13 -1 -27 -4 -42
l-114 -585c-2 -8 -2 -14 -2 -21c0 -50 41 -70 85 -97l-106 -112c-70 38 -141 81 -141 178c0 14 2 29 5 45l109 561c3 13 4 26 4 37c0 49 -26 75 -86 75c-116 0 -299 -137 -395 -391l-98 -486l-158 -1l137 706c17 88 22 141 22 184c0 44 -5 77 -8 125l170 18
c2 -18 3 -48 3 -84c0 -28 -1 -60 -3 -92z" />
    <glyph glyph-name="ograve" unicode="&#xf2;" 
d="M903 1189l-107 -123c-124 86 -313 286 -387 426l160 104c80 -136 210 -321 334 -407zM621 215c77 61 121 167 150 315c1 6 3 12 4 18c7 40 12 79 12 114c0 127 -25 216 -191 216c-174 0 -303 -165 -350 -409c-7 -36 -11 -70 -11 -101c0 -134 28 -212 196 -212
c76 1 132 17 190 59zM407 1h-2c-204 0 -332 127 -332 328c0 42 5 87 14 135c57 292 213 568 505 568c197 0 294 -69 338 -201c13 -39 18 -86 18 -136c0 -51 -5 -103 -15 -152c-55 -285 -185 -542 -524 -542h-2z" />
    <glyph glyph-name="oacute" unicode="&#xf3;" 
d="M396 1216c145 43 377 207 496 311l117 -150c-115 -108 -405 -269 -550 -311zM621 215c77 61 121 167 150 315c1 6 3 12 4 18c7 40 12 79 12 114c0 127 -25 216 -191 216c-174 0 -303 -165 -350 -409c-7 -36 -11 -70 -11 -101c0 -134 28 -212 196 -212c76 1 132 17 190 59
zM407 1h-2c-204 0 -332 127 -332 328c0 42 5 87 14 135c57 292 213 568 505 568c197 0 294 -69 338 -201c13 -39 18 -86 18 -136c0 -51 -5 -103 -15 -152c-55 -285 -185 -542 -524 -542h-2z" />
    <glyph glyph-name="ocircumflex" unicode="&#xf4;" 
d="M737 1492l293 -327l-117 -102l-204 231l-339 -236l-87 122zM621 215c77 61 121 167 150 315c1 6 3 12 4 18c7 40 12 79 12 114c0 127 -25 216 -191 216c-174 0 -303 -165 -350 -409c-7 -36 -11 -70 -11 -101c0 -134 28 -212 196 -212c76 1 132 17 190 59zM407 1h-2
c-204 0 -332 127 -332 328c0 42 5 87 14 135c57 292 213 568 505 568c197 0 294 -69 338 -201c13 -39 18 -86 18 -136c0 -51 -5 -103 -15 -152c-55 -285 -185 -542 -524 -542h-2z" />
    <glyph glyph-name="otilde" unicode="&#xf5;" 
d="M555 1383c136 0 177 -129 267 -129c85 0 141 39 172 127l153 -58c-56 -120 -166 -222 -318 -222c-162 0 -192 129 -276 129c-78 0 -134 -29 -192 -135l-150 75c106 164 210 213 344 213zM621 215c77 61 121 167 150 315c1 6 3 12 4 18c7 40 12 79 12 114
c0 127 -25 216 -191 216c-174 0 -303 -165 -350 -409c-7 -36 -11 -70 -11 -101c0 -134 28 -212 196 -212c76 1 132 17 190 59zM407 1h-2c-204 0 -332 127 -332 328c0 42 5 87 14 135c57 292 213 568 505 568c197 0 294 -69 338 -201c13 -39 18 -86 18 -136
c0 -51 -5 -103 -15 -152c-55 -285 -185 -542 -524 -542h-2z" />
    <glyph glyph-name="odieresis" unicode="&#xf6;" 
d="M417 1398.8l234 -3l-44 -225l-234 3zM822 1395.8l234 -3l-43 -225l-235 3zM621 215c77 61 121 167 150 315c1 6 3 12 4 18c7 40 12 79 12 114c0 127 -25 216 -191 216c-174 0 -303 -165 -350 -409c-7 -36 -11 -70 -11 -101c0 -134 28 -212 196 -212c76 1 132 17 190 59z
M407 1h-2c-204 0 -332 127 -332 328c0 42 5 87 14 135c57 292 213 568 505 568c197 0 294 -69 338 -201c13 -39 18 -86 18 -136c0 -51 -5 -103 -15 -152c-55 -285 -185 -542 -524 -542h-2z" />
    <glyph glyph-name="oslash" unicode="&#xf8;" 
d="M235 356l505 465c-30 36 -77 57 -144 57c-208 0 -303 -165 -350 -409c-7 -37 -11 -72 -11 -103v-10zM936 804c8 -35 12 -74 12 -114c0 -49 -6 -100 -15 -147c-55 -285 -202 -542 -524 -542h-2c-114 1 -197 32 -252 90l-111 -100l-91 104l133 123c-9 34 -13 70 -13 110
c0 42 5 88 14 136c57 292 213 568 505 568c132 0 220 -31 276 -92l137 127l99 -111zM621 215c77 61 121 167 150 315c1 6 3 12 4 18c7 38 12 75 12 109v10l-501 -455c34 -36 85 -56 153 -56c76 1 124 17 182 59z" />
    <glyph glyph-name="ugrave" unicode="&#xf9;" 
d="M851 1187l-107 -123c-124 86 -313 286 -387 426l160 104c80 -136 210 -321 334 -407zM808 -10c-39 33 -108 64 -108 192c0 32 5 70 15 116c-96 -177 -239 -297 -390 -298c-130 0 -246 88 -246 225c0 16 2 33 5 50c46 252 144 594 144 702c0 7 0 12 -1 17l165 27v-10
c0 -99 -73 -345 -141 -705c-3 -18 -5 -36 -5 -52c0 -55 21 -99 88 -99c165 0 342 302 437 536l69 337l158 -22l-151 -767c-1 -8 -2 -15 -2 -22c0 -57 38 -81 68 -110z" />
    <glyph glyph-name="uacute" unicode="&#xfa;" 
d="M412 1216c145 43 377 207 496 311l117 -150c-115 -108 -405 -269 -550 -311zM808 -10c-39 33 -108 64 -108 192c0 32 5 70 15 116c-96 -177 -239 -297 -390 -298c-130 0 -246 88 -246 225c0 16 2 33 5 50c46 252 144 594 144 702c0 7 0 12 -1 17l165 27v-10
c0 -99 -73 -345 -141 -705c-3 -18 -5 -36 -5 -52c0 -55 21 -99 88 -99c165 0 342 302 437 536l69 337l158 -22l-151 -767c-1 -8 -2 -15 -2 -22c0 -57 38 -81 68 -110z" />
    <glyph glyph-name="ucircumflex" unicode="&#xfb;" 
d="M723 1501l293 -327l-117 -102l-204 231l-339 -236l-87 122zM808 -10c-39 33 -108 64 -108 192c0 32 5 70 15 116c-96 -177 -239 -297 -390 -298c-130 0 -246 88 -246 225c0 16 2 33 5 50c46 252 144 594 144 702c0 7 0 12 -1 17l165 27v-10c0 -99 -73 -345 -141 -705
c-3 -18 -5 -36 -5 -52c0 -55 21 -99 88 -99c165 0 342 302 437 536l69 337l158 -22l-151 -767c-1 -8 -2 -15 -2 -22c0 -57 38 -81 68 -110z" />
    <glyph glyph-name="udieresis" unicode="&#xfc;" 
d="M381 1409l234 -3l-44 -225l-234 3zM786 1406l234 -3l-43 -225l-235 3zM808 -10c-39 33 -108 64 -108 192c0 32 5 70 15 116c-96 -177 -239 -297 -390 -298c-130 0 -246 88 -246 225c0 16 2 33 5 50c46 252 144 594 144 702c0 7 0 12 -1 17l165 27v-10
c0 -99 -73 -345 -141 -705c-3 -18 -5 -36 -5 -52c0 -55 21 -99 88 -99c165 0 342 302 437 536l69 337l158 -22l-151 -767c-1 -8 -2 -15 -2 -22c0 -57 38 -81 68 -110z" />
    <glyph glyph-name="plusminus" unicode="&#xb1;" 
d="M167 822c171 -10 241 -11 342 -11l72 361l160 -1l-73 -361c156 3 155 9 344 9h17l-29 -150h-17c-186 0 -185 -6 -344 -11l-2 -11c-21 -106 -44 -214 -61 -304c163 -3 177 -5 342 -8l17 -1l-29 -150l-17 1c-208 3 -280 7 -501 7c-132 0 -159 -1 -320 -6h-18l29 150h17
c162 4 199 8 320 8c18 93 40 199 61 305l2 10c-107 0 -165 3 -341 13z" />
    <glyph glyph-name="divide" unicode="&#xf7;" 
d="M111 437l25 157c160 5 286 6 364 6c138 0 202 -3 411 -6h17l-31 -157h-18c-212 3 -276 7 -413 7c-76 0 -202 -3 -355 -7zM330 258h250l-52 -270h-250zM477 1026h251l-52 -269h-251z" />
    <glyph glyph-name="yacute" unicode="&#xfd;" 
d="M422 1216c145 43 377 207 496 311l117 -150c-115 -108 -405 -269 -550 -311zM-2 -110c24 -31 105 -113 179 -113c97 0 182 137 234 223c-28 302 -111 845 -232 862c-4 0 -7 1 -11 1c-21 0 -39 -7 -40 -8l-13 168c32 4 56 6 77 6c26 0 46 -3 71 -9
c159 -41 252 -542 285 -837c116 223 280 632 351 859l152 -42c-87 -253 -252 -707 -453 -1027c-156 -248 -279 -349 -438 -349c-125 0 -227 98 -267 148z" />
    <glyph glyph-name="ydieresis" unicode="&#xff;" 
d="M415 1402l234 -3l-44 -225l-234 3zM820 1399l234 -3l-43 -225l-235 3zM-2 -110c24 -31 105 -113 179 -113c97 0 182 137 234 223c-28 302 -111 845 -232 862c-4 0 -7 1 -11 1c-21 0 -39 -7 -40 -8l-13 168c32 4 56 6 77 6c26 0 46 -3 71 -9c159 -41 252 -542 285 -837
c116 223 280 632 351 859l152 -42c-87 -253 -252 -707 -453 -1027c-156 -248 -279 -349 -438 -349c-125 0 -227 98 -267 148z" />
    <glyph glyph-name="OE" unicode="&#x152;" 
d="M416 146l200 1024c-261 0 -342 -219 -415 -592c-16 -83 -31 -164 -31 -232c0 -117 44 -199 201 -202c16 0 32 1 45 2zM811 153c59 2 88 10 136 26l10 -146c-112 -29 -254 -34 -365 -34c-47 0 -97 1 -152 1c-18 -7 -114 -8 -129 -8c-218 9 -287 158 -287 355
c0 78 11 163 28 250c85 436 241 733 576 733c26 0 53 -2 78 -7c60 3 123 3 186 3c85 0 171 -1 253 -1l-31 -155c-92 0 -149 1 -220 1c-35 0 -75 0 -122 -1l-65 -335h275l-29 -153h-275c-39 -202 -92 -450 -107 -529h240z" />
    <glyph glyph-name="yen" unicode="&#xa5;" 
d="M401 374h-112c-67 0 -137 -1 -214 -5l31 162h17c124 4 217 7 313 7l14 75c-8 15 -16 35 -26 59c-77 1 -172 7 -286 14l13 64c6 32 12 63 20 94c68 -4 136 -7 189 -9c-63 171 -133 379 -153 448l154 72c20 -70 120 -358 183 -522h74c137 166 353 457 401 535l123 -80
c-66 -96 -167 -242 -305 -413c-10 -12 -21 -24 -31 -36c58 2 120 3 195 3h18l-31 -159h-18c-119 0 -205 -5 -301 -8c-30 -35 -51 -62 -61 -73c-4 -22 -9 -43 -14 -65c117 -2 220 -5 342 -7h17l-34 -162h-18c-120 2 -225 5 -341 6c-23 -110 -44 -211 -51 -246l-26 -134h-160
l29 149c10 49 29 139 49 231z" />
    <glyph glyph-name="Ntilde" unicode="&#xd1;" 
d="M617 1660c136 0 177 -129 267 -129c85 0 141 39 172 127l153 -58c-56 -120 -166 -222 -318 -222c-162 0 -192 129 -276 129c-78 0 -134 -29 -192 -135l-150 75c106 164 210 213 344 213zM676 -6c-94 357 -190 654 -323 1007l-40 -204c-57 -293 -125 -648 -155 -800h-159
l253 1301l159 -4c90 -184 267 -689 336 -937c23 130 49 266 75 400c36 186 75 369 117 540h154c-28 -113 -58 -262 -90 -425c-44 -226 -90 -480 -135 -710c-11 -57 -23 -114 -33 -167z" />
    <glyph glyph-name="Eth" unicode="&#xd0;" 
d="M458 1152h-30c-16 0 -27 1 -45 -2c-4 -25 -10 -56 -16 -86c-8 -44 -18 -90 -28 -137h327v-147h-356c-53 -274 -109 -549 -127 -636c87 -3 132 -3 192 -3c114 0 300 26 400 205c25 45 54 133 64 187c13 67 20 136 20 200c0 87 -13 166 -40 221c-64 128 -140 198 -361 198z
M181 927l6 30c24 126 44 248 52 334c83 8 128 13 227 13c271 0 412 -80 500 -259c38 -79 57 -178 57 -285c0 -62 -7 -127 -19 -192c-61 -318 -188 -532 -521 -571c-56 -6 -107 -7 -162 -7c-84 0 -216 7 -330 7c6 33 6 32 28 128c9 48 76 364 134 655h-87v147h115z" />
    <glyph glyph-name="currency" unicode="&#xa4;" 
d="M713 522c5 26 7 50 7 72c0 87 -38 143 -104 149l-15 -2c-107 -11 -174 -115 -206 -279c-6 -32 -10 -60 -10 -85c0 -81 36 -122 119 -122c108 0 179 113 209 267zM230 461l1 7c17 88 52 168 89 229l-111 152l140 106l92 -127c58 50 114 70 185 73h17c83 0 131 -21 173 -68
l134 113l94 -99l-166 -150c6 -26 8 -52 8 -79c0 -32 -4 -64 -10 -98c-22 -103 -49 -168 -97 -236l115 -155l-139 -106l-98 136c-58 -39 -123 -61 -189 -61c-84 1 -132 29 -172 69l-149 -124l-87 99l163 157c-4 20 -5 38 -5 57c0 34 5 68 12 105z" />
    <glyph glyph-name="sterling" unicode="&#xa3;" 
d="M269 186c-27 30 -38 68 -58 83c-11 -7 -30 -38 -36 -68c0 -2 -1 -4 -1 -6c-1 -8 -2 -16 -2 -22c0 -25 9 -34 22 -34c22 0 55 27 75 47zM920 691c-76 -9 -158 -9 -256 -9h-117c0 -93 -1 -187 -21 -297c-10 -52 -28 -107 -49 -155c82 -61 129 -93 218 -93
c93 0 99 17 111 77l3 15l156 2l-8 -41c-30 -136 -125 -205 -266 -206c-118 0 -211 41 -306 111c-61 -66 -154 -108 -241 -108c-83 0 -128 64 -128 150c0 17 2 36 6 55c20 101 66 178 146 220c19 9 38 12 53 12h9c59 0 101 -55 127 -90c6 20 10 41 14 63c17 88 18 163 18 241
v47c-52 2 -96 2 -141 2h-17l29 152h129c1 71 3 138 16 204c40 205 172 308 361 308c147 0 215 -106 221 -233l-155 -43c-4 62 -15 121 -96 123h-6c-117 0 -153 -82 -166 -147c-10 -54 -14 -151 -16 -217l148 3h57c74 0 140 1 197 7z" />
    <glyph glyph-name="cent" unicode="&#xa2;" 
d="M486 284h2c92 0 174 34 207 70l14 16l121 -83l-15 -16c-67 -77 -172 -124 -282 -136l-28 -144h-160l29 148c-44 9 -91 25 -130 55c-66 51 -93 114 -93 196c0 31 4 64 11 100l2 11c24 123 78 204 128 252c68 64 147 98 223 112l33 168h162l-32 -166
c114 -17 168 -81 183 -172l-169 -57v23c-1 53 -35 59 -114 59c-61 0 -128 -18 -174 -63c-23 -22 -59 -61 -75 -143c-5 -24 -7 -47 -7 -69c0 -95 45 -162 147 -162c6 0 11 1 17 1z" />
    <glyph glyph-name="percent" unicode="%" 
d="M306 1011c0 -50 36 -88 89 -88c64 0 131 55 131 129c0 50 -36 87 -89 87c-63 0 -131 -55 -131 -128zM467 1289c125 0 212 -101 212 -219c0 -175 -161 -297 -313 -297c-125 0 -213 104 -213 223c0 173 164 293 314 293zM598 234c0 -50 36 -88 89 -88c64 0 131 55 131 129
c0 50 -36 87 -89 87c-63 0 -131 -55 -131 -128zM759 512c125 0 212 -99 212 -217c0 -175 -161 -299 -313 -299c-125 0 -213 99 -213 218c0 173 164 298 314 298zM-22 63c277 364 774 914 1094 1261l109 -118c-318 -339 -796 -858 -1078 -1249z" />
    <glyph glyph-name="guillemotleft" unicode="&#xab;" 
d="M458 576c164 100 318 269 384 402l132 -74c-75 -142 -194 -288 -347 -405c101 -106 163 -219 178 -372l3 -18l-162 -46c-16 163 -78 280 -213 387zM108 574c169 130 358 262 408 402l139 -54c-77 -189 -237 -312 -383 -421c105 -118 197 -227 209 -399l-158 -47
c-9 149 -107 263 -238 404z" />
    <glyph glyph-name="guillemotright" unicode="&#xbb;" 
d="M644.724 452.275c-163.178 -101.337 -315.791 -271.591 -380.702 -405.126l-132.6 72.9189c73.8359 142.608 191.639 289.576 343.678 407.823c-101.863 105.171 -164.785 217.66 -181.035 370.532l-3.14648 17.9756l161.618 47.3223
c17.332 -162.864 80.2861 -279.354 216.156 -385.246zM994.695 457.136c-167.932 -131.377 -355.847 -264.917 -404.7 -405.321l-139.438 52.8623c75.4531 189.623 234.442 313.927 379.547 424.116c-105.961 117.138 -198.85 225.383 -212.255 397.278l157.61 48.29
c10.2178 -148.921 109.146 -262.116 241.295 -402.041z" />
    <glyph glyph-name="section" unicode="&#xa7;" 
d="M666 319c52 20 63 39 70 73l4 17v5c0 19 -6 40 -25 61c-83 92 -206 165 -306 247c-66 -25 -74 -43 -82 -85c-1 -3 -1 -5 -1 -8c0 -19 11 -41 29 -60c83 -93 211 -170 311 -250zM290 1040c42 218 242 328 395 328c152 0 263 -76 263 -226c0 -19 -2 -39 -6 -61l-151 -1
c2 15 3 27 3 37c0 32 -10 45 -31 66c-22 20 -56 30 -108 30c-89 -2 -187 -61 -206 -158c-4 -22 -6 -41 -6 -57c0 -74 45 -99 135 -171c80 -64 188 -129 268 -233c34 -41 60 -94 60 -152c0 -12 -2 -24 -4 -37c-20 -105 -67 -159 -140 -207c17 -34 26 -75 26 -122
c0 -22 -2 -45 -6 -70c-1 -3 -1 -6 -2 -9c-43 -220 -247 -319 -402 -319s-267 76 -267 229c0 19 2 40 6 62l155 1c0 -10 -1 -19 -1 -27c0 -40 7 -58 30 -78c21 -19 57 -32 107 -32c93 3 190 55 210 158c3 16 5 33 5 54v10c-3 46 -53 104 -135 165c-84 61 -192 128 -273 230
c-31 42 -49 91 -49 145c0 15 1 30 4 46c20 104 72 153 144 200c-19 37 -29 87 -29 138c0 20 1 41 5 61z" />
    <glyph glyph-name="braceleft" unicode="{" 
d="M312 530l31 160c128 34 264 75 290 209c3 14 4 28 4 44c0 18 -2 38 -5 60c-8 47 -18 98 -18 149c0 20 1 39 5 59c10 50 35 100 84 147c114 108 265 120 399 126l-25 -158c-146 -7 -267 -7 -290 -124c-4 -20 -5 -40 -5 -60c0 -58 12 -115 12 -178c0 -23 -1 -46 -6 -71
c-29 -150 -152 -260 -252 -283c79 -20 148 -103 148 -221c0 -20 -2 -41 -6 -62c-22 -115 -102 -208 -122 -309c-2 -10 -3 -19 -3 -27c0 -90 114 -89 246 -95l-36 -158c-132 6 -279 16 -351 124c-22 33 -31 67 -31 102c0 15 2 30 5 45c14 71 56 143 93 208
c22 40 35 74 41 104c2 13 4 24 4 35c0 106 -109 143 -212 174z" />
    <glyph glyph-name="bar" unicode="|" 
d="M345 152c71 365 177 959 233 1247l18 93h160l-28 -145c-54 -277 -141 -789 -206 -1123l-30 -150c-22 -115 -33 -171 -58 -272l-161 1c16 62 25 105 36 160c9 47 19 103 36 189z" />
    <glyph glyph-name="braceright" unicode="}" 
d="M784 530c-128 -34 -264 -75 -290 -209c-3 -14 -4 -28 -4 -44c0 -18 2 -38 5 -60c8 -47 18 -98 18 -149c0 -20 -1 -39 -5 -59c-10 -50 -35 -100 -84 -147c-114 -108 -265 -118 -399 -124l26 158c146 7 266 5 289 122c4 21 6 41 6 61c0 57 -13 113 -13 175c0 23 2 48 7 73
c29 150 152 260 252 283c-79 20 -148 103 -148 221c0 20 2 41 6 62c22 115 101 208 121 309c2 10 3 19 3 27c0 90 -113 91 -245 97l35 158c132 -6 279 -18 351 -126c22 -33 31 -67 31 -102c0 -15 -2 -30 -5 -45c-14 -71 -56 -143 -93 -208c-22 -40 -35 -74 -41 -104
c-2 -13 -4 -24 -4 -35c0 -106 109 -143 212 -174z" />
    <glyph glyph-name="at" unicode="@" 
d="M478 501c-4 -20 -6 -39 -6 -56c0 -70 33 -109 86 -109c98 0 219 140 255 199l18 95c-40 41 -113 63 -177 63c-95 0 -153 -72 -176 -192zM794 309c-71 -63 -139 -125 -265 -125c-119 0 -214 108 -214 247c0 19 1 40 5 60c42 216 195 362 356 362c69 0 141 -17 186 -66
c10 54 21 112 21 165c0 102 -38 187 -185 187c-221 0 -410 -216 -492 -638c-11 -57 -16 -114 -16 -167c0 -233 105 -412 299 -412c48 0 99 17 163 53l34 -135c-88 -42 -168 -64 -238 -64c-268 0 -403 253 -403 539c0 59 5 120 17 180c98 506 361 795 664 795
c240 0 317 -157 317 -326c0 -42 -5 -85 -13 -126l-64 -330c-2 -10 -4 -19 -6 -29c-8 -39 -15 -79 -15 -120c0 -40 7 -81 26 -121l-163 -64c-11 28 -15 61 -15 99c0 12 0 24 1 36z" />
    <glyph glyph-name="brokenbar" unicode="&#xa6;" 
d="M581 528c-20 -111 -52 -285 -69 -373c-39 -201 -43 -220 -75 -350l-161 1c18 74 25 104 37 165l29 147c19 98 54 286 76 410h163zM464 775c48 267 83 464 114 624l18 93h160l-24 -126c-29 -149 -61 -341 -106 -591h-162z" />
    <glyph glyph-name="copyright" unicode="&#xa9;" 
d="M188 507c0 -188 110 -328 315 -328c230 0 467 170 467 504c0 208 -104 324 -306 324c-229 0 -476 -217 -476 -500zM687 1146c267 0 427 -171 427 -442c0 -453 -332 -665 -642 -665c-253 0 -427 189 -427 441c0 415 332 666 642 666zM620 746c-83 0 -156 -89 -156 -199
c0 -74 5 -112 95 -112c55 0 94 11 133 69l110 -68c-93 -123 -208 -138 -271 -138c-126 0 -213 87 -213 207c0 246 159 378 332 378c72 0 174 -39 199 -131l-126 -69c-19 47 -41 63 -103 63z" />
    <glyph glyph-name="registered" unicode="&#xae;" 
d="M654 519c16 -53 96 -159 132 -168l-74 -85c-85 33 -163 189 -175 240c-30 4 -69 18 -69 18l-46 -241h-115l88 453c10 54 16 91 23 140c83 13 157 22 219 22c129 0 207 -54 207 -166c0 -119 -82 -195 -190 -213zM721 708c0 55 -29 65 -107 65c-27 0 -60 -2 -100 -8
l-23 -120c43 -21 81 -30 112 -30c82 0 118 44 118 93zM188 507c0 -188 110 -328 315 -328c230 0 467 170 467 504c0 208 -104 324 -306 324c-229 0 -476 -217 -476 -500zM687 1146c267 0 427 -171 427 -442c0 -453 -332 -665 -642 -665c-253 0 -427 189 -427 441
c0 415 332 666 642 666z" />
    <glyph glyph-name="germandbls" unicode="&#xdf;" 
d="M211 1003c30 156 142 325 362 325c158 0 311 -73 311 -242c0 -219 -62 -246 -138 -307c136 -40 209 -164 209 -285c0 -320 -160 -496 -406 -496c-164 0 -283 74 -283 230c0 22 2 44 7 69c2 8 3 16 5 24h156c-5 -29 -8 -53 -8 -74c0 -71 37 -96 152 -96
c147 0 222 153 222 317c0 191 -194 201 -452 201l30 153c169 0 347 8 347 225c0 85 -62 129 -181 129c-96 -1 -165 -93 -182 -183c-49 -254 -117 -628 -188 -882c-23 -81 -70 -127 -131 -155l-86 122c22 10 52 35 60 62c77 267 140 586 194 863z" />
    <glyph glyph-name="ampersand" unicode="&#x26;" 
d="M628 245c-79 142 -151 276 -226 403c-91 -69 -176 -157 -198 -272c-4 -20 -6 -39 -6 -57c0 -116 77 -186 177 -186s189 52 253 112zM686 1069c2 12 4 24 4 34c0 64 -44 91 -108 91c-68 0 -149 -73 -164 -150c-2 -11 -3 -22 -3 -32c0 -58 30 -108 60 -153
c84 52 128 91 157 122c33 35 49 60 54 88zM922 64l-140 -96c-11 20 -45 79 -84 148c-110 -98 -228 -138 -358 -138c-180 0 -306 113 -306 299c0 28 3 59 9 90c35 179 154 314 285 404c-31 48 -74 121 -74 211c0 18 1 36 5 55c33 169 193 310 354 310c129 0 238 -71 238 -207
c0 -17 -1 -36 -5 -55c-31 -162 -169 -258 -303 -344c65 -113 129 -224 194 -343c36 70 53 141 74 250l149 -1c-32 -167 -81 -311 -148 -392c30 -51 93 -160 110 -191z" />
    <glyph glyph-name="uni00B5" unicode="&#xb5;" 
d="M808 -10c-39 33 -108 64 -108 192c0 32 5 70 15 116c-96 -177 -239 -297 -390 -298c-47 0 -92 12 -131 33l-89 -433h-157l125 614c9 48 11 61 11 61c46 252 144 594 144 702c0 7 0 12 -1 17l165 27v-10c0 -99 -73 -345 -141 -705c-3 -18 -5 -36 -5 -52
c0 -55 21 -99 88 -99c165 0 342 302 437 536l69 337l158 -22l-151 -767c-1 -8 -2 -15 -2 -22c0 -57 38 -81 68 -110z" />
    <glyph glyph-name="paragraph" unicode="&#xb6;" 
d="M882 1041l25 128c-41 1 -80 4 -133 5c-63 -330 -128 -662 -189 -990c-27 -139 -84 -214 -84 -214l-144 52s54 63 82 207l45 244c-166 12 -274 53 -331 168c-21 44 -29 91 -29 139s8 97 17 144c18 92 54 184 121 250c142 141 316 154 541 154c133 0 170 -8 288 -8
l-259 -1329l-152 -1c65 335 116 607 202 1051z" />
    <glyph glyph-name="periodcentered" unicode="&#xb7;" 
d="M458 656h251l-52 -269h-251z" />
    <glyph glyph-name="questiondown" unicode="&#xbf;" 
d="M866.09 -126c-134 -161 -332 -190 -476 -190c-194 0 -353 105 -353 248c0 230 157 336 270 418c61 44 130 111 146 193l9 46h175l-8 -44c-23 -120 -91 -198 -189 -272c-130 -99 -237 -162 -237 -296c0 -84 115 -138 225 -138c92 0 202 0 358 161zM703.09 750h-250l52 270
h250z" />
    <glyph glyph-name="dieresis" unicode="&#xa8;" 
d="M320 1315l234 -3l-44 -225l-234 3zM725 1312l234 -3l-43 -225l-235 3z" />
    <glyph glyph-name="acute" unicode="&#xb4;" 
d="M411 1353c145 43 377 207 496 311l117 -150c-115 -108 -405 -269 -550 -311z" />
    <glyph glyph-name="degree" unicode="&#xb0;" 
d="M335 1096c28 142 166 258 308 258c125 0 213 -90 213 -209c0 -16 -2 -32 -5 -49c-28 -142 -166 -258 -308 -258c-125 0 -213 90 -213 209c0 16 2 32 5 49zM485 1096c-1 -7 -2 -14 -2 -21c0 -50 36 -87 89 -87c60 0 117 48 129 108c1 7 2 14 2 21c0 50 -36 87 -89 87
c-60 0 -117 -48 -129 -108z" />
    <glyph glyph-name="macron" unicode="&#xaf;" 
d="M413 1340c35 -4 78 -5 124 -5s98 1 149 1h180l-29 -152h-17c-58 -2 -128 -2 -202 -2h-81c-53 0 -106 0 -154 3z" />
    <glyph glyph-name="dotlessi" unicode="&#x131;" 
d="M661 1020l-147 -736c-4 -19 -5 -36 -5 -52c0 -71 37 -108 112 -108c93 0 191 24 270 76l76 -117c-100 -71 -248 -101 -372 -101c-191 0 -245 117 -245 227c0 25 2 48 7 71l108 533c-35 -26 -145 -88 -219 -112l-58 144c232 98 265 146 283 175h190z" />
    <glyph glyph-name="Amacron" unicode="&#x100;" 
d="M991 1539l-30 -152h-17c-58 -2 -128 -2 -202 -2s-149 0 -217 2l-17 1l30 155l18 -2c65 -2 162 -2 254 -2h164h17zM739 495l-80 587l-304 -607c63 13 119 13 203 17zM800 0l-50 332c-142 -3 -364 -5 -480 -32l-93 -179c-16 -29 -43 -93 -48 -121h-162c6 28 42 116 63 159
l582 1142h171l186 -1301h-169z" />
    <glyph glyph-name="amacron" unicode="&#x101;" 
d="M934 1335.9l-30 -152h-17c-58 -2 -128 -2 -202 -2s-149 0 -217 2l-17 1l30 155l18 -2c65 -2 162 -2 254 -2h164h17zM243 514c-17 -63 -25 -119 -25 -168c0 -128 54 -202 132 -202c226 0 358 298 416 464l45 196c-50 35 -123 86 -227 86c-191 0 -270 -116 -341 -376z
M1006 1002l-120 -646c-13 -66 -20 -110 -20 -142c0 -52 18 -72 53 -105l-106 -119c-41 37 -97 64 -97 201c0 8 0 16 1 25c-58 -84 -184 -224 -396 -224c-155 0 -255 148 -255 351c0 51 6 105 19 161c84 358 218 530 519 530c126 0 189 -40 237 -73c5 23 8 45 10 65z" />
    <glyph glyph-name="Cacute" unicode="&#x106;" 
d="M517 1496c145 43 377 207 496 311l117 -150c-115 -108 -405 -269 -550 -311zM718 1152c-275 0 -430 -386 -457 -527c-12 -60 -19 -118 -19 -172c0 -92 21 -172 71 -229c51 -58 95 -73 177 -73h14c148 5 248 79 321 191l125 -76c-104 -155 -261 -269 -451 -269h-3
c-111 0 -238 25 -314 117c-66 84 -100 189 -100 319c0 58 7 121 20 190c49 254 161 410 228 486c93 106 246 197 421 197c140 0 267 -78 324 -237l-135 -81c-38 120 -136 164 -222 164z" />
    <glyph glyph-name="cacute" unicode="&#x107;" 
d="M417 1214c145 43 377 207 496 311l117 -150c-115 -108 -405 -269 -550 -311zM242 389c0 -149 78 -239 259 -239h13c156 0 244 80 313 167l116 -111c-41 -42 -176 -213 -455 -213c-241 0 -411 149 -411 349c0 73 11 145 22 205c63 331 281 471 586 471
c177 0 269 -95 300 -229l-156 -53c-13 66 -43 129 -183 129c-214 0 -346 -111 -387 -326c-8 -44 -17 -98 -17 -150z" />
    <glyph glyph-name="Ccircumflex" unicode="&#x108;" 
d="M828 1771l293 -327l-117 -102l-204 231l-339 -236l-87 122zM718 1152c-275 0 -430 -386 -457 -527c-12 -60 -19 -118 -19 -172c0 -92 21 -172 71 -229c51 -58 95 -73 177 -73h14c148 5 248 79 321 191l125 -76c-104 -155 -261 -269 -451 -269h-3c-111 0 -238 25 -314 117
c-66 84 -100 189 -100 319c0 58 7 121 20 190c49 254 161 410 228 486c93 106 246 197 421 197c140 0 267 -78 324 -237l-135 -81c-38 120 -136 164 -222 164z" />
    <glyph glyph-name="ccircumflex" unicode="&#x109;" 
d="M763 1489l293 -327l-117 -102l-204 231l-339 -236l-87 122zM242 389c0 -149 78 -239 259 -239h13c156 0 244 80 313 167l116 -111c-41 -42 -176 -213 -455 -213c-241 0 -411 149 -411 349c0 73 11 145 22 205c63 331 281 471 586 471c177 0 269 -95 300 -229l-156 -53
c-13 66 -43 129 -183 129c-214 0 -346 -111 -387 -326c-8 -44 -17 -98 -17 -150z" />
    <glyph glyph-name="Cdotaccent" unicode="&#x10a;" 
d="M685 1649l235 -3l-43 -225l-236 3zM718 1152c-275 0 -430 -386 -457 -527c-12 -60 -19 -118 -19 -172c0 -92 21 -172 71 -229c51 -58 95 -73 177 -73h14c148 5 248 79 321 191l125 -76c-104 -155 -261 -269 -451 -269h-3c-111 0 -238 25 -314 117
c-66 84 -100 189 -100 319c0 58 7 121 20 190c49 254 161 410 228 486c93 106 246 197 421 197c140 0 267 -78 324 -237l-135 -81c-38 120 -136 164 -222 164z" />
    <glyph glyph-name="cdotaccent" unicode="&#x10b;" 
d="M633.922 1403l235 -3l-43 -225l-236 3zM242 389c0 -149 78 -239 259 -239h13c156 0 244 80 313 167l116 -111c-41 -42 -176 -213 -455 -213c-241 0 -411 149 -411 349c0 73 11 145 22 205c63 331 281 471 586 471c177 0 269 -95 300 -229l-156 -53
c-13 66 -43 129 -183 129c-214 0 -346 -111 -387 -326c-8 -44 -17 -98 -17 -150z" />
    <glyph glyph-name="Ccaron" unicode="&#x10c;" 
d="M720 1360l-298 323l114 103l208 -227l336 241l88 -121zM718 1152c-275 0 -430 -386 -457 -527c-12 -60 -19 -118 -19 -172c0 -92 21 -172 71 -229c51 -58 95 -73 177 -73h14c148 5 248 79 321 191l125 -76c-104 -155 -261 -269 -451 -269h-3c-111 0 -238 25 -314 117
c-66 84 -100 189 -100 319c0 58 7 121 20 190c49 254 161 410 228 486c93 106 246 197 421 197c140 0 267 -78 324 -237l-135 -81c-38 120 -136 164 -222 164z" />
    <glyph glyph-name="ccaron" unicode="&#x10d;" 
d="M664 1072l-298 323l114 103l208 -227l336 241l88 -121zM242 389c0 -149 78 -239 259 -239h13c156 0 244 80 313 167l116 -111c-41 -42 -176 -213 -455 -213c-241 0 -411 149 -411 349c0 73 11 145 22 205c63 331 281 471 586 471c177 0 269 -95 300 -229l-156 -53
c-13 66 -43 129 -183 129c-214 0 -346 -111 -387 -326c-8 -44 -17 -98 -17 -150z" />
    <glyph glyph-name="Dcaron" unicode="&#x10e;" 
d="M589 1363l-298 323l114 103l208 -227l336 241l88 -121zM458 1152h-30c-16 0 -27 1 -45 -2c-4 -25 -10 -56 -16 -86c-12 -62 -27 -130 -40 -198c-58 -300 -124 -626 -144 -722c87 -3 132 -3 192 -3c114 0 300 26 400 205c25 45 54 133 64 187c13 67 20 136 20 200
c0 87 -13 166 -40 221c-64 128 -140 198 -361 198zM19 125c10 54 93 443 154 758l14 74c24 126 44 248 52 334c83 8 128 13 227 13c271 0 412 -80 500 -259c38 -79 57 -178 57 -285c0 -62 -7 -127 -19 -192c-61 -318 -188 -532 -521 -571c-56 -6 -107 -7 -162 -7
c-84 0 -216 7 -330 7c6 33 6 32 28 128z" />
    <glyph glyph-name="emacron" unicode="&#x113;" 
d="M914 1333.9l-30 -152h-17c-58 -2 -128 -2 -202 -2s-149 0 -217 2l-17 1l30 155l18 -2c65 -2 162 -2 254 -2h164h17zM262 492c115 8 324 21 438 89c75 45 111 102 111 154c0 73 -71 134 -207 134c-170 0 -293 -126 -342 -377zM632 1021c215 0 325 -136 325 -281
c0 -101 -54 -206 -163 -273c-153 -93 -404 -115 -548 -126v-11c0 -72 39 -187 233 -187c179 0 278 81 327 135l102 -109c-50 -45 -170 -179 -463 -179c-244 0 -359 142 -359 366c0 49 6 103 17 160c56 286 246 505 529 505z" />
    <glyph glyph-name="Emacron" unicode="&#x112;" 
d="M954 1584l-30 -152h-17c-58 -2 -128 -2 -202 -2s-149 0 -217 2l-17 1l30 155l18 -2c65 -2 162 -2 254 -2h164h17zM278 1293c57 4 127 4 205 4h98h110c149 0 285 -3 359 -3h16v-150h-659l-63 -328h438v-150h-468l-5 -30c-39 -203 -83 -411 -98 -488h519
c56 0 105 20 105 20l50 -141c-45 -18 -89 -30 -165 -30h-694z" />
    <glyph glyph-name="asterisk" unicode="*" 
d="M509 740l79 425l169 1l-87 -429l343 146l61 -136l-392 -149l214 -337l-144 -96l-187 364l-316 -366l-116 110l322 340l-323 136l69 132z" />
    <glyph glyph-name="uni00A0" unicode="&#xa0;" 
 />
    <glyph glyph-name="ordfeminine" unicode="&#xaa;" 
d="M502 887c143 0 302 170 332 323l14 79c-24 44 -82 106 -172 106c-139 0 -194 -47 -254 -277c-9 -37 -17 -78 -17 -114c0 -65 23 -117 97 -117zM1034 1513l-83 -425c-9 -46 -11 -82 -11 -114c0 -52 18 -72 53 -105l-106 -119c-41 37 -66 76 -83 145
c0 0 -141 -143 -313 -143c-178 0 -228 95 -228 224c0 54 8 114 24 174c70 256 164 387 395 387c84 0 158 -36 193 -75c5 23 9 50 11 70zM198 675h756l-27 -141h-756z" />
    <glyph glyph-name="logicalnot" unicode="&#xac;" 
d="M187 592c137 7 249 8 351 8h119c82 0 166 -1 273 -2h19c-27 -141 -55 -283 -82 -424h-154l52 270c-134 3 -134 4 -259 4c-67 0 -189 -1 -343 -9l17 84z" />
    <glyph glyph-name="uni00AD" unicode="&#xad;" 
d="M187 592c137 7 249 8 351 8h119c82 0 166 -1 273 -2h18l-30 -153h-18c-134 3 -269 3 -394 3c-67 0 -189 -1 -343 -9l17 84z" />
    <glyph glyph-name="uni00B2" unicode="&#xb2;" 
d="M417 1314c53 149 175 213 341 213c132 0 238 -67 238 -211c0 -118 -57 -176 -314 -298c-80 -38 -149 -70 -173 -107l420 5l-29 -147h-598c5 32 11 62 17 95c9 45 20 76 56 120c46 56 169 109 261 151c186 84 214 109 214 173c0 48 -39 77 -117 77
c-88 0 -149 -34 -176 -106z" />
    <glyph glyph-name="uni00B3" unicode="&#xb3;" 
d="M425 987c46 -64 93 -92 186 -92c133 0 182 62 182 119c0 62 -64 92 -182 92l28 115c15 -1 30 -2 41 -2c81 0 141 42 141 113c0 36 -37 63 -109 63c-66 0 -115 -19 -152 -50l-74 115c61 42 133 70 244 70h11c136 0 216 -83 216 -183c0 -90 -35 -126 -95 -169
c55 -33 81 -70 81 -165c0 -139 -135 -257 -359 -257c-116 0 -217 36 -285 130z" />
    <glyph glyph-name="cedilla" unicode="&#xb8;" 
d="M562 56c-3 -8 -15 -72 -16 -75c81 -4 127 -49 127 -126c0 -14 -2 -29 -5 -45c-20 -101 -133 -168 -217 -168c-66 0 -133 25 -182 61l59 106c30 -18 65 -42 116 -42c36 0 81 20 91 58v2c0 2 1 5 1 7c0 26 -32 47 -76 47c-48 0 -51 -7 -81 -17l36 188z" />
    <glyph glyph-name="uni00B9" unicode="&#xb9;" 
d="M768 1527l167 -16l-145 -742h-145l110 556c-87 -79 -226 -150 -359 -192l-31 132c150 38 302 128 403 262z" />
    <glyph glyph-name="ordmasculine" unicode="&#xba;" 
d="M876 1168c5 28 8 53 8 75c0 99 -55 141 -171 141c-123 0 -228 -68 -260 -231c-6 -32 -10 -62 -10 -90c0 -115 44 -163 160 -163c147 0 236 76 273 268zM573 758c-170 0 -276 98 -276 266c0 38 4 79 13 124c53 270 211 378 397 378c210 0 324 -91 324 -251
c0 -29 -4 -61 -10 -94c-57 -295 -178 -423 -448 -423zM198 675h756l-27 -141h-756z" />
    <glyph glyph-name="onequarter" unicode="&#xbc;" 
d="M162 675h893l-27 -141h-893zM612 -24l54 266c-100 -108 -203 -203 -273 -266h219zM227 -16c148 134 330 307 462 453h149l-88 -454l128 3l-29 -148l-127 3l-27 -157h-148l33 157h-329zM768 1527l167 -16l-145 -742h-145l110 556c-87 -79 -226 -150 -359 -192l-31 132
c150 38 302 128 403 262z" />
    <glyph glyph-name="onehalf" unicode="&#xbd;" 
d="M162 675h893l-27 -141h-893zM307 234c53 149 175 213 341 213c132 0 238 -67 238 -211c0 -118 -57 -176 -314 -298c-80 -38 -149 -70 -173 -107l420 5l-29 -147h-598c5 32 11 62 17 95c9 45 20 76 56 120c46 56 169 109 261 151c186 84 214 109 214 173
c0 48 -39 77 -117 77c-88 0 -149 -34 -176 -106zM768 1527l167 -16l-145 -742h-145l110 556c-87 -79 -226 -150 -359 -192l-31 132c150 38 302 128 403 262z" />
    <glyph glyph-name="threequarters" unicode="&#xbe;" 
d="M162 675h893l-27 -141h-893zM612 -24l54 266c-100 -108 -203 -203 -273 -266h219zM227 -16c148 134 330 307 462 453h149l-88 -454l128 3l-29 -148l-127 3l-27 -157h-148l33 157h-329zM425 987c46 -64 93 -92 186 -92c133 0 182 62 182 119c0 62 -64 92 -182 92l28 115
c15 -1 30 -2 41 -2c81 0 141 42 141 113c0 36 -37 63 -109 63c-66 0 -115 -19 -152 -50l-74 115c61 42 133 70 244 70h11c136 0 216 -83 216 -183c0 -90 -35 -126 -95 -169c55 -33 81 -70 81 -165c0 -139 -135 -257 -359 -257c-116 0 -217 36 -285 130z" />
    <glyph glyph-name="Thorn" unicode="&#xde;" 
d="M865 800c3 16 5 31 5 45c0 107 -92 163 -334 163c-61 0 -107 -3 -152 -4l-24 -126c-36 -183 -53 -265 -53 -265c36 -1 70 -1 103 -1c286 0 422 20 455 188zM185 -10l-158 1l254 1303c68 0 111 1 160 3l-27 -140c35 2 75 3 129 3c225 0 362 -14 450 -152
c26 -41 37 -92 37 -147c0 -31 -4 -64 -10 -97c-54 -280 -365 -304 -590 -304c-48 0 -98 1 -152 3c-51 -263 -63 -317 -93 -473z" />
    <glyph glyph-name="eth" unicode="&#xf0;" 
d="M694 864c-341 0 -452 -236 -452 -469c0 -140 63 -239 197 -239c227 3 344 218 344 463c0 91 -33 170 -89 245zM755 1167c106 -210 188 -377 188 -514c0 -379 -174 -652 -534 -652h-2c-224 1 -328 192 -328 355c0 254 129 635 541 662c-7 15 -30 57 -55 106l-214 -48
l-5 136l159 36c-22 46 -40 82 -43 93l174 87c20 -49 39 -94 59 -137l228 53l6 -136z" />
    <glyph glyph-name="thorn" unicode="&#xfe;" 
d="M798 668c0 120 -48 190 -175 190c-100 0 -194 -46 -287 -160l-85 -436c42 -51 58 -114 178 -114c190 0 369 159 369 520zM188 739c2 8 71 370 73 378c11 57 17 112 17 153c0 9 0 18 -1 26l168 20c-1 -8 0 -57 -7 -91l-59 -303c74 56 150 91 273 91
c186 0 307 -127 307 -314c0 -479 -200 -706 -574 -706c-100 0 -132 32 -174 63l-40 -207c-18 -94 -26 -178 -32 -246l-161 -9c5 73 19 169 37 260z" />
    <glyph glyph-name="Abreve" unicode="&#x102;" 
d="M736 1544c108 0 211 74 232 152l160 -30c-58 -177 -219 -275 -422 -275c-126 0 -301 64 -305 289l164 14c4 -117 78 -150 171 -150zM739 495l-80 587l-304 -607c63 13 119 13 203 17zM800 0l-50 332c-142 -3 -364 -5 -480 -32l-93 -179c-16 -29 -43 -93 -48 -121h-162
c6 28 42 116 63 159l582 1142h171l186 -1301h-169z" />
    <glyph glyph-name="abreve" unicode="&#x103;" 
d="M663 1268c108 0 211 74 232 152l160 -30c-58 -177 -219 -275 -422 -275c-126 0 -301 64 -305 289l164 14c4 -117 78 -150 171 -150zM243 514c-17 -63 -25 -119 -25 -168c0 -128 54 -202 132 -202c226 0 358 298 416 464l45 196c-50 35 -123 86 -227 86
c-191 0 -270 -116 -341 -376zM1006 1002l-120 -646c-13 -66 -20 -110 -20 -142c0 -52 18 -72 53 -105l-106 -119c-41 37 -97 64 -97 201c0 8 0 16 1 25c-58 -84 -184 -224 -396 -224c-155 0 -255 148 -255 351c0 51 6 105 19 161c84 358 218 530 519 530
c126 0 189 -40 237 -73c5 23 8 45 10 65z" />
    <glyph glyph-name="Aogonek" unicode="&#x104;" 
d="M739 495l-80 587l-304 -607c63 13 119 13 203 17zM969 0c-122 -85 -350 -160 -364 -234c-1 -5 -1 -10 -1 -15c0 -46 48 -69 106 -69s105 33 139 55l58 -106c-53 -48 -150 -93 -229 -93c-162 0 -233 69 -233 175c0 17 1 34 5 53c34 174 274 217 344 275l-44 291
c-142 -3 -364 -5 -480 -32l-93 -179c-16 -29 -43 -93 -48 -121h-162c6 28 42 116 63 159l582 1142h171z" />
    <glyph glyph-name="aogonek" unicode="&#x105;" 
d="M1006 1002l-120 -646c-13 -66 -20 -110 -20 -142c0 -54 0 -74 16 -74c5 0 11 1 18 4l63 -101c-122 -85 -447 -186 -461 -260c-1 -5 -1 -10 -1 -15c0 -46 48 -69 106 -69s105 33 139 55l58 -106c-53 -48 -150 -93 -229 -93c-162 0 -233 69 -233 175c0 17 1 34 5 53
c26 132 255 208 417 281c-31 23 -49 60 -49 109c0 8 0 16 1 25c-58 -84 -183 -206 -395 -206c-155 0 -255 148 -255 351c0 51 6 105 19 161c84 358 218 530 519 530c126 0 189 -40 237 -73c5 23 8 45 10 65zM243 514c-17 -63 -25 -119 -25 -168c0 -128 54 -202 132 -202
c226 0 358 298 416 464l45 196c-50 35 -123 86 -227 86c-191 0 -270 -116 -341 -376z" />
    <glyph glyph-name="dcaron" unicode="&#x10f;" 
d="M206 514c-17 -63 -25 -119 -25 -168c0 -128 54 -202 132 -202c226 0 296 298 354 464l44 196c-39 51 -94 86 -198 86c-147 0 -236 -116 -307 -376zM981 1388l-194 -1032c-13 -66 -19 -110 -19 -142c0 -52 16 -72 51 -105l-106 -119c-41 37 -86 59 -86 162c0 8 -1 16 0 25
c-58 -84 -131 -185 -343 -185c-155 0 -255 148 -255 351c0 51 6 105 19 161c84 358 222 530 485 530c126 0 172 -29 208 -73c5 23 85 436 86 451zM1097 1397l143 -7c-21 -217 -124 -340 -213 -420l-83 55c46 42 140 206 153 372z" />
    <glyph glyph-name="Dcroat" unicode="&#x110;" 
d="M458 1152h-30c-16 0 -27 1 -45 -2c-4 -25 -10 -56 -16 -86c-8 -44 -18 -90 -28 -137h327v-147h-356c-53 -274 -109 -549 -127 -636c87 -3 132 -3 192 -3c114 0 300 26 400 205c25 45 54 133 64 187c13 67 20 136 20 200c0 87 -13 166 -40 221c-64 128 -140 198 -361 198z
M181 927l6 30c24 126 44 248 52 334c83 8 128 13 227 13c271 0 412 -80 500 -259c38 -79 57 -178 57 -285c0 -62 -7 -127 -19 -192c-61 -318 -188 -532 -521 -571c-56 -6 -107 -7 -162 -7c-84 0 -216 7 -330 7c6 33 6 32 28 128c9 48 76 364 134 655h-87v147h115z" />
    <glyph glyph-name="dcroat" unicode="&#x111;" 
d="M206 514c-17 -63 -25 -119 -25 -168c0 -128 54 -202 132 -202c226 0 358 298 416 464l45 196c-50 35 -123 86 -227 86c-191 0 -270 -116 -341 -376zM993 1119l-144 -763c-13 -66 -19 -110 -19 -142c0 -52 17 -72 52 -105l-106 -119c-41 37 -98 80 -98 183c0 8 0 16 1 25
c-58 -84 -183 -206 -395 -206c-155 0 -255 148 -255 351c0 51 6 105 19 161c84 358 218 530 519 530c126 0 189 -40 237 -73c2 9 16 77 31 158h-287v150h315c14 75 25 136 26 143l155 -24l-23 -119h106v-150h-134z" />
    <glyph glyph-name="Ebreve" unicode="&#x114;" 
d="M729 1530.92c108 0 211 74.7803 232 153.603l160 -30.3164c-58 -178.865 -219 -277.898 -422 -277.898c-126 0 -301 64.6748 -305 292.046l164 14.1475c4 -118.232 78 -151.581 171 -151.581zM278 1293c57 4 127 4 205 4h98h110c149 0 285 -3 359 -3h16v-150h-659
l-63 -328h438v-150h-468l-5 -30c-39 -203 -83 -411 -98 -488h519c56 0 105 20 105 20l50 -141c-45 -18 -89 -30 -165 -30h-694z" />
    <glyph glyph-name="ebreve" unicode="&#x115;" 
d="M704 1244c108 0 211 74 232 152l160 -30c-58 -177 -219 -275 -422 -275c-126 0 -301 64 -305 289l164 14c4 -117 78 -150 171 -150zM262 492c115 8 324 21 438 89c75 45 111 102 111 154c0 73 -71 134 -207 134c-170 0 -293 -126 -342 -377zM632 1021
c215 0 325 -136 325 -281c0 -101 -54 -206 -163 -273c-153 -93 -404 -115 -548 -126v-11c0 -72 39 -187 233 -187c179 0 278 81 327 135l102 -109c-50 -45 -170 -179 -463 -179c-244 0 -359 142 -359 366c0 49 6 103 17 160c56 286 246 505 529 505z" />
    <glyph glyph-name="Edotaccent" unicode="&#x116;" 
d="M632 1649l235 -3l-43 -225l-236 3zM278 1293c57 4 127 4 205 4h98h110c149 0 285 -3 359 -3h16v-150h-659l-63 -328h438v-150h-468l-5 -30c-39 -203 -83 -411 -98 -488h519c56 0 105 20 105 20l50 -141c-45 -18 -89 -30 -165 -30h-694z" />
    <glyph glyph-name="edotaccent" unicode="&#x117;" 
d="M584.339 1403.9l235 -3l-43 -225l-236 3zM262 492c115 8 324 21 438 89c75 45 111 102 111 154c0 73 -71 134 -207 134c-170 0 -293 -126 -342 -377zM632 1021c215 0 325 -136 325 -281c0 -101 -54 -206 -163 -273c-153 -93 -404 -115 -548 -126v-11
c0 -72 39 -187 233 -187c179 0 278 81 327 135l102 -109c-50 -45 -170 -179 -463 -179c-244 0 -359 142 -359 366c0 49 6 103 17 160c56 286 246 505 529 505z" />
    <glyph glyph-name="Eogonek" unicode="&#x118;" 
d="M278 1293c57 4 127 4 205 4h98h110c149 0 285 -3 359 -3h16l-4 -154l-655 4l-63 -328h438l-4 -154l-464 4l-5 -30c-39 -203 -83 -411 -98 -488h519c56 0 77 19 77 19l78 -140c-127 -89 -376 -181 -376 -267c0 -46 43 -73 101 -73s105 33 139 55l58 -106
c-53 -48 -150 -93 -229 -93c-162 0 -228 104 -228 179c0 135 115 211 231 275h-555z" />
    <glyph glyph-name="eogonek" unicode="&#x119;" 
d="M262 492c115 8 324 21 438 89c75 45 111 102 111 154c0 73 -71 134 -207 134c-170 0 -293 -126 -342 -377zM632 1021c215 0 325 -136 325 -281c0 -101 -54 -206 -163 -273c-153 -93 -404 -115 -548 -126v-11c0 -72 39 -187 233 -187c179 0 299 67 348 121l102 -109
c-131 -139 -519 -232 -546 -370c-1 -5 -1 -10 -1 -15c0 -46 48 -69 106 -69s105 33 139 55l58 -106c-53 -48 -150 -93 -229 -93c-162 0 -233 69 -233 175c0 17 1 34 5 53c19 85 87 151 171 207c-212 17 -313 155 -313 364c0 49 6 103 17 160c56 286 246 505 529 505z" />
    <glyph glyph-name="Ecaron" unicode="&#x11a;" 
d="M682 1342l-298 323l114 103l208 -227l336 241l88 -121zM278 1293c57 4 127 4 205 4h98h110c149 0 285 -3 359 -3h16v-150h-659l-63 -328h438v-150h-468l-5 -30c-39 -203 -83 -411 -98 -488h519c56 0 105 20 105 20l50 -141c-45 -18 -89 -30 -165 -30h-694z" />
    <glyph glyph-name="ecaron" unicode="&#x11b;" 
d="M636 1063l-298 323l114 103l208 -227l336 241l88 -121zM262 492c115 8 324 21 438 89c75 45 111 102 111 154c0 73 -71 134 -207 134c-170 0 -293 -126 -342 -377zM632 1021c215 0 325 -136 325 -281c0 -101 -54 -206 -163 -273c-153 -93 -404 -115 -548 -126v-11
c0 -72 39 -187 233 -187c179 0 278 81 327 135l102 -109c-50 -45 -170 -179 -463 -179c-244 0 -359 142 -359 366c0 49 6 103 17 160c56 286 246 505 529 505z" />
    <glyph glyph-name="Gcircumflex" unicode="&#x11c;" 
d="M781 1759l293 -327l-117 -102l-204 231l-339 -236l-87 122zM1050 733l-15 -128c-51 -440 -231 -556 -418 -602c-47 -10 -112 -11 -154 -11c-294 0 -416 188 -416 444c0 61 7 125 20 192c46 237 137 431 293 558c117 88 236 116 351 116h20c213 -5 325 -113 368 -276
l-166 -46c-30 114 -87 170 -242 170c-84 0 -147 -6 -238 -73c-129 -95 -193 -288 -226 -460c-12 -61 -19 -119 -19 -172c0 -174 74 -298 296 -298c211 0 301 128 361 440h-14c-44 0 -83 1 -122 1c-75 0 -147 -5 -238 -36l-37 141c103 36 208 42 309 42c103 0 192 0 287 -2z
" />
    <glyph glyph-name="gcircumflex" unicode="&#x11d;" 
d="M761.913 1556.9l293 -327l-117 -102l-204 231l-339 -236l-87 122zM243 514c-17 -63 -25 -119 -25 -168c0 -128 54 -202 132 -202c226 0 358 298 416 464l45 196c-50 35 -123 86 -227 86c-191 0 -270 -116 -341 -376zM1006 1002l-120 -646c-48 -257 -136 -758 -532 -758
c-115 0 -256 42 -429 145l76 150c145 -101 258 -140 347 -140c254 0 323 331 361 454c-58 -84 -176 -215 -388 -215c-155 0 -255 148 -255 351c0 51 6 105 19 161c84 358 218 530 519 530c126 0 189 -40 237 -73c5 23 8 45 10 65z" />
    <glyph glyph-name="Gbreve" unicode="&#x11e;" 
d="M723 1526c108 0 211 74 232 152l160 -30c-58 -177 -219 -275 -422 -275c-126 0 -301 64 -305 289l164 14c4 -117 78 -150 171 -150zM1050 733l-15 -128c-51 -440 -231 -556 -418 -602c-47 -10 -112 -11 -154 -11c-294 0 -416 188 -416 444c0 61 7 125 20 192
c46 237 137 431 293 558c117 88 236 116 351 116h20c213 -5 325 -113 368 -276l-166 -46c-30 114 -87 170 -242 170c-84 0 -147 -6 -238 -73c-129 -95 -193 -288 -226 -460c-12 -61 -19 -119 -19 -172c0 -174 74 -298 296 -298c211 0 301 128 361 440h-14
c-44 0 -83 1 -122 1c-75 0 -147 -5 -238 -36l-37 141c103 36 208 42 309 42c103 0 192 0 287 -2z" />
    <glyph glyph-name="gbreve" unicode="&#x11f;" 
d="M679 1258.8c108 0 211 74 232 152l160 -30c-58 -177 -219 -275 -422 -275c-126 0 -301 64 -305 289l164 14c4 -117 78 -150 171 -150zM243 514c-17 -63 -25 -119 -25 -168c0 -128 54 -202 132 -202c226 0 358 298 416 464l45 196c-50 35 -123 86 -227 86
c-191 0 -270 -116 -341 -376zM1006 1002l-120 -646c-48 -257 -136 -758 -532 -758c-115 0 -256 42 -429 145l76 150c145 -101 258 -140 347 -140c254 0 323 331 361 454c-58 -84 -176 -215 -388 -215c-155 0 -255 148 -255 351c0 51 6 105 19 161c84 358 218 530 519 530
c126 0 189 -40 237 -73c5 23 8 45 10 65z" />
    <glyph glyph-name="Gdotaccent" unicode="&#x120;" 
d="M665 1652l235 -3l-43 -225l-236 3zM1050 733l-15 -128c-51 -440 -231 -556 -418 -602c-47 -10 -112 -11 -154 -11c-294 0 -416 188 -416 444c0 61 7 125 20 192c46 237 137 431 293 558c117 88 236 116 351 116h20c213 -5 325 -113 368 -276l-166 -46
c-30 114 -87 170 -242 170c-84 0 -147 -6 -238 -73c-129 -95 -193 -288 -226 -460c-12 -61 -19 -119 -19 -172c0 -174 74 -298 296 -298c211 0 301 128 361 440h-14c-44 0 -83 1 -122 1c-75 0 -147 -5 -238 -36l-37 141c103 36 208 42 309 42c103 0 192 0 287 -2z" />
    <glyph glyph-name="gdotaccent" unicode="&#x121;" 
d="M590.2 1411l235 -3l-43 -225l-236 3zM243 514c-17 -63 -25 -119 -25 -168c0 -128 54 -202 132 -202c226 0 358 298 416 464l45 196c-50 35 -123 86 -227 86c-191 0 -270 -116 -341 -376zM1006 1002l-120 -646c-48 -257 -136 -758 -532 -758c-115 0 -256 42 -429 145
l76 150c145 -101 258 -140 347 -140c254 0 323 331 361 454c-58 -84 -176 -215 -388 -215c-155 0 -255 148 -255 351c0 51 6 105 19 161c84 358 218 530 519 530c126 0 189 -40 237 -73c5 23 8 45 10 65z" />
    <glyph glyph-name="Gcommaaccent" unicode="&#x122;" 
d="M341 -130h252l-45 -263v-3c-38 -197 -147 -325 -329 -401l-34 139c102 51 165 121 192 259h-88zM1050 733l-15 -128c-51 -440 -231 -556 -418 -602c-47 -10 -112 -11 -154 -11c-294 0 -416 188 -416 444c0 61 7 125 20 192c46 237 137 431 293 558
c117 88 236 116 351 116h20c213 -5 325 -113 368 -276l-166 -46c-30 114 -87 170 -242 170c-84 0 -147 -6 -238 -73c-129 -95 -193 -288 -226 -460c-12 -61 -19 -119 -19 -172c0 -174 74 -298 296 -298c211 0 301 128 361 440h-14c-44 0 -83 1 -122 1
c-75 0 -147 -5 -238 -36l-37 141c103 36 208 42 309 42c103 0 192 0 287 -2z" />
    <glyph glyph-name="gcommaaccent" unicode="&#x123;" 
d="M635 1170c60 112 108 221 182 372l145 -34c-46 -142 -101 -283 -142 -386zM243 514c-17 -63 -25 -119 -25 -168c0 -128 54 -202 132 -202c226 0 358 298 416 464l45 196c-50 35 -123 86 -227 86c-191 0 -270 -116 -341 -376zM1006 1002l-120 -646
c-48 -257 -136 -758 -532 -758c-115 0 -256 42 -429 145l76 150c145 -101 258 -140 347 -140c254 0 323 331 361 454c-58 -84 -176 -215 -388 -215c-155 0 -255 148 -255 351c0 51 6 105 19 161c84 358 218 530 519 530c126 0 189 -40 237 -73c5 23 8 45 10 65z" />
    <glyph glyph-name="Hcircumflex" unicode="&#x124;" 
d="M761 1780l293 -327l-117 -102l-204 231l-339 -236l-87 122zM397 1296l-107 -547c96 21 192 28 312 28h228c53 274 68 352 99 514h159l-251 -1291h-158l121 625h-129c-146 0 -288 -3 -411 -28c-67 -343 -79 -416 -114 -597h-161l252 1294z" />
    <glyph glyph-name="hcircumflex" unicode="&#x125;" 
d="M499 1826l293 -327l-117 -102l-204 231l-339 -236l-87 122zM755 576c12 62 26 130 26 171c0 66 -33 120 -118 120c-78 0 -263 -80 -400 -383l-52 -286c-14 -79 -34 -152 -48 -198l-156 8c22 72 34 119 49 196c98 504 232 1198 232 1198h159l-111 -570
c82 123 199 188 301 188c182 0 305 -64 305 -245c0 -40 -8 -83 -17 -133c-30 -153 -52 -262 -73 -367c-2 -9 -13 -63 -13 -78c0 -70 36 -74 80 -96l-66 -136c-92 22 -175 93 -175 191c0 37 11 85 15 104z" />
    <glyph glyph-name="Itilde" unicode="&#x128;" 
d="M592 1684c136 0 177 -129 267 -129c85 0 141 39 172 127l153 -58c-56 -120 -166 -222 -318 -222c-162 0 -192 129 -276 129c-78 0 -134 -29 -192 -135l-150 75c106 164 210 213 344 213zM329 1298c157 4 238 4 334 4c105 0 201 -1 364 -3l-30 -152c-123 0 -170 5 -266 5
l-194 -1000c46 0 72 1 123 1c45 0 92 -1 143 -4l-29 -150c-84 5 -146 6 -209 6c-47 0 -96 -1 -155 -1c-74 0 -176 -7 -331 -7l29 149c86 4 136 5 193 5h75l195 1000c-66 -1 -159 -1 -266 -7z" />
    <glyph glyph-name="itilde" unicode="&#x129;" 
d="M517.756 1402c127.282 0 165.654 -129 249.885 -129c79.5518 0 131.962 39 160.975 127l143.192 -58c-52.4102 -120 -155.359 -222 -297.615 -222c-151.615 0 -179.692 129 -258.308 129c-73 0 -125.41 -29 -179.692 -135l-140.385 75
c99.2051 164 196.538 213 321.948 213zM661 1020l-147 -736c-4 -19 -5 -36 -5 -52c0 -71 37 -108 112 -108c93 0 191 24 270 76l76 -117c-100 -71 -248 -101 -372 -101c-191 0 -245 117 -245 227c0 25 2 48 7 71l108 533c-35 -26 -145 -88 -219 -112l-58 144
c232 98 265 146 283 175h190z" />
    <glyph glyph-name="Imacron" unicode="&#x12a;" 
d="M947 1593l-30 -152h-17c-58 -2 -128 -2 -202 -2s-149 0 -217 2l-17 1l30 155l18 -2c65 -2 162 -2 254 -2h164h17zM329 1298c157 4 238 4 334 4c105 0 201 -1 364 -3l-30 -152c-123 0 -170 5 -266 5l-194 -1000c46 0 72 1 123 1c45 0 92 -1 143 -4l-29 -150
c-84 5 -146 6 -209 6c-47 0 -96 -1 -155 -1c-74 0 -176 -7 -331 -7l29 149c86 4 136 5 193 5h75l195 1000c-66 -1 -159 -1 -266 -7z" />
    <glyph glyph-name="imacron" unicode="&#x12b;" 
d="M869 1333l-30 -152h-17c-58 -2 -128 -2 -202 -2s-149 0 -217 2l-17 1l30 155l18 -2c65 -2 162 -2 254 -2h164h17zM661 1020l-147 -736c-4 -19 -5 -36 -5 -52c0 -71 37 -108 112 -108c93 0 191 24 270 76l76 -117c-100 -71 -248 -101 -372 -101c-191 0 -245 117 -245 227
c0 25 2 48 7 71l108 533c-35 -26 -145 -88 -219 -112l-58 144c232 98 265 146 283 175h190z" />
    <glyph glyph-name="Ibreve" unicode="&#x12c;" 
d="M722 1527c108 0 211 74 232 152l160 -30c-58 -177 -219 -275 -422 -275c-126 0 -301 64 -305 289l164 14c4 -117 78 -150 171 -150zM329 1298c157 4 238 4 334 4c105 0 201 -1 364 -3l-30 -152c-123 0 -170 5 -266 5l-194 -1000c46 0 72 1 123 1c45 0 92 -1 143 -4
l-29 -150c-84 5 -146 6 -209 6c-47 0 -96 -1 -155 -1c-74 0 -176 -7 -331 -7l29 149c86 4 136 5 193 5h75l195 1000c-66 -1 -159 -1 -266 -7z" />
    <glyph glyph-name="ibreve" unicode="&#x12d;" 
d="M659 1280c108 0 211 74 232 152l160 -30c-58 -177 -219 -275 -422 -275c-126 0 -301 64 -305 289l164 14c4 -117 78 -150 171 -150zM661 1020l-147 -736c-4 -19 -5 -36 -5 -52c0 -71 37 -108 112 -108c93 0 191 24 270 76l76 -117c-100 -71 -248 -101 -372 -101
c-191 0 -245 117 -245 227c0 25 2 48 7 71l108 533c-35 -26 -145 -88 -219 -112l-58 144c232 98 265 146 283 175h190z" />
    <glyph glyph-name="Iogonek" unicode="&#x12e;" 
d="M329 1298c157 4 238 4 334 4c105 0 201 -1 364 -3l-30 -152c-123 0 -170 5 -266 5l-194 -1000c46 0 72 1 123 1c45 0 92 -1 143 -4l-29 -150h-8c-124 -83 -348 -179 -361 -251c-1 -5 -1 -10 -1 -15c0 -46 48 -69 106 -69s105 33 139 55l58 -106
c-53 -48 -150 -93 -229 -93c-162 0 -233 69 -233 175c0 17 1 34 5 53c29 153 230 207 327 257c-53 0 -103 -1 -167 -1c-74 0 -176 -7 -331 -7l29 149c86 4 136 5 193 5h75l195 1000c-66 -1 -159 -1 -266 -7z" />
    <glyph glyph-name="iogonek" unicode="&#x12f;" 
d="M511 1406h235l-43 -225h-235zM654 1010l-137 -726c-4 -19 -5 -36 -5 -52c0 -71 37 -108 112 -108c93 0 191 24 270 76l76 -117c-8 -6 -16 -11 -25 -16c-143 -89 -491 -243 -504 -313c-1 -5 -1 -10 -1 -15c0 -46 48 -69 106 -69s105 33 139 55l58 -106
c-53 -48 -150 -93 -229 -93c-162 0 -233 69 -233 175c0 17 1 34 5 53c15 78 120 161 239 235c-132 26 -172 126 -172 220c0 25 3 48 7 71l97 511c-35 -26 -140 -66 -214 -90l-58 144c274 93 319 189 319 189z" />
    <glyph glyph-name="Idotaccent" unicode="&#x130;" 
d="M613 1652l235 -3l-43 -225l-236 3zM329 1298c157 4 238 4 334 4c105 0 201 -1 364 -3l-30 -152c-123 0 -170 5 -266 5l-194 -1000c46 0 72 1 123 1c45 0 92 -1 143 -4l-29 -150c-84 5 -146 6 -209 6c-47 0 -96 -1 -155 -1c-74 0 -176 -7 -331 -7l29 149c86 4 136 5 193 5
h75l195 1000c-66 -1 -159 -1 -266 -7z" />
    <glyph glyph-name="IJ" unicode="&#x132;" 
d="M530 1151c-38 1 -64 1 -99 1l-194 -1000l79 -2l-29 -150c-30 1 -67 1 -105 1c-75 0 -157 -1 -206 -1l28 146c23 4 41 6 56 6h17l194 1000c-66 -1 -44 -2 -72 -8l28 154c41 4 41 4 137 4h130h67zM691 1296c49 0 91 -1 130 -1c116 0 117 2 281 2
c-32 -155 -74 -429 -108 -655c-77 -504 -141 -650 -407 -650c-141 0 -188 115 -188 262c0 54 6 113 17 172l160 -1c-8 -53 -13 -105 -13 -149c0 -79 15 -134 52 -134c114 0 148 120 191 340c10 54 20 112 33 177c18 95 51 348 66 485c-122 0 -129 0 -245 2z" />
    <glyph glyph-name="ij" unicode="&#x133;" 
d="M714 -114l173 896c3 13 5 24 5 34c0 47 -36 54 -52 54c-73 0 -105 -14 -199 -35l-45 133c116 37 191 52 246 52h33c67 0 176 -11 176 -163c0 -24 -3 -53 -9 -85l-173 -890c-28 -145 -113 -269 -351 -269c-123 0 -244 7 -436 118l87 149c133 -105 295 -111 358 -111h17
c112 0 161 82 170 117zM410 1020h120c-53 -273 -155 -803 -155 -803c-2 -9 -2 -17 -2 -24c0 -46 31 -62 75 -62c51 0 92 22 124 61l63 -102c-61 -71 -162 -96 -230 -96c-147 0 -197 71 -197 161c0 19 2 38 6 58l122 623c-48 -29 -61 -32 -168 -90l-41 121
c99 45 186 113 236 153c15 1 27 0 47 0zM942 1404l233 -3l-43 -225l-234 3zM383 1410l234 -3l-43 -225l-235 3z" />
    <glyph glyph-name="Jcircumflex" unicode="&#x134;" 
d="M892 1771l293 -327l-117 -102l-204 231l-339 -236l-87 122zM337 -8c-223 0 -301 144 -301 313c0 39 4 80 12 121l160 -1c-5 -30 -7 -59 -7 -87c0 -111 42 -196 164 -196c186 0 256 185 321 517c18 95 51 348 66 485c-49 0 -194 1 -231 1c-62 -1 -104 -9 -146 -18l-26 153
c31 7 81 19 200 22h386l-18 -157c-19 -178 -52 -380 -76 -503c-69 -354 -174 -650 -504 -650z" />
    <glyph glyph-name="jcircumflex" unicode="&#x135;" 
d="M876 1516l293 -327l-117 -102l-204 231l-339 -236l-87 122zM859 748l-174 -866c-28 -145 -113 -269 -351 -269c-123 0 -263 22 -349 227l145 98c68 -162 150 -169 213 -169h17c112 0 161 82 170 117l176 876c2 12 4 28 4 45c0 40 -11 84 -54 85h-3
c-49 0 -114 -1 -234 -111l-97 133c135 89 201 127 336 127c176 0 208 -98 208 -206c0 -25 -2 -63 -7 -87z" />
    <glyph glyph-name="Kcommaaccent" unicode="&#x136;" 
d="M302 -34h220l-42 -215c-29 -151 -111 -227 -251 -283l-29 127c65 28 96 51 115 150h-56zM554 705c97 -117 367 -537 392 -672l-156 -50c-25 109 -249 478 -355 604c0 0 -103 -98 -147 -169l-90 -423h-158l255 1313h158l-117 -605c102 111 188 190 307 293
c229 195 374 293 399 314l90 -130c-208 -132 -504 -402 -578 -475z" />
    <glyph glyph-name="kcommaaccent" unicode="&#x137;" 
d="M314 -29h220l-42 -215c-29 -151 -111 -227 -251 -283l-29 127c65 28 96 51 115 150h-56zM218 0h-157l239 1228c7 36 11 72 11 108c0 25 -2 49 -6 74l163 17c2 -11 4 -37 4 -69c0 -37 -3 -82 -10 -118l-161 -818c202 280 445 488 653 636l95 -136
c-149 -89 -347 -256 -520 -453c104 -177 215 -287 392 -332l-35 -155c-206 53 -352 183 -464 355c-84 -109 -155 -224 -204 -337z" />
    <glyph glyph-name="kgreenlandic" unicode="&#x138;" 
d="M601 605c85 -127 293 -420 318 -555l-149 -76c-25 109 -210 390 -302 527c0 0 -138 -102 -208 -177l-63 -324h-156l198 1020h156l-91 -470c111 92 232 175 357 269c242 178 326 211 353 230l72 -129c-216 -116 -406 -247 -485 -315z" />
    <glyph glyph-name="Lacute" unicode="&#x139;" 
d="M254 1498c145 43 377 207 496 311l117 -150c-115 -108 -405 -269 -550 -311zM65 -3l253 1301h161l-223 -1147h521c60 3 56 4 103 19l54 -142c-58 -28 -110 -31 -185 -31h-684z" />
    <glyph glyph-name="lacute" unicode="&#x13a;" 
d="M366 1600c145 43 377 207 496 311l117 -150c-115 -108 -405 -269 -550 -311zM648 1431l-198 -1055c-6 -32 -9 -60 -9 -85c0 -133 76 -167 183 -167c93 0 191 24 270 76l76 -117c-100 -71 -248 -101 -372 -101c-213 0 -318 124 -318 299c0 29 3 59 9 91l197 1072z" />
    <glyph glyph-name="Lcommaaccent" unicode="&#x13b;" 
d="M239 -125h220l-42 -215c-29 -151 -111 -227 -251 -283l-29 127c65 28 96 51 115 150h-56zM65 -3l253 1301h161l-223 -1147h521c60 3 56 4 103 19l54 -142c-58 -28 -110 -31 -185 -31h-684z" />
    <glyph glyph-name="lcommaaccent" unicode="&#x13c;" 
d="M448 -138h220l-42 -215c-29 -151 -111 -227 -251 -283l-29 127c65 28 96 51 115 150h-56zM648 1431l-198 -1055c-6 -32 -9 -60 -9 -85c0 -133 76 -167 183 -167c93 0 191 24 270 76l76 -117c-100 -71 -248 -101 -372 -101c-213 0 -318 124 -318 299c0 29 3 59 9 91
l197 1072z" />
    <glyph glyph-name="Lcaron" unicode="&#x13d;" 
d="M819 1241c-38 -112 -64 -221 -109 -372l-152 34c18 142 46 283 67 386zM65 -3l253 1301h161l-223 -1147h521c60 3 56 4 103 19l54 -142c-58 -28 -110 -31 -185 -31h-684z" />
    <glyph glyph-name="lcaron" unicode="&#x13e;" 
d="M952 1392c-38 -112 -65 -221 -110 -372l-152 34c18 142 47 283 68 386zM648 1431l-198 -1055c-6 -32 -9 -60 -9 -85c0 -133 76 -167 183 -167c93 0 191 24 270 76l76 -117c-100 -71 -248 -101 -372 -101c-213 0 -318 124 -318 299c0 29 3 59 9 91l197 1072z" />
    <glyph glyph-name="Ldot" unicode="&#x13f;" 
d="M615.136 818.44h216l-44.749 -228.995h-216zM65 -3l253 1301h161l-223 -1147h521c60 3 56 4 103 19l54 -142c-58 -28 -110 -31 -185 -31h-684z" />
    <glyph glyph-name="ldot" unicode="&#x140;" 
d="M728.136 818.44h216l-44.749 -228.995h-216zM648 1431l-198 -1055c-6 -32 -9 -60 -9 -85c0 -133 76 -167 183 -167c93 0 191 24 270 76l76 -117c-100 -71 -248 -101 -372 -101c-213 0 -318 124 -318 299c0 29 3 59 9 91l197 1072z" />
    <glyph glyph-name="Lslash" unicode="&#x141;" 
d="M289 529l-119 -59l-66 134l221 110l114 584h161l-96 -496l372 185l66 -135l-474 -235l-91 -466h400c60 3 56 4 103 19l54 -142c-58 -28 -110 -31 -185 -31h-563z" />
    <glyph glyph-name="lslash" unicode="&#x142;" 
d="M187 1096c0 232 101 364 306 364c96 0 175 -18 274 -58c60 -22 93 -32 119 -32c36 0 50 20 62 54l110 -100c-31 -58 -87 -102 -168 -102c-47 0 -106 20 -166 44c-21 9 -41 17 -60 23l-214 -913c-6 -32 -9 -60 -9 -85c0 -133 76 -167 183 -167c93 0 191 24 270 76l76 -117
c-100 -71 -248 -101 -372 -101c-213 0 -318 124 -318 299c0 29 3 59 9 91l215 940c-122 -5 -170 -89 -170 -222z" />
    <glyph glyph-name="Nacute" unicode="&#x143;" 
d="M476 1478c145 43 377 207 496 311l117 -150c-115 -108 -405 -269 -550 -311zM676 -6c-94 357 -190 654 -323 1007l-40 -204c-57 -293 -125 -648 -155 -800h-159l253 1301l159 -4c90 -184 267 -689 336 -937c23 130 49 266 75 400c36 186 75 369 117 540h154
c-28 -113 -58 -262 -90 -425c-44 -226 -90 -480 -135 -710c-11 -57 -23 -114 -33 -167z" />
    <glyph glyph-name="nacute" unicode="&#x144;" 
d="M500.5 1213c145 43 377 207 496 311l117 -150c-115 -108 -405 -269 -550 -311zM374 856c118 118 230 174 358 174c108 0 222 -69 222 -192c0 -13 -1 -27 -4 -42l-114 -585c-2 -8 -2 -14 -2 -21c0 -50 41 -70 85 -97l-106 -112c-70 38 -141 81 -141 178c0 14 2 29 5 45
l109 561c3 13 4 26 4 37c0 49 -26 75 -86 75c-116 0 -299 -137 -395 -391l-98 -486l-158 -1l137 706c17 88 22 141 22 184c0 44 -5 77 -8 125l170 18c2 -18 3 -48 3 -84c0 -28 -1 -60 -3 -92z" />
    <glyph glyph-name="Ncommaaccent" unicode="&#x145;" 
d="M263 -28h220l-42 -215c-29 -151 -111 -227 -251 -283l-29 127c65 28 96 51 115 150h-56zM676 -6c-94 357 -190 654 -323 1007l-40 -204c-57 -293 -125 -648 -155 -800h-159l253 1301l159 -4c90 -184 267 -689 336 -937c23 130 49 266 75 400c36 186 75 369 117 540h154
c-28 -113 -58 -262 -90 -425c-44 -226 -90 -480 -135 -710c-11 -57 -23 -114 -33 -167z" />
    <glyph glyph-name="ncommaaccent" unicode="&#x146;" 
d="M304.5 -39h220l-42 -215c-29 -151 -111 -227 -251 -283l-29 127c65 28 96 51 115 150h-56zM374 856c118 118 230 174 358 174c108 0 222 -69 222 -192c0 -13 -1 -27 -4 -42l-114 -585c-2 -8 -2 -14 -2 -21c0 -50 41 -70 85 -97l-106 -112c-70 38 -141 81 -141 178
c0 14 2 29 5 45l109 561c3 13 4 26 4 37c0 49 -26 75 -86 75c-116 0 -299 -137 -395 -391l-98 -486l-158 -1l137 706c17 88 22 141 22 184c0 44 -5 77 -8 125l170 18c2 -18 3 -48 3 -84c0 -28 -1 -60 -3 -92z" />
    <glyph glyph-name="Ncaron" unicode="&#x147;" 
d="M655 1324l-298 323l114 103l208 -227l336 241l88 -121zM676 -6c-94 357 -190 654 -323 1007l-40 -204c-57 -293 -125 -648 -155 -800h-159l253 1301l159 -4c90 -184 267 -689 336 -937c23 130 49 266 75 400c36 186 75 369 117 540h154c-28 -113 -58 -262 -90 -425
c-44 -226 -90 -480 -135 -710c-11 -57 -23 -114 -33 -167z" />
    <glyph glyph-name="ncaron" unicode="&#x148;" 
d="M679.5 1086l-298 323l114 103l208 -227l336 241l88 -121zM374 856c118 118 230 174 358 174c108 0 222 -69 222 -192c0 -13 -1 -27 -4 -42l-114 -585c-2 -8 -2 -14 -2 -21c0 -50 41 -70 85 -97l-106 -112c-70 38 -141 81 -141 178c0 14 2 29 5 45l109 561c3 13 4 26 4 37
c0 49 -26 75 -86 75c-116 0 -299 -137 -395 -391l-98 -486l-158 -1l137 706c17 88 22 141 22 184c0 44 -5 77 -8 125l170 18c2 -18 3 -48 3 -84c0 -28 -1 -60 -3 -92z" />
    <glyph glyph-name="Eng" unicode="&#x14a;" 
d="M717 1296c225 0 300 -118 300 -283c0 -48 -7 -99 -17 -153c-45 -231 -85 -460 -131 -695l-7 -34c-50 -256 -145 -490 -581 -490h-34l30 155c347 6 393 146 425 310l145 746c6 31 9 60 9 87c0 130 -68 204 -167 204c-194 0 -303 -159 -352 -227l-179 -919h-159l207 1062
c7 38 10 73 10 103c0 59 -10 97 -10 97l166 57c8 -29 15 -53 15 -95c0 -15 -1 -32 -3 -53c80 102 197 128 333 128z" />
    <glyph glyph-name="eng" unicode="&#x14b;" 
d="M376 927c139 66 205 95 315 95c111 0 249 -65 249 -190c0 -11 -2 -24 -4 -36l-114 -585c-58 -299 -115 -579 -533 -579h-4l28 156h3c231 0 284 98 335 361c40 205 80 411 120 616c1 6 2 12 2 17c0 62 -72 90 -134 90c-63 0 -135 -42 -294 -112l-149 -760l-158 -1l137 706
c23 118 30 170 30 218c0 25 -2 48 -4 80l167 37c4 -20 9 -50 9 -87c0 -8 0 -17 -1 -26z" />
    <glyph glyph-name="Omacron" unicode="&#x14c;" 
d="M998.5 1584l-30 -152h-17c-58 -2 -128 -2 -202 -2s-149 0 -217 2l-17 1l30 155l18 -2c65 -2 162 -2 254 -2h164h17zM687 1326c105 0 340 -53 340 -444c0 -71 -7 -152 -25 -247l-2 -11c-32 -164 -105 -317 -171 -410c-103 -144 -250 -227 -415 -227
c-122 0 -240 43 -302 143c-46 73 -69 165 -69 272c0 53 5 110 17 170c67 345 173 494 261 589c83 90 209 162 366 165zM239 245c36 -65 97 -105 205 -105c88 0 202 67 263 150c52 64 114 230 136 337l4 19c12 65 22 143 22 216c0 56 -6 110 -20 155
c-36 114 -98 156 -186 156c-68 0 -157 -28 -230 -104c-86 -89 -163 -231 -214 -493c-9 -44 -14 -98 -14 -150c0 -71 10 -139 34 -181z" />
    <glyph glyph-name="omacron" unicode="&#x14d;" 
d="M934 1338.3l-30 -152h-17c-58 -2 -128 -2 -202 -2s-149 0 -217 2l-17 1l30 155l18 -2c65 -2 162 -2 254 -2h164h17zM621 215c77 61 121 167 150 315c1 6 3 12 4 18c7 40 12 79 12 114c0 127 -25 216 -191 216c-174 0 -303 -165 -350 -409c-7 -36 -11 -70 -11 -101
c0 -134 28 -212 196 -212c76 1 132 17 190 59zM407 1h-2c-204 0 -332 127 -332 328c0 42 5 87 14 135c57 292 213 568 505 568c197 0 294 -69 338 -201c13 -39 18 -86 18 -136c0 -51 -5 -103 -15 -152c-55 -285 -185 -542 -524 -542h-2z" />
    <glyph glyph-name="Obreve" unicode="&#x14e;" 
d="M731.5 1538c108 0 211 74 232 152l160 -30c-58 -177 -219 -275 -422 -275c-126 0 -301 64 -305 289l164 14c4 -117 78 -150 171 -150zM687 1326c105 0 340 -53 340 -444c0 -71 -7 -152 -25 -247l-2 -11c-32 -164 -105 -317 -171 -410c-103 -144 -250 -227 -415 -227
c-122 0 -240 43 -302 143c-46 73 -69 165 -69 272c0 53 5 110 17 170c67 345 173 494 261 589c83 90 209 162 366 165zM239 245c36 -65 97 -105 205 -105c88 0 202 67 263 150c52 64 114 230 136 337l4 19c12 65 22 143 22 216c0 56 -6 110 -20 155
c-36 114 -98 156 -186 156c-68 0 -157 -28 -230 -104c-86 -89 -163 -231 -214 -493c-9 -44 -14 -98 -14 -150c0 -71 10 -139 34 -181z" />
    <glyph glyph-name="obreve" unicode="&#x14f;" 
d="M706 1268c108 0 211 74 232 152l160 -30c-58 -177 -219 -275 -422 -275c-126 0 -301 64 -305 289l164 14c4 -117 78 -150 171 -150zM621 215c77 61 121 167 150 315c1 6 3 12 4 18c7 40 12 79 12 114c0 127 -25 216 -191 216c-174 0 -303 -165 -350 -409
c-7 -36 -11 -70 -11 -101c0 -134 28 -212 196 -212c76 1 132 17 190 59zM407 1h-2c-204 0 -332 127 -332 328c0 42 5 87 14 135c57 292 213 568 505 568c197 0 294 -69 338 -201c13 -39 18 -86 18 -136c0 -51 -5 -103 -15 -152c-55 -285 -185 -542 -524 -542h-2z" />
    <glyph glyph-name="Ohungarumlaut" unicode="&#x150;" 
d="M714.5 1476c117 95 282 299 352 440l153 -100c-65 -144 -272 -361 -389 -455zM379.5 1483c116 95 281 299 350 440l155 -99c-65 -144 -274 -362 -392 -456zM687 1326c105 0 340 -53 340 -444c0 -71 -7 -152 -25 -247l-2 -11c-32 -164 -105 -317 -171 -410
c-103 -144 -250 -227 -415 -227c-122 0 -240 43 -302 143c-46 73 -69 165 -69 272c0 53 5 110 17 170c67 345 173 494 261 589c83 90 209 162 366 165zM239 245c36 -65 97 -105 205 -105c88 0 202 67 263 150c52 64 114 230 136 337l4 19c12 65 22 143 22 216
c0 56 -6 110 -20 155c-36 114 -98 156 -186 156c-68 0 -157 -28 -230 -104c-86 -89 -163 -231 -214 -493c-9 -44 -14 -98 -14 -150c0 -71 10 -139 34 -181z" />
    <glyph glyph-name="ohungarumlaut" unicode="&#x151;" 
d="M723 1164c117 95 282 299 352 440l153 -100c-65 -144 -272 -361 -389 -455zM388 1171c116 95 281 299 350 440l155 -99c-65 -144 -274 -362 -392 -456zM621 215c77 61 121 167 150 315c1 6 3 12 4 18c7 40 12 79 12 114c0 127 -25 216 -191 216
c-174 0 -303 -165 -350 -409c-7 -36 -11 -70 -11 -101c0 -134 28 -212 196 -212c76 1 132 17 190 59zM407 1h-2c-204 0 -332 127 -332 328c0 42 5 87 14 135c57 292 213 568 505 568c197 0 294 -69 338 -201c13 -39 18 -86 18 -136c0 -51 -5 -103 -15 -152
c-55 -285 -185 -542 -524 -542h-2z" />
    <glyph glyph-name="Racute" unicode="&#x154;" 
d="M510 1504c145 43 377 207 496 311l117 -150c-115 -108 -405 -269 -550 -311zM682 540c54 -122 163 -299 206 -364c15 -16 39 -49 79 -60l-76 -132c-56 9 -103 46 -129 88c-76 107 -222 368 -260 462c-80 8 -147 20 -220 33l-109 -567h-158l216 1113c13 67 21 114 29 175
c43 4 160 15 221 15c250 0 416 -14 509 -164c28 -44 45 -104 45 -167c0 -21 -2 -42 -6 -63c-43 -220 -141 -343 -347 -369zM871 895c3 17 5 34 5 50c0 36 -9 70 -32 103c-52 78 -163 102 -387 102c-26 0 -35 0 -64 -1l-81 -430c96 -18 170 -35 252 -35c171 0 275 42 307 211
z" />
    <glyph glyph-name="racute" unicode="&#x155;" 
d="M548 1212c145 43 377 207 496 311l117 -150c-115 -108 -405 -269 -550 -311zM421 731c148 224 266 294 421 294c109 0 173 -63 173 -171c0 -37 -5 -79 -14 -125c0 -2 -1 -4 -1 -6h-156c5 33 12 62 12 86c0 34 -15 56 -69 56c-101 0 -263 -196 -406 -419l-90 -446l-156 1
l149 763c2 9 3 18 3 27c0 47 -26 93 -88 140l120 136c45 -43 119 -116 119 -227c0 -16 -14 -92 -17 -109z" />
    <glyph glyph-name="Rcommaaccent" unicode="&#x156;" 
d="M314 -60h220l-42 -215c-29 -151 -111 -227 -251 -283l-29 127c65 28 96 51 115 150h-56zM682 540c54 -122 163 -299 206 -364c15 -16 39 -49 79 -60l-76 -132c-56 9 -103 46 -129 88c-76 107 -222 368 -260 462c-80 8 -147 20 -220 33l-109 -567h-158l216 1113
c13 67 21 114 29 175c43 4 160 15 221 15c250 0 416 -14 509 -164c28 -44 45 -104 45 -167c0 -21 -2 -42 -6 -63c-43 -220 -141 -343 -347 -369zM871 895c3 17 5 34 5 50c0 36 -9 70 -32 103c-52 78 -163 102 -387 102c-26 0 -35 0 -64 -1l-81 -430c96 -18 170 -35 252 -35
c171 0 275 42 307 211z" />
    <glyph glyph-name="rcommaaccent" unicode="&#x157;" 
d="M113 -83h220l-42 -215c-29 -151 -111 -227 -251 -283l-29 127c65 28 96 51 115 150h-56zM421 731c148 224 266 294 421 294c109 0 173 -63 173 -171c0 -37 -5 -79 -14 -125c0 -2 -1 -4 -1 -6h-156c5 33 12 62 12 86c0 34 -15 56 -69 56c-101 0 -263 -196 -406 -419
l-90 -446l-156 1l149 763c2 9 3 18 3 27c0 47 -26 93 -88 140l120 136c45 -43 119 -116 119 -227c0 -16 -14 -92 -17 -109z" />
    <glyph glyph-name="Rcaron" unicode="&#x158;" 
d="M616 1345l-298 323l114 103l208 -227l336 241l88 -121zM682 540c54 -122 163 -299 206 -364c15 -16 39 -49 79 -60l-76 -132c-56 9 -103 46 -129 88c-76 107 -222 368 -260 462c-80 8 -147 20 -220 33l-109 -567h-158l216 1113c13 67 21 114 29 175c43 4 160 15 221 15
c250 0 416 -14 509 -164c28 -44 45 -104 45 -167c0 -21 -2 -42 -6 -63c-43 -220 -141 -343 -347 -369zM871 895c3 17 5 34 5 50c0 36 -9 70 -32 103c-52 78 -163 102 -387 102c-26 0 -35 0 -64 -1l-81 -430c96 -18 170 -35 252 -35c171 0 275 42 307 211z" />
    <glyph glyph-name="rcaron" unicode="&#x159;" 
d="M667 1061l-298 323l114 103l208 -227l336 241l88 -121zM421 731c148 224 266 294 421 294c109 0 173 -63 173 -171c0 -37 -5 -79 -14 -125c0 -2 -1 -4 -1 -6h-156c5 33 12 62 12 86c0 34 -15 56 -69 56c-101 0 -263 -196 -406 -419l-90 -446l-156 1l149 763
c2 9 3 18 3 27c0 47 -26 93 -88 140l120 136c45 -43 119 -116 119 -227c0 -16 -14 -92 -17 -109z" />
    <glyph glyph-name="Sacute" unicode="&#x15a;" 
d="M459 1496c145 43 377 207 496 311l117 -150c-115 -108 -405 -269 -550 -311zM166 358c0 -120 106 -216 295 -216c213 0 332 135 332 287c0 79 -43 132 -103 160c-106 50 -259 60 -380 120c-70 36 -128 106 -128 214c0 264 243 379 466 379c208 0 349 -45 418 -98
l-99 -153c-57 51 -159 97 -344 97c-144 0 -270 -76 -270 -189c0 -59 27 -90 70 -112c106 -56 263 -55 383 -115c82 -44 151 -133 151 -264c0 -338 -263 -477 -513 -477h-19c-291 7 -421 156 -421 328z" />
    <glyph glyph-name="sacute" unicode="&#x15b;" 
d="M434 1228c145 43 377 207 496 311l117 -150c-115 -108 -405 -269 -550 -311zM367 574c-66 48 -100 111 -100 182c0 17 2 34 6 52c32 147 159 222 367 222c136 0 245 -17 344 -58l-58 -149c-69 37 -175 59 -300 59c-130 0 -191 -61 -191 -116c0 -22 9 -42 28 -58
c179 -150 424 -209 424 -402c0 -16 -2 -33 -5 -50c-43 -221 -236 -276 -459 -276c-194 0 -352 109 -352 287c0 20 2 41 6 63l157 -1c-2 -12 -3 -23 -3 -34c0 -112 114 -172 217 -172c123 0 245 49 266 159c1 4 1 9 1 13c0 96 -207 176 -348 279z" />
    <glyph glyph-name="Scircumflex" unicode="&#x15c;" 
d="M755 1765l293 -327l-117 -102l-204 231l-339 -236l-87 122zM166 358c0 -120 106 -216 295 -216c213 0 332 135 332 287c0 79 -43 132 -103 160c-106 50 -259 60 -380 120c-70 36 -128 106 -128 214c0 264 243 379 466 379c208 0 349 -45 418 -98l-99 -153
c-57 51 -159 97 -344 97c-144 0 -270 -76 -270 -189c0 -59 27 -90 70 -112c106 -56 263 -55 383 -115c82 -44 151 -133 151 -264c0 -338 -263 -477 -513 -477h-19c-291 7 -421 156 -421 328z" />
    <glyph glyph-name="scircumflex" unicode="&#x15d;" 
d="M798 1525l293 -327l-117 -102l-204 231l-339 -236l-87 122zM367 574c-66 48 -100 111 -100 182c0 17 2 34 6 52c32 147 159 222 367 222c136 0 245 -17 344 -58l-58 -149c-69 37 -175 59 -300 59c-130 0 -191 -61 -191 -116c0 -22 9 -42 28 -58
c179 -150 424 -209 424 -402c0 -16 -2 -33 -5 -50c-43 -221 -236 -276 -459 -276c-194 0 -352 109 -352 287c0 20 2 41 6 63l157 -1c-2 -12 -3 -23 -3 -34c0 -112 114 -172 217 -172c123 0 245 49 266 159c1 4 1 9 1 13c0 96 -207 176 -348 279z" />
    <glyph glyph-name="Scedilla" unicode="&#x15e;" 
d="M166 358c0 -120 106 -216 295 -216c213 0 332 135 332 287c0 79 -43 132 -103 160c-106 50 -259 60 -380 120c-70 36 -128 106 -128 214c0 264 243 379 466 379c208 0 349 -45 418 -98l-99 -153c-57 51 -159 97 -344 97c-144 0 -270 -76 -270 -189c0 -59 27 -90 70 -112
c106 -56 263 -55 383 -115c82 -44 151 -133 151 -264c0 -331 -252 -471 -497 -477c-5 -22 -12 -56 -12 -58c81 -4 127 -49 127 -126c0 -14 -2 -29 -5 -45c-20 -101 -133 -168 -217 -168c-66 0 -133 25 -182 61l59 106c30 -18 65 -42 116 -42c36 0 81 20 91 58v2c0 2 1 5 1 7
c0 26 -32 47 -76 47c-48 0 -51 -7 -81 -17l35 185c-215 38 -312 169 -312 318z" />
    <glyph glyph-name="scedilla" unicode="&#x15f;" 
d="M367 574c-66 48 -100 111 -100 182c0 17 2 34 6 52c32 147 159 222 367 222c136 0 245 -17 344 -58l-58 -149c-69 37 -175 59 -300 59c-130 0 -191 -61 -191 -116c0 -22 9 -42 28 -58c179 -150 424 -209 424 -402c0 -16 -2 -33 -5 -50c-43 -219 -233 -275 -453 -276
c-5 -21 -10 -50 -11 -52c81 -4 127 -49 127 -126c0 -14 -2 -29 -5 -45c-20 -101 -133 -168 -217 -168c-66 0 -133 25 -182 61l59 106c30 -18 65 -42 116 -42c36 0 81 20 91 58v2c0 2 1 5 1 7c0 26 -32 47 -76 47c-48 0 -51 -7 -81 -17l36 188h2c-128 38 -218 133 -218 268
c0 20 2 41 6 63l157 -1c-2 -12 -3 -23 -3 -34c0 -112 114 -172 217 -172c123 0 245 49 266 159c1 4 1 9 1 13c0 96 -207 176 -348 279z" />
    <glyph glyph-name="Scaron" unicode="&#x160;" 
d="M653 1345l-298 323l114 103l208 -227l336 241l88 -121zM166 358c0 -120 106 -216 295 -216c213 0 332 135 332 287c0 79 -43 132 -103 160c-106 50 -259 60 -380 120c-70 36 -128 106 -128 214c0 264 243 379 466 379c208 0 349 -45 418 -98l-99 -153
c-57 51 -159 97 -344 97c-144 0 -270 -76 -270 -189c0 -59 27 -90 70 -112c106 -56 263 -55 383 -115c82 -44 151 -133 151 -264c0 -338 -263 -477 -513 -477h-19c-291 7 -421 156 -421 328z" />
    <glyph glyph-name="scaron" unicode="&#x161;" 
d="M672 1060l-298 323l114 103l208 -227l336 241l88 -121zM367 574c-66 48 -100 111 -100 182c0 17 2 34 6 52c32 147 159 222 367 222c136 0 245 -17 344 -58l-58 -149c-69 37 -175 59 -300 59c-130 0 -191 -61 -191 -116c0 -22 9 -42 28 -58c179 -150 424 -209 424 -402
c0 -16 -2 -33 -5 -50c-43 -221 -236 -276 -459 -276c-194 0 -352 109 -352 287c0 20 2 41 6 63l157 -1c-2 -12 -3 -23 -3 -34c0 -112 114 -172 217 -172c123 0 245 49 266 159c1 4 1 9 1 13c0 96 -207 176 -348 279z" />
    <glyph glyph-name="Tcommaaccent" unicode="&#x162;" 
d="M326 -9l224 1153c-198 0 -288 -1 -364 -1l30 155c122 0 577 1 765 1c73 0 120 -12 137 -15l-63 -152s-60 12 -110 12h-235l-224 -1153h-11c-4 -18 -7 -35 -8 -37c81 -4 127 -49 127 -126c0 -14 -2 -29 -5 -45c-20 -101 -133 -168 -217 -168c-66 0 -133 25 -182 61l59 106
c30 -18 65 -42 116 -42c36 0 81 20 91 58v2c0 2 1 5 1 7c0 26 -32 47 -76 47c-48 0 -51 -7 -81 -17l30 154h-4z" />
    <glyph glyph-name="tcommaaccent" unicode="&#x163;" 
d="M377 474l-7 -40c-7 -34 -10 -65 -10 -92c0 -140 84 -193 208 -193c151 0 222 76 261 145l121 -93c-46 -83 -164 -206 -407 -207c-4 -18 -7 -35 -8 -37c81 -4 127 -49 127 -126c0 -14 -2 -29 -5 -45c-20 -101 -133 -168 -217 -168c-66 0 -133 25 -182 61l59 106
c30 -18 65 -42 116 -42c36 0 81 20 91 58v2c0 2 1 5 1 7c0 26 -32 47 -76 47c-48 0 -51 -7 -81 -17l34 175c-121 41 -204 140 -204 303c0 35 4 72 12 113l8 43c24 104 43 198 87 391h-79c-28 0 -57 -4 -84 -11l-19 146c26 9 99 12 132 12h80c14 70 32 164 46 234l158 -1
c-13 -66 -32 -160 -46 -228h122c145 1 299 2 299 2h18l-29 -147h-316c-46 0 -74 -3 -120 -3c-49 -204 -67 -295 -90 -395z" />
    <glyph glyph-name="Tcaron" unicode="&#x164;" 
d="M648 1351l-298 323l114 103l208 -227l336 241l88 -121zM326 -9l224 1153c-198 0 -288 -1 -364 -1l30 155c122 0 577 1 765 1c73 0 120 -12 137 -15l-63 -152s-60 12 -110 12h-235l-224 -1153h-160z" />
    <glyph glyph-name="tcaron" unicode="&#x165;" 
d="M931 1469c-38 -112 -65 -221 -110 -372l-152 34c18 142 47 283 68 386zM377 474l-7 -40c-7 -34 -10 -65 -10 -92c0 -140 84 -193 208 -193c151 0 222 76 261 145l121 -93c-46 -83 -165 -207 -410 -207c-193 0 -342 105 -342 324c0 35 4 72 12 113l8 43
c24 104 43 198 87 391h-79c-28 0 -57 -4 -84 -11l-19 146c26 9 99 12 132 12h80c14 70 32 164 46 234l158 -1c-13 -66 -32 -160 -46 -228h122c145 1 299 2 299 2h18l-29 -147h-316c-46 0 -74 -3 -120 -3c-49 -204 -67 -295 -90 -395z" />
    <glyph glyph-name="Tbar" unicode="&#x166;" 
d="M631 736h255l-29 -159h-257l-114 -586h-160l114 586h-237l29 159h239l79 408c-198 0 -288 -1 -364 -1l30 155c122 0 577 1 765 1c73 0 120 -12 137 -15l-63 -152s-60 12 -110 12h-235z" />
    <glyph glyph-name="tbar" unicode="&#x167;" 
d="M377 474l-7 -40c-7 -34 -10 -65 -10 -92c0 -140 84 -193 208 -193c151 0 222 76 261 145l121 -93c-46 -83 -165 -207 -410 -207c-193 0 -342 105 -342 324c0 35 4 72 12 113l8 43c2 10 5 20 7 30h-160l29 159h166c12 55 26 120 45 202h-79c-28 0 -57 -4 -84 -11l-19 146
c26 9 99 12 132 12h80c14 70 32 164 46 234l158 -1c-13 -66 -32 -160 -46 -228h122c145 1 299 2 299 2h18l-29 -147h-316c-46 0 -74 -3 -120 -3c-20 -85 -36 -151 -48 -206h272l-29 -159h-278c-2 -10 -5 -20 -7 -30z" />
    <glyph glyph-name="Utilde" unicode="&#x168;" 
d="M620 1681c136 0 177 -129 267 -129c85 0 141 39 172 127l153 -58c-56 -120 -166 -222 -318 -222c-162 0 -192 129 -276 129c-78 0 -134 -29 -192 -135l-150 75c106 164 210 213 344 213zM957 1313l154 -13c-21 -60 -29 -103 -39 -157c-28 -145 -50 -272 -72 -383l-12 -58
c-45 -232 -92 -454 -229 -583c-100 -95 -214 -124 -344 -129c-256 0 -345 116 -345 322c0 42 3 86 10 135c10 75 31 197 57 332c33 172 74 365 111 523h158c-36 -165 -83 -389 -119 -574c-24 -123 -43 -229 -50 -289c-3 -27 -5 -53 -5 -76c0 -155 67 -222 199 -222
c107 5 164 28 229 84c81 74 132 280 170 477c24 123 48 269 81 439c14 71 24 110 46 172z" />
    <glyph glyph-name="utilde" unicode="&#x169;" 
d="M604 1387c136 0 177 -129 267 -129c85 0 141 39 172 127l153 -58c-56 -120 -166 -222 -318 -222c-162 0 -192 129 -276 129c-78 0 -134 -29 -192 -135l-150 75c106 164 210 213 344 213zM808 -10c-39 33 -108 64 -108 192c0 32 5 70 15 116c-96 -177 -239 -297 -390 -298
c-130 0 -246 88 -246 225c0 16 2 33 5 50c46 252 144 594 144 702c0 7 0 12 -1 17l165 27v-10c0 -99 -73 -345 -141 -705c-3 -18 -5 -36 -5 -52c0 -55 21 -99 88 -99c165 0 342 302 437 536l69 337l158 -22l-151 -767c-1 -8 -2 -15 -2 -22c0 -57 38 -81 68 -110z" />
    <glyph glyph-name="Umacron" unicode="&#x16a;" 
d="M957 1590l-30 -152h-17c-58 -2 -128 -2 -202 -2s-149 0 -217 2l-17 1l30 155l18 -2c65 -2 162 -2 254 -2h164h17zM957 1313l154 -13c-21 -60 -29 -103 -39 -157c-28 -145 -50 -272 -72 -383l-12 -58c-45 -232 -92 -454 -229 -583c-100 -95 -214 -124 -344 -129
c-256 0 -345 116 -345 322c0 42 3 86 10 135c10 75 31 197 57 332c33 172 74 365 111 523h158c-36 -165 -83 -389 -119 -574c-24 -123 -43 -229 -50 -289c-3 -27 -5 -53 -5 -76c0 -155 67 -222 199 -222c107 5 164 28 229 84c81 74 132 280 170 477c24 123 48 269 81 439
c14 71 24 110 46 172z" />
    <glyph glyph-name="umacron" unicode="&#x16b;" 
d="M920 1331.6l-30 -152h-17c-58 -2 -128 -2 -202 -2s-149 0 -217 2l-17 1l30 155l18 -2c65 -2 162 -2 254 -2h164h17zM808 -10c-39 33 -108 64 -108 192c0 32 5 70 15 116c-96 -177 -239 -297 -390 -298c-130 0 -246 88 -246 225c0 16 2 33 5 50c46 252 144 594 144 702
c0 7 0 12 -1 17l165 27v-10c0 -99 -73 -345 -141 -705c-3 -18 -5 -36 -5 -52c0 -55 21 -99 88 -99c165 0 342 302 437 536l69 337l158 -22l-151 -767c-1 -8 -2 -15 -2 -22c0 -57 38 -81 68 -110z" />
    <glyph glyph-name="Ubreve" unicode="&#x16c;" 
d="M729 1529c108 0 211 74 232 152l160 -30c-58 -177 -219 -275 -422 -275c-126 0 -301 64 -305 289l164 14c4 -117 78 -150 171 -150zM957 1313l154 -13c-21 -60 -29 -103 -39 -157c-28 -145 -50 -272 -72 -383l-12 -58c-45 -232 -92 -454 -229 -583
c-100 -95 -214 -124 -344 -129c-256 0 -345 116 -345 322c0 42 3 86 10 135c10 75 31 197 57 332c33 172 74 365 111 523h158c-36 -165 -83 -389 -119 -574c-24 -123 -43 -229 -50 -289c-3 -27 -5 -53 -5 -76c0 -155 67 -222 199 -222c107 5 164 28 229 84
c81 74 132 280 170 477c24 123 48 269 81 439c14 71 24 110 46 172z" />
    <glyph glyph-name="ubreve" unicode="&#x16d;" 
d="M677 1229c108 0 211 74 232 152l160 -30c-58 -177 -219 -275 -422 -275c-126 0 -301 64 -305 289l164 14c4 -117 78 -150 171 -150zM808 -10c-39 33 -108 64 -108 192c0 32 5 70 15 116c-96 -177 -239 -297 -390 -298c-130 0 -246 88 -246 225c0 16 2 33 5 50
c46 252 144 594 144 702c0 7 0 12 -1 17l165 27v-10c0 -99 -73 -345 -141 -705c-3 -18 -5 -36 -5 -52c0 -55 21 -99 88 -99c165 0 342 302 437 536l69 337l158 -22l-151 -767c-1 -8 -2 -15 -2 -22c0 -57 38 -81 68 -110z" />
    <glyph glyph-name="Uring" unicode="&#x16e;" 
d="M622.84 1534c-1 -3 -1 -7 -1 -10c0 -32 28 -62 74 -62c51 0 92 37 99 72c1 4 1 7 1 11c0 31 -26 58 -73 58c-52 0 -93 -34 -100 -69zM492.84 1532c22 111 140 195 255 195c103 0 181 -67 181 -160c0 -11 -1 -23 -3 -35c-22 -111 -139 -195 -254 -195
c-103 0 -182 67 -182 161c0 11 1 22 3 34zM957 1313l154 -13c-21 -60 -29 -103 -39 -157c-28 -145 -50 -272 -72 -383l-12 -58c-45 -232 -92 -454 -229 -583c-100 -95 -214 -124 -344 -129c-256 0 -345 116 -345 322c0 42 3 86 10 135c10 75 31 197 57 332
c33 172 74 365 111 523h158c-36 -165 -83 -389 -119 -574c-24 -123 -43 -229 -50 -289c-3 -27 -5 -53 -5 -76c0 -155 67 -222 199 -222c107 5 164 28 229 84c81 74 132 280 170 477c24 123 48 269 81 439c14 71 24 110 46 172z" />
    <glyph glyph-name="uring" unicode="&#x16f;" 
d="M585.091 1258c-1 -3 -1 -7 -1 -10c0 -32 28 -62 74 -62c51 0 92 37 99 72c1 4 1 7 1 11c0 31 -26 58 -73 58c-52 0 -93 -34 -100 -69zM455.091 1256c22 111 140 195 255 195c103 0 181 -67 181 -160c0 -11 -1 -23 -3 -35c-22 -111 -139 -195 -254 -195
c-103 0 -182 67 -182 161c0 11 1 22 3 34zM808 -10c-39 33 -108 64 -108 192c0 32 5 70 15 116c-96 -177 -239 -297 -390 -298c-130 0 -246 88 -246 225c0 16 2 33 5 50c46 252 144 594 144 702c0 7 0 12 -1 17l165 27v-10c0 -99 -73 -345 -141 -705c-3 -18 -5 -36 -5 -52
c0 -55 21 -99 88 -99c165 0 342 302 437 536l69 337l158 -22l-151 -767c-1 -8 -2 -15 -2 -22c0 -57 38 -81 68 -110z" />
    <glyph glyph-name="Uhungarumlaut" unicode="&#x170;" 
d="M715 1437c117 95 282 299 352 440l153 -100c-65 -144 -272 -361 -389 -455zM380 1444c116 95 281 299 350 440l155 -99c-65 -144 -274 -362 -392 -456zM957 1313l154 -13c-21 -60 -29 -103 -39 -157c-28 -145 -50 -272 -72 -383l-12 -58c-45 -232 -92 -454 -229 -583
c-100 -95 -214 -124 -344 -129c-256 0 -345 116 -345 322c0 42 3 86 10 135c10 75 31 197 57 332c33 172 74 365 111 523h158c-36 -165 -83 -389 -119 -574c-24 -123 -43 -229 -50 -289c-3 -27 -5 -53 -5 -76c0 -155 67 -222 199 -222c107 5 164 28 229 84
c81 74 132 280 170 477c24 123 48 269 81 439c14 71 24 110 46 172z" />
    <glyph glyph-name="uhungarumlaut" unicode="&#x171;" 
d="M663 1179c117 95 282 299 352 440l153 -100c-65 -144 -272 -361 -389 -455zM328 1186c116 95 281 299 350 440l155 -99c-65 -144 -274 -362 -392 -456zM808 -10c-39 33 -108 64 -108 192c0 32 5 70 15 116c-96 -177 -239 -297 -390 -298c-130 0 -246 88 -246 225
c0 16 2 33 5 50c46 252 144 594 144 702c0 7 0 12 -1 17l165 27v-10c0 -99 -73 -345 -141 -705c-3 -18 -5 -36 -5 -52c0 -55 21 -99 88 -99c165 0 342 302 437 536l69 337l158 -22l-151 -767c-1 -8 -2 -15 -2 -22c0 -57 38 -81 68 -110z" />
    <glyph glyph-name="Uogonek" unicode="&#x172;" 
d="M957 1313l154 -13c-21 -60 -29 -103 -39 -157c-28 -145 -50 -272 -72 -383l-12 -58c-45 -232 -92 -454 -229 -583c-96 -99 -424 -283 -438 -357c-1 -5 -1 -10 -1 -15c0 -46 48 -69 106 -69s105 33 139 55l58 -106c-53 -48 -150 -93 -229 -93c-162 0 -233 69 -233 175
c0 17 1 34 5 53c16 84 101 159 198 230c-217 15 -294 128 -294 320c0 42 3 86 10 135c10 75 31 197 57 332c33 172 74 365 111 523h158c-36 -165 -83 -389 -119 -574c-24 -123 -43 -229 -50 -289c-3 -27 -5 -53 -5 -76c0 -155 67 -222 199 -222c107 5 164 28 229 84
c81 74 132 280 170 477c24 123 48 269 81 439c14 71 24 110 46 172z" />
    <glyph glyph-name="uogonek" unicode="&#x173;" 
d="M891 160l38 -125c-177 -78 -429 -175 -443 -249c-1 -5 -1 -10 -1 -15c0 -46 48 -69 106 -69s105 33 139 55l58 -106c-53 -48 -150 -93 -229 -93c-162 0 -233 69 -233 175c0 17 2 34 5 53c24 136 244 232 403 298c-20 20 -34 50 -34 98c0 32 5 70 15 116
c-96 -177 -239 -297 -390 -298c-130 0 -246 88 -246 225c0 16 2 33 5 50c46 252 144 594 144 702c0 7 0 12 -1 17l165 27v-10c0 -99 -73 -345 -141 -705c-3 -18 -5 -36 -5 -52c0 -55 21 -99 88 -99c165 0 342 302 437 536l69 337l158 -22l-151 -767c-1 -8 -2 -15 -2 -22
c0 -29 21 -57 46 -57z" />
    <glyph glyph-name="Wcircumflex" unicode="&#x174;" 
d="M816 1792l293 -327l-117 -102l-204 231l-339 -236l-87 122zM257 0h-131c-1 13 -1 29 -1 49c0 246 53 1005 56 1237l160 32c-5 -643 -52 -710 -68 -1020c115 230 253 588 273 659c45 0 133 0 169 12c0 -89 -3 -200 -3 -312c0 -129 3 -258 15 -357c88 285 61 324 322 1015
l151 -32c-101 -251 -372 -1105 -440 -1283h-136s-59 403 -59 595v18c-91 -225 -296 -591 -308 -613z" />
    <glyph glyph-name="wcircumflex" unicode="&#x175;" 
d="M716 1503l293 -327l-117 -102l-204 231l-339 -236l-87 122zM122 1006l158 36c18 -52 34 -127 34 -247c-1 -242 -19 -433 -61 -602c101 93 188 198 268 351c4 29 6 65 6 103c0 50 -3 103 -8 148l128 2c11 -125 16 -255 16 -377c0 -98 -4 -191 -10 -273
c95 115 256 297 256 630c0 75 -29 166 -58 219l154 52c50 -99 58 -201 58 -270c0 -384 -251 -650 -401 -787c-11 0 -146 15 -157 15c16 101 29 161 30 325c-60 -88 -154 -183 -322 -352c-24 8 -98 38 -126 40c26 142 71 493 71 718c0 86 -15 212 -36 269z" />
    <glyph glyph-name="Ycircumflex" unicode="&#x176;" 
d="M799 1816l293 -327l-117 -102l-204 231l-339 -236l-87 122zM296 42l270 482c-57 111 -334 627 -364 733l154 57c36 -90 234 -475 310 -621c47 112 287 542 319 646l150 -59c-225 -465 -461 -894 -690 -1312z" />
    <glyph glyph-name="ycircumflex" unicode="&#x177;" 
d="M732 1518l293 -327l-117 -102l-204 231l-339 -236l-87 122zM-2 -110c24 -31 105 -113 179 -113c97 0 182 137 234 223c-28 302 -111 845 -232 862c-4 0 -7 1 -11 1c-21 0 -39 -7 -40 -8l-13 168c32 4 56 6 77 6c26 0 46 -3 71 -9c159 -41 252 -542 285 -837
c116 223 280 632 351 859l152 -42c-87 -253 -252 -707 -453 -1027c-156 -248 -279 -349 -438 -349c-125 0 -227 98 -267 148z" />
    <glyph glyph-name="Ydieresis" unicode="&#x178;" 
d="M478 1631l234 -3l-44 -225l-234 3zM883 1628l234 -3l-43 -225l-235 3zM296 42l270 482c-57 111 -334 627 -364 733l154 57c36 -90 234 -475 310 -621c47 112 287 542 319 646l150 -59c-225 -465 -461 -894 -690 -1312z" />
    <glyph glyph-name="Zacute" unicode="&#x179;" 
d="M472 1490c145 43 377 207 496 311l117 -150c-115 -108 -405 -269 -550 -311zM47 -5l-78 88l935 1067c-214 0 -553 -5 -667 -5l-1 153c120 0 572 4 760 4c75 0 119 -13 137 -16c-9 -33 -37 -114 -45 -137l-871 -998l487 -1c85 0 128 4 172 27l50 -133
c-45 -33 -118 -47 -193 -47h-243c-212 0 -388 -2 -436 -2h-7z" />
    <glyph glyph-name="zacute" unicode="&#x17a;" 
d="M434 1197c145 43 377 207 496 311l117 -150c-115 -108 -405 -269 -550 -311zM289 801l-94 124c104 89 196 95 298 95h299c50 0 155 1 217 10l66 -144c-183 -206 -315 -309 -497 -454c-77 -61 -163 -130 -265 -217c146 0 231 -65 316 -65c100 0 154 68 164 150l152 -28
c-16 -128 -108 -277 -304 -277c-143 1 -212 66 -354 66c-105 0 -150 -40 -227 -95l-93 128c256 245 423 376 574 498c106 85 203 165 317 275c-26 -2 -53 -3 -81 -3c-97 0 -201 -1 -296 -1c-61 0 -131 -4 -192 -62z" />
    <glyph glyph-name="Zdotaccent" unicode="&#x17b;" 
d="M653 1644l235 -3l-43 -225l-236 3zM47 -5l-78 88l935 1067c-214 0 -553 -5 -667 -5l-1 153c120 0 572 4 760 4c75 0 119 -13 137 -16c-9 -33 -37 -114 -45 -137l-871 -998l487 -1c85 0 128 4 172 27l50 -133c-45 -33 -118 -47 -193 -47h-243c-212 0 -388 -2 -436 -2h-7z
" />
    <glyph glyph-name="zdotaccent" unicode="&#x17c;" 
d="M662.589 1403.5l235 -3l-43 -225l-236 3zM289 801l-94 124c104 89 196 95 298 95h299c50 0 155 1 217 10l66 -144c-183 -206 -315 -309 -497 -454c-77 -61 -163 -130 -265 -217c146 0 231 -65 316 -65c100 0 154 68 164 150l152 -28c-16 -128 -108 -277 -304 -277
c-143 1 -212 66 -354 66c-105 0 -150 -40 -227 -95l-93 128c256 245 423 376 574 498c106 85 203 165 317 275c-26 -2 -53 -3 -81 -3c-97 0 -201 -1 -296 -1c-61 0 -131 -4 -192 -62z" />
    <glyph glyph-name="Zcaron" unicode="&#x17d;" 
d="M684 1366l-298 323l114 103l208 -227l336 241l88 -121zM47 -5l-78 88l935 1067c-214 0 -553 -5 -667 -5l-1 153c120 0 572 4 760 4c75 0 119 -13 137 -16c-9 -33 -37 -114 -45 -137l-871 -998l487 -1c85 0 128 4 172 27l50 -133c-45 -33 -118 -47 -193 -47h-243
c-212 0 -388 -2 -436 -2h-7z" />
    <glyph glyph-name="zcaron" unicode="&#x17e;" 
d="M676 1075l-298 323l114 103l208 -227l336 241l88 -121zM289 801l-94 124c104 89 196 95 298 95h299c50 0 155 1 217 10l66 -144c-183 -206 -315 -309 -497 -454c-77 -61 -163 -130 -265 -217c146 0 231 -65 316 -65c100 0 154 68 164 150l152 -28
c-16 -128 -108 -277 -304 -277c-143 1 -212 66 -354 66c-105 0 -150 -40 -227 -95l-93 128c256 245 423 376 574 498c106 85 203 165 317 275c-26 -2 -53 -3 -81 -3c-97 0 -201 -1 -296 -1c-61 0 -131 -4 -192 -62z" />
    <glyph glyph-name="longs" unicode="&#x17f;" 
d="M1036 1256c-40 8 -108 10 -179 10c-148 0 -175 -98 -196 -206l-9 -47c-30 -154 -194 -1009 -195 -1013h-156c5 25 136 712 163 859h-224l30 153h226c3 16 4 33 8 52c28 143 97 354 375 354c76 0 157 -3 215 -14z" />
    <glyph glyph-name="Euro" unicode="&#x20ac;" 
d="M870 833l-80 -151h-12c-57 -2 -90 -6 -166 -6h-242c-5 -23 -11 -45 -15 -67c-2 -8 -2 -16 -4 -25c30 -1 47 -1 85 -1c86 0 187 1 276 2h26l-81 -150l-322 -4c0 -9 -1 -17 -1 -26c0 -164 72 -281 182 -281h19c99 0 190 57 259 163l114 -87c-108 -174 -269 -231 -408 -231
c-79 0 -192 34 -255 144c-45 77 -68 176 -68 286c0 11 1 22 1 33c-29 1 -53 1 -78 1c-19 0 -38 0 -63 -1l-24 -1l11 25c15 37 44 69 72 116l6 11h11c42 1 67 1 86 1c3 17 6 33 9 48s5 30 9 44c-63 1 -105 1 -134 3l-25 2l15 26c26 46 54 83 73 114l7 12l12 -1
c17 -1 52 -2 98 -3c41 113 86 197 135 273c117 179 287 241 386 241c108 0 202 -56 274 -159l-101 -185c-34 103 -107 181 -208 181c-132 0 -257 -157 -332 -353h109h188c52 2 88 4 130 5z" />
    <glyph glyph-name="uniE000" unicode="&#xe000;" 
d="M76 491c59 112 122 153 186 153c104 0 199 -100 257 -100c23 0 47 16 70 80l9 26l104 -104l-7 -14c-55 -102 -115 -142 -176 -142c-104 0 -192 96 -250 96c-27 0 -50 -11 -75 -77l-8 -22l-119 88z" />
    <glyph glyph-name="uniE001" unicode="&#xe001;" 
d="M406 -11c-131 6 -187 165 -187 310v4c0 77 17 158 52 221c58 104 132 137 201 140h8c36 0 65 -12 84 -23c-9 165 -18 253 -102 253c-59 0 -66 -34 -122 -167l-8 -18l-104 61l6 17c55 176 130 254 228 257c41 0 99 -19 140 -77c42 -60 80 -162 80 -304v-434
c3 -74 8 -72 27 -96c1 -2 5 -5 8 -7c10 6 16 23 22 43c32 98 35 217 35 346c0 385 -139 676 -318 676c-178 0 -310 -290 -310 -676s140 -677 310 -677c60 0 118 33 168 90l12 15l77 -96l-11 -13c-63 -73 -160 -146 -246 -146c-247 0 -433 380 -433 827s186 828 433 828
s432 -381 432 -828c0 -151 -22 -293 -58 -417c-9 -27 -41 -124 -108 -124h-3h-2l-1 1c-19 5 -48 16 -68 41h-1c-12 18 -38 43 -51 94c-23 -30 -43 -45 -72 -72c-32 -27 -73 -49 -118 -49zM405 141c26 0 54 14 71 29c65 59 78 129 89 164c0 33 -1 99 -1 118
c-31 43 -61 61 -92 61h-3c-55 -2 -121 -98 -121 -203v-5c3 -104 34 -164 57 -164z" />
    <glyph glyph-name="uniE002" unicode="&#xe002;" 
d="M800 703v-37v-435c3 -72 22 -105 54 -133l17 -15l-95 -79l-11 16c-13 19 -38 43 -51 93c-23 -30 -43 -45 -72 -72c-32 -27 -72 -50 -118 -50c-135 7 -209 242 -209 387v3v41c0 74 4 178 53 289c50 112 135 140 203 143h6c43 0 81 -19 103 -33c-2 33 -3 61 -5 82
c-9 128 -20 295 -166 295c-157 0 -296 -293 -296 -680c0 -386 140 -678 310 -678c60 0 118 34 168 91l12 15l76 -96l-10 -13c-63 -73 -160 -147 -246 -147c-247 0 -433 381 -433 828c0 446 172 833 419 833c265 0 291 -355 291 -648zM524 144c26 0 53 14 70 29
c65 59 78 128 89 163v285c-32 44 -87 81 -116 81c-100 0 -123 -204 -123 -327v-15c3 -104 59 -216 80 -216z" />
    <glyph glyph-name="gravecomb" unicode="&#x300;" 
d="M993 1403l-107 -123c-124 86 -313 286 -387 426l160 104c80 -136 210 -321 334 -407z" />
    <glyph glyph-name="acutecomb" unicode="&#x301;" 
d="M426 1430c145 43 377 207 496 311l117 -150c-115 -108 -405 -269 -550 -311z" />
    <glyph glyph-name="uni0302" unicode="&#x302;" 
d="M793 1699l293 -327l-117 -102l-204 231l-339 -236l-87 122z" />
    <glyph glyph-name="tildecomb" unicode="&#x303;" 
d="M599 1694c136 0 177 -129 267 -129c85 0 141 39 172 127l153 -58c-56 -120 -166 -222 -318 -222c-162 0 -192 129 -276 129c-78 0 -134 -29 -192 -135l-150 75c106 164 210 213 344 213z" />
    <glyph glyph-name="uni0304" unicode="&#x304;" 
d="M951 1625l-30 -152h-17c-58 -2 -128 -2 -202 -2s-149 0 -217 2l-17 1l30 155l18 -2c65 -2 162 -2 254 -2h164h17z" />
    <glyph glyph-name="uni0305" unicode="&#x305;" 
d="M1102 1625l-30 -152h-774l30 155z" />
    <glyph glyph-name="uni0306" unicode="&#x306;" 
d="M729 1510c108 0 211 74 232 152l160 -30c-58 -177 -219 -275 -422 -275c-126 0 -301 64 -305 289l164 14c4 -117 78 -150 171 -150z" />
    <glyph glyph-name="uni0308" unicode="&#x308;" 
d="M826 1638l235 -3l-44 -225l-234 3zM421 1641l234 -3l-43 -225l-235 3z" />
    <glyph glyph-name="uni0307" unicode="&#x307;" 
d="M580 1651l235 -3l-43 -225l-236 3z" />
    <glyph glyph-name="uni030A" unicode="&#x30a;" 
d="M745 1543c-55 0 -97 -35 -104 -70c-1 -3 -1 -7 -1 -10c0 -31 29 -61 78 -61c54 0 97 36 104 71c1 3 1 7 1 10c0 31 -28 60 -78 60zM503 1473c22 111 144 195 267 195c110 0 194 -68 194 -162c0 -11 -1 -22 -3 -33c-21 -110 -132 -187 -265 -187c-114 0 -196 63 -196 155
c0 10 1 21 3 32z" />
    <glyph glyph-name="uni0237" unicode="&#x237;" 
d="M859 748l-174 -866c-28 -145 -113 -269 -351 -269c-123 0 -263 22 -349 227l145 98c68 -162 150 -169 213 -169h17c112 0 161 82 170 117l176 876c2 12 4 28 4 45c0 40 -11 84 -54 85h-3c-49 0 -114 -1 -234 -111l-97 133c135 89 201 127 336 127c176 0 208 -98 208 -206
c0 -25 -2 -63 -7 -87z" />
    <glyph glyph-name="uni030B" unicode="&#x30b;" 
d="M617 1273c117 95 282 299 352 440l153 -100c-65 -144 -272 -361 -389 -455zM282 1280c116 95 281 299 350 440l155 -99c-65 -144 -274 -362 -392 -456z" />
    <glyph glyph-name="uni030C" unicode="&#x30c;" 
d="M685 1220l-298 323l114 103l208 -227l336 241l88 -121z" />
    <glyph glyph-name="uni030F" unicode="&#x30f;" 
d="M1062 1246l-143 -78c-86 123 -191 322 -213 478l177 50c26 -155 94 -326 179 -450zM738 1240l-142 -78c-86 124 -191 322 -212 478l176 50c27 -155 94 -325 178 -450z" />
    <glyph glyph-name="hookabovecomb" unicode="&#x309;" 
d="M736 953l-145 4l37 188c26 -10 26 -17 74 -17s91 25 97 54v2v6c0 34 -35 52 -69 52c-51 0 -96 -24 -132 -42l-17 106c63 36 140 61 206 61c76 0 154 -54 154 -139c0 -9 -1 -19 -3 -29c-20 -104 -90 -166 -188 -171c-1 -3 -13 -67 -14 -75z" />
    <glyph glyph-name="uni030D" unicode="&#x30d;" 
d="M664 1628h160l-68 -348h-159z" />
    <glyph glyph-name="uni030E" unicode="&#x30e;" 
d="M1144.45 1628h160l-135.644 -348h-159zM880.45 1628h160l-135.644 -348h-159z" />
    <glyph glyph-name="uni0191" unicode="&#x191;" 
d="M-74 -80c99 0 199 79 218 178l233 1201l601 -1c76 -3 122 -18 153 -35l-85 -146c-23 14 -42 27 -140 28h-70c-104 0 -151 0 -334 -1l-63 -328c120 0 104 2 226 2c88 0 144 -14 145 -14l17 -5l-64 -145c-35 9 -85 14 -130 14h-93c-36 0 -66 0 -131 -2
c-24 -121 -88 -482 -106 -575c-37 -192 -182 -331 -401 -336z" />
    <glyph glyph-name="florin" unicode="&#x192;" 
d="M443 152c-50 -257 -111 -465 -492 -465l26 154c173 0 259 66 308 311c5 25 109 568 136 715h-132l6 153h156c3 16 4 25 8 44c28 143 97 354 374 354c87 0 199 -8 330 -85l-86 -139c-108 68 -163 72 -266 72c-147 0 -175 -98 -196 -206l-8 -39c68 0 87 -1 160 -1
c103 -3 128 -11 156 -20l-40 -147c-20 7 -50 14 -106 14h-200c-29 -154 -133 -711 -134 -715z" />
    <glyph glyph-name="alpha" unicode="&#x3b1;" 
d="M257 527c-11 -59 -16 -109 -16 -151c0 -221 135 -226 150 -226h13c85 0 191 166 293 362c-25 251 -63 353 -180 353c-78 0 -214 -99 -260 -338zM831 464c9 -77 18 -164 31 -261c8 -58 44 -80 98 -95l-95 -140c-122 32 -143 152 -149 212c-3 23 -5 46 -8 68
c-94 -148 -199 -255 -330 -255c-222 0 -299 158 -299 353c0 58 7 119 19 181c71 367 285 491 460 491c165 0 218 -78 252 -275c50 99 102 198 156 291l132 -70c-89 -126 -182 -332 -267 -500z" />
    <glyph glyph-name="beta" unicode="&#x3b2;" 
d="M554 153c122 0 212 108 238 242c5 27 8 51 8 73c0 191 -194 201 -452 201l30 153c165 0 307 0 343 183c3 15 4 29 4 42c0 85 -62 129 -181 129c-96 -1 -176 -93 -193 -183c-19 -100 -72 -384 -118 -626c63 -175 152 -214 321 -214zM185 112c-6 -29 -10 -53 -14 -73
c-24 -124 -50 -242 -77 -339l-148 17c29 100 53 209 75 320c36 187 145 792 179 966c30 156 174 325 373 325c179 0 311 -73 311 -242c0 -23 -3 -48 -8 -75c-20 -102 -64 -179 -130 -232c136 -40 209 -134 209 -285c0 -35 -4 -72 -12 -113c-41 -210 -167 -379 -419 -381h-7
c-154 0 -256 39 -332 112z" />
    <glyph glyph-name="gamma" unicode="&#x3b3;" 
d="M343 -376c20 104 65 350 65 436v8c-9 247 -88 559 -151 716c-24 59 -54 89 -65 96c-13 9 -34 9 -59 9c-5 0 -10 -1 -15 -1l29 153c33 0 72 -1 99 -5c61 -10 102 -60 144 -153c67 -152 122 -395 153 -596c116 217 398 773 398 773l143 -56s-345 -616 -513 -988
c-10 -82 -29 -190 -52 -306c-6 -29 -11 -59 -17 -88z" />
    <glyph glyph-name="delta" unicode="&#x3b4;" 
d="M409 -7h-2c-209 0 -334 134 -334 336c0 269 123 446 340 550c-87 47 -162 101 -162 214c0 188 171 286 414 286c124 0 258 -28 373 -57l-69 -158c-126 37 -243 63 -339 63c-89 0 -211 -46 -211 -120c0 -23 16 -40 36 -57c193 -142 478 -207 478 -486
c0 -304 -199 -571 -524 -571zM584 786c-163 -36 -349 -186 -349 -418c0 -134 68 -220 204 -220c200 3 333 229 333 396c0 105 -69 185 -188 242z" />
    <glyph glyph-name="epsilon" unicode="&#x3b5;" 
d="M879 131c-81 -53 -240 -135 -463 -135c-182 0 -256 35 -320 94c-43 40 -56 91 -56 140c0 25 4 49 8 71c25 130 113 247 272 283c-135 9 -182 79 -182 160c0 15 1 30 4 45c28 146 184 235 494 235h14c232 0 294 -52 310 -64l-94 -130c-21 15 -112 41 -258 41
c-204 0 -299 -25 -311 -88c-1 -4 -1 -8 -1 -12c0 -102 263 -110 370 -110h5h18l-29 -152c-26 0 -52 1 -78 1c-63 0 -126 -4 -205 -32c-119 -41 -160 -112 -173 -179c-2 -9 -2 -17 -2 -25c0 -78 81 -124 245 -124c168 0 310 56 370 102z" />
    <glyph glyph-name="zeta" unicode="&#x3b6;" 
d="M340 1428c32 -42 71 -76 152 -76c165 0 436 6 570 24l35 -158c-179 -198 -762 -347 -838 -738c-9 -45 -13 -85 -13 -120c0 -142 69 -210 189 -210c3 0 120 1 123 1c157 0 270 -48 270 -170c0 -14 -2 -30 -5 -47c-40 -208 -264 -230 -356 -240l2 138c87 13 184 29 196 91
c2 8 2 15 2 22c0 52 -48 55 -126 55h-20h-163c-163 0 -271 117 -271 336c0 50 6 107 18 168c69 357 460 523 738 696c-131 -7 -235 -9 -362 -9c-115 0 -208 27 -269 109z" />
    <glyph glyph-name="eta" unicode="&#x3b7;" 
d="M371 900c123 79 247 122 357 122c111 0 249 -65 249 -190c0 -11 -2 -24 -4 -36l-170 -875c-10 -51 -21 -146 -21 -208c0 -18 1 -32 3 -43l-164 -32c-1 22 -2 43 -2 65c0 57 5 118 23 211l166 851c1 6 2 12 2 17c0 62 -71 90 -133 90c-63 0 -190 -52 -338 -139l-143 -733
l-158 -1l137 706c23 118 30 170 30 218c0 25 -2 48 -4 80l167 37c3 -15 5 -46 5 -80c0 -20 -1 -42 -2 -60z" />
    <glyph glyph-name="theta" unicode="&#x3b8;" 
d="M261 247c36 -65 93 -110 201 -110c116 0 204 87 265 170c46 56 97 177 124 278c-43 7 -98 10 -164 10c-122 0 -279 -10 -449 -19c-6 -41 -10 -88 -10 -136c0 -76 10 -152 33 -193zM704 1323c94 0 341 -65 341 -454c0 -68 -8 -147 -25 -237l-2 -11
c-32 -164 -104 -297 -170 -390c-103 -144 -251 -247 -416 -247c-122 0 -237 48 -299 148c-46 73 -69 173 -69 284c0 55 5 114 17 174c54 277 180 469 268 564c83 90 213 169 355 169zM880 745c4 34 6 69 6 104c0 60 -6 117 -21 165c-36 114 -114 156 -186 156
c-78 0 -145 -32 -218 -108c-68 -70 -138 -183 -186 -330c222 15 367 21 463 21c68 0 113 -3 142 -8z" />
    <glyph glyph-name="iota" unicode="&#x3b9;" 
d="M539 1013h120c-53 -273 -146 -754 -146 -754c-4 -21 -6 -40 -6 -55c0 -69 42 -80 117 -80c93 0 197 61 269 175l99 -78c-99 -150 -210 -239 -394 -239c-85 0 -159 14 -198 38c-45 28 -57 85 -57 139c0 37 6 72 10 96l117 602c-49 0 -165 -6 -264 -28l-1 142
c117 26 230 42 334 42z" />
    <glyph glyph-name="kappa" unicode="&#x3ba;" 
d="M601 605c85 -127 293 -420 318 -555l-149 -76c-25 109 -210 390 -302 527c0 0 -138 -102 -208 -177l-63 -324h-156l198 1020h156l-91 -470c111 92 232 175 357 269c242 178 326 211 353 230l72 -129c-216 -116 -406 -247 -485 -315z" />
    <glyph glyph-name="lambda" unicode="&#x3bb;" 
d="M103 -17l-124 99c117 104 486 686 654 937c3 37 5 72 5 103c0 86 -29 144 -81 144s-98 -48 -110 -112h-156c25 129 111 267 271 267c149 0 211 -78 221 -205c10 -137 1 -687 19 -949c5 -68 12 -111 38 -111s65 41 65 41l80 -110c-72 -65 -93 -87 -179 -87
c-79 0 -133 60 -143 160c-18 182 -21 472 -21 600c-189 -284 -305 -487 -539 -777z" />
    <glyph glyph-name="mu" unicode="&#x3bc;" 
d="M829 -10c-49 41 -95 82 -100 168c-101 -86 -211 -153 -362 -156h-9c-48 0 -110 0 -160 20l-85 -422h-157l125 614c46 253 129 649 129 763c0 7 0 12 -1 17l165 27v-9c0 -102 -63 -407 -130 -762v-3c0 -32 17 -57 35 -73c12 -10 61 -18 102 -18c68 3 110 11 167 42
c52 28 128 58 183 146l129 657h158l-150 -762c-1 -5 -1 -10 -1 -14c0 -47 36 -89 67 -118z" />
    <glyph glyph-name="nu" unicode="&#x3bd;" 
d="M287 1048c55 -75 70 -113 81 -188c19 -117 88 -546 88 -687c0 -10 -2 -1 -3 -8c256 64 413 422 413 662c0 60 -8 91 -35 139l169 83c21 -50 33 -99 33 -162c0 -372 -153 -626 -305 -749c-78 -63 -191 -138 -432 -141c3 18 5 42 5 71c0 201 -76 636 -104 771
c-4 21 -37 88 -58 113z" />
    <glyph glyph-name="xi" unicode="&#x3be;" 
d="M342 1428c32 -42 71 -76 152 -76c165 0 315 6 450 24l36 -158c-95 -74 -405 -122 -431 -254c-1 -5 -1 -10 -1 -15c0 -81 142 -100 284 -100l-30 -154c-276 -66 -531 -148 -579 -394c-3 -13 -4 -25 -4 -36c0 -90 82 -115 216 -115c3 0 120 1 123 1c157 0 270 -48 270 -170
c0 -14 -2 -30 -5 -47c-40 -208 -271 -244 -363 -254l10 153c87 13 183 28 195 90c2 8 2 15 2 22c0 52 -48 55 -126 55h-20h-163c-173 0 -301 43 -301 224c0 30 4 63 11 101c49 252 297 396 420 432c-35 10 -119 29 -119 147c0 18 2 40 7 63c30 155 177 195 319 245
c-62 -9 -116 -21 -212 -21c-115 0 -208 27 -269 109z" />
    <glyph glyph-name="omicron" unicode="&#x3bf;" 
d="M407 1c-225 1 -334 126 -334 328c0 42 5 87 14 135c57 292 213 568 505 568c197 0 294 -69 338 -201c13 -39 18 -86 18 -136c0 -51 -5 -103 -15 -152c-55 -285 -202 -542 -524 -542h-2zM621 215c77 61 121 167 150 315c1 6 3 12 4 18c7 40 12 79 12 114
c0 127 -53 216 -191 216c-208 0 -303 -165 -350 -409c-7 -36 -11 -70 -11 -101c0 -134 68 -212 204 -212c76 1 124 17 182 59z" />
    <glyph glyph-name="pi" unicode="&#x3c0;" 
d="M889 1020c106 0 153 22 193 64l84 -119c-95 -88 -176 -102 -274 -105l-119 -615c-3 -17 -5 -31 -5 -43c0 -58 35 -61 67 -61c45 0 74 10 106 39l57 -114c-62 -56 -131 -74 -200 -74c-110 0 -189 57 -189 188c0 25 3 52 9 82l116 598h-277l-59 -306
c-56 -286 -155 -505 -180 -562l-158 20c31 68 121 252 178 546l58 295c-36 0 -87 -3 -133 -23l-5 168c46 16 104 22 165 22h566z" />
    <glyph glyph-name="rho" unicode="&#x3c1;" 
d="M173 562c57 292 248 470 486 470c197 0 294 -69 338 -201c13 -39 18 -86 18 -136c0 -51 -5 -103 -15 -152c-55 -285 -179 -543 -501 -543h-2c-137 0 -215 87 -247 175l-44 -250c-12 -64 -17 -127 -17 -182c0 -58 5 -108 12 -139l-163 -42c-7 27 -11 74 -11 130
c0 72 7 159 22 238zM838 530c1 6 3 12 4 18c7 40 12 79 12 114c0 127 -53 216 -191 216c-143 0 -287 -85 -334 -329c-6 -33 -9 -65 -9 -95c0 -173 98 -298 221 -298c177 2 258 173 297 374z" />
    <glyph glyph-name="sigma1" unicode="&#x3c2;" 
d="M257 527c-10 -54 -15 -101 -15 -140c0 -236 164 -233 220 -237c232 -19 366 -61 366 -196c0 -15 -2 -31 -5 -49c-19 -96 -98 -248 -364 -256l7 152c117 14 187 31 200 100c1 3 1 5 1 7c0 60 -151 76 -231 85c-244 25 -357 136 -357 357c0 53 6 111 19 177
c71 367 274 491 589 491c95 0 164 -24 215 -70c52 -47 71 -107 83 -159l-165 -60c-3 41 -14 136 -174 136c-221 0 -343 -99 -389 -338z" />
    <glyph glyph-name="sigma" unicode="&#x3c3;" 
d="M891 872c23 -31 30 -184 30 -238c0 -368 -191 -633 -512 -633h-2c-225 1 -334 126 -334 328c0 42 5 87 14 135c57 292 216 555 570 558c17 0 76 1 148 1c127 0 294 -2 343 -11l-50 -153c-44 7 -125 11 -207 13zM720 874h-22h-41c-256 0 -364 -161 -411 -405
c-7 -36 -11 -70 -11 -101c0 -134 68 -212 204 -212c199 0 321 214 321 469c0 62 -10 213 -40 249z" />
    <glyph glyph-name="tau" unicode="&#x3c4;" 
d="M683 1020h122h139h147h18l-28 -147l-304 2h-121c-49 -204 -73 -335 -96 -435l-8 -40c-13 -65 -21 -114 -21 -151c0 -73 33 -97 129 -97c70 0 128 58 171 134l120 -58c-31 -56 -123 -231 -320 -231c-194 0 -262 61 -262 209c0 52 8 115 23 191l9 43c24 104 50 243 94 436
c-20 -1 -134 -2 -134 -2c-70 -1 -135 -35 -191 -67l-44 126c59 44 162 86 258 86z" />
    <glyph glyph-name="upsilon" unicode="&#x3c5;" 
d="M110 366c12 60 24 123 36 183c36 182 66 351 66 431c0 10 0 18 -1 25l165 27v-10c0 -78 -32 -253 -70 -449c-11 -56 -22 -114 -33 -171c-7 -37 -11 -69 -11 -97c0 -108 54 -153 160 -153c58 0 176 41 248 121c111 125 142 227 188 465c9 43 13 90 13 133
c0 49 -6 94 -15 131l168 44c7 -30 10 -68 10 -107c0 -69 -9 -143 -17 -185c-1 -4 -1 -8 -2 -12c-2 -12 -5 -25 -7 -37c-37 -191 -83 -402 -291 -582c-76 -66 -208 -127 -371 -127c-162 0 -245 120 -245 276c0 30 3 62 9 94z" />
    <glyph glyph-name="phi" unicode="&#x3c6;" 
d="M531 145c83 20 148 73 197 139c52 64 112 233 134 340l4 19c10 52 16 96 16 132c0 80 -29 119 -106 119h-1c-27 0 -101 -1 -149 -250c-28 -142 -62 -326 -95 -499zM502 -11c-38 -204 -67 -366 -70 -387l-162 2c2 21 34 185 73 388c-89 17 -168 60 -214 135
c-46 73 -69 165 -69 272c0 53 5 110 17 170c44 228 130 394 239 475l108 -90c-97 -84 -153 -189 -190 -381c-8 -42 -13 -93 -13 -143c0 -73 10 -145 35 -188c25 -45 62 -78 118 -94l95 492c61 315 189 400 333 400c114 0 237 -20 237 -236c0 -47 -6 -104 -19 -172l-2 -11
c-32 -164 -106 -317 -172 -410c-88 -123 -208 -202 -344 -222z" />
    <glyph glyph-name="chi" unicode="&#x3c7;" 
d="M412 316c-32 261 -60 372 -114 480c-42 84 -102 92 -180 92l29 153c147 0 213 -9 286 -128c79 -129 123 -444 123 -444c132 201 385 591 385 591l143 -56s-248 -403 -474 -736c9 -173 89 -510 164 -510c31 0 49 28 59 40l109 -80c-25 -42 -81 -116 -183 -116
c-218 0 -269 401 -288 521l-340 -533l-163 72z" />
    <glyph glyph-name="psi" unicode="&#x3c8;" 
d="M68 366c12 60 24 123 36 183c36 182 66 351 66 431c0 10 0 18 -1 25l165 27v-10c0 -78 -32 -253 -70 -449c-11 -56 -22 -114 -33 -171c-5 -28 -8 -54 -8 -77c0 -109 59 -161 160 -171c56 284 110 539 155 773l18 93h160l-28 -145c-46 -236 -88 -444 -140 -707
c70 19 128 54 174 105c111 125 142 227 188 465c9 43 13 90 13 133c0 49 -6 94 -15 131l168 44c7 -30 10 -68 10 -107c0 -69 -9 -143 -17 -185c-1 -4 -1 -8 -2 -12c-2 -12 -5 -25 -7 -37c-37 -191 -83 -402 -291 -582c-55 -48 -123 -94 -252 -115l-26 -132
c-22 -115 -34 -171 -59 -272l-161 1c16 62 25 105 36 160c9 47 19 103 36 189c3 14 5 28 8 42h-5c-188 0 -286 125 -286 286c0 27 2 55 8 84z" />
    <glyph glyph-name="omega" unicode="&#x3c9;" 
d="M492 684l163 19c-19 -85 -36 -179 -55 -272c-1 -8 -2 -17 -4 -26c-8 -46 -13 -87 -13 -120c0 -97 35 -141 95 -141c89 0 142 126 171 276c21 109 34 214 34 309c0 91 -12 173 -41 238l165 66c30 -74 40 -164 40 -253c0 -128 -21 -256 -37 -339
c-43 -223 -141 -453 -386 -453c-75 0 -134 45 -167 116c-64 -70 -141 -114 -217 -114c-162 0 -214 119 -214 269c0 59 8 122 20 185c33 168 86 414 232 597l140 -66c-106 -127 -165 -300 -205 -507c-12 -64 -20 -125 -20 -177c0 -86 20 -146 70 -146c70 0 125 51 162 176
c2 16 5 31 8 47c20 106 42 216 59 316z" />
    <glyph glyph-name="iotadieresis" unicode="&#x3ca;" 
d="M338 1407.2l234 -3l-44 -225l-234 3zM743 1404.2l234 -3l-43 -225l-235 3zM539 1013h120c-53 -273 -146 -754 -146 -754c-4 -21 -6 -40 -6 -55c0 -69 42 -80 117 -80c93 0 197 61 269 175l99 -78c-99 -150 -210 -239 -394 -239c-85 0 -159 14 -198 38
c-45 28 -57 85 -57 139c0 37 6 72 10 96l117 602c-49 0 -165 -6 -264 -28l-1 142c117 26 230 42 334 42z" />
    <glyph glyph-name="upsilondieresis" unicode="&#x3cb;" 
d="M369 1408l234 -3l-44 -225l-234 3zM774 1405l234 -3l-43 -225l-235 3zM110 366c12 60 24 123 36 183c36 182 66 351 66 431c0 10 0 18 -1 25l165 27v-10c0 -78 -32 -253 -70 -449c-11 -56 -22 -114 -33 -171c-7 -37 -11 -69 -11 -97c0 -108 54 -153 160 -153
c58 0 176 41 248 121c111 125 142 227 188 465c9 43 13 90 13 133c0 49 -6 94 -15 131l168 44c7 -30 10 -68 10 -107c0 -69 -9 -143 -17 -185c-1 -4 -1 -8 -2 -12c-2 -12 -5 -25 -7 -37c-37 -191 -83 -402 -291 -582c-76 -66 -208 -127 -371 -127c-162 0 -245 120 -245 276
c0 30 3 62 9 94z" />
    <glyph glyph-name="Alpha" unicode="&#x391;" 
d="M638 1298h112l174 -1287l-170 -30l-32 345c-142 -3 -336 -2 -452 -29l-165 -321l-157 24zM697 490l-64 492l-273 -512c63 13 113 15 197 19z" />
    <glyph glyph-name="Beta" unicode="&#x392;" 
d="M745 578c-61 61 -120 71 -215 71c-49 0 -107 -2 -180 -2h-44c-48 -237 -84 -418 -100 -494c108 0 146 -7 221 -7c40 0 76 2 112 7c109 13 221 112 249 256c4 20 6 38 6 55c0 48 -16 82 -49 114zM709 992c2 12 3 23 3 33c0 89 -83 125 -206 125h-17c-39 0 -55 -2 -86 -5
c-4 -37 -12 -81 -21 -128c-13 -67 -30 -140 -44 -214c147 3 195 -4 296 51c30 16 62 71 73 130zM182 823c34 173 62 335 78 462c82 6 132 14 245 14h18c186 0 351 -66 351 -237c0 -19 -2 -39 -6 -60c-19 -96 -60 -179 -132 -235c124 -45 215 -148 215 -296
c0 -25 -3 -51 -8 -78c-44 -225 -220 -370 -391 -390c-40 -5 -82 -8 -121 -8c-85 0 -173 8 -281 8h-136c38 194 87 404 168 820z" />
    <glyph glyph-name="Gamma" unicode="&#x393;" 
d="M289 1301h684c75 0 110 -14 154 -30l-69 -146c-41 15 -59 19 -117 22h-521l-223 -1147h-161z" />
    <glyph glyph-name="Epsilon" unicode="&#x395;" 
d="M278 1293c57 4 127 4 205 4h98h110c149 0 285 -3 359 -3h16l-30 -150h-629l-63 -328h438l-30 -150h-438l-5 -30c-39 -203 -83 -412 -98 -489l525 2c56 0 122 26 122 26l15 -148c-51 -13 -89 -30 -165 -30h-682z" />
    <glyph glyph-name="Zeta" unicode="&#x396;" 
d="M47 -5l-78 88l935 1067c-214 0 -553 -5 -667 -5l28 153c120 0 543 4 731 4c75 0 119 -13 137 -16c-9 -33 -37 -114 -45 -137l-871 -998l487 -1c85 0 113 4 182 25l11 -148c-48 -16 -89 -30 -164 -30h-243c-212 0 -388 -2 -436 -2h-7z" />
    <glyph glyph-name="Eta" unicode="&#x397;" 
d="M397 1296l-107 -547c96 21 192 28 312 28h228c53 274 68 352 99 514h159l-251 -1291h-158l121 625h-129c-146 0 -288 -3 -411 -28c-67 -343 -79 -416 -114 -597h-161l252 1294z" />
    <glyph glyph-name="Theta" unicode="&#x398;" 
d="M256 242c36 -65 98 -105 206 -105c116 0 201 67 262 150c52 64 114 230 136 337l4 19c12 64 21 140 21 212c0 58 -5 113 -20 159c-36 114 -98 156 -186 156c-95 0 -156 -28 -229 -104c-86 -89 -163 -231 -214 -493c-9 -44 -14 -98 -14 -150c0 -71 10 -139 34 -181z
M704 1323c105 0 341 -53 341 -444c0 -71 -7 -153 -25 -247l-2 -11c-32 -164 -106 -317 -172 -410c-103 -144 -249 -227 -414 -227c-122 0 -241 43 -303 143c-46 73 -69 165 -69 272c0 53 5 110 17 170c67 345 173 494 261 589c83 90 209 162 366 165zM362 725h414l-30 -153
h-414z" />
    <glyph glyph-name="Iota" unicode="&#x399;" 
d="M309 1298c157 4 258 4 354 4c105 0 205 -1 368 -3l-30 -152c-123 0 -174 5 -270 5l-194 -1000c46 0 72 1 123 1c45 0 92 -1 143 -4l-29 -150c-84 5 -146 6 -209 6c-47 0 -96 -1 -155 -1c-74 0 -197 -7 -352 -7l29 149c86 4 157 5 214 5h75l195 1000
c-66 -1 -179 -1 -286 -7z" />
    <glyph glyph-name="Kappa" unicode="&#x39a;" 
d="M554 705c97 -117 367 -537 392 -672l-156 -50c-25 109 -249 478 -355 604c0 0 -103 -98 -147 -169l-90 -423h-158l255 1313h158l-117 -605c102 111 188 190 307 293c229 195 374 293 399 314l90 -130c-208 -132 -504 -402 -578 -475z" />
    <glyph glyph-name="Mu" unicode="&#x39c;" 
d="M237 1304l103 9c48 -97 92 -253 137 -375c33 -90 49 -141 61 -179c113 155 307 424 413 554h116l-255 -1318h-157l178 925c-101 -141 -258 -345 -276 -381l-122 3c-5 16 -41 126 -96 295c-12 44 -9 35 -19 63l-176 -905h-158z" />
    <glyph glyph-name="Nu" unicode="&#x39d;" 
d="M676 -6c-94 357 -190 654 -323 1007l-40 -204c-57 -293 -125 -648 -155 -800h-159l253 1301l159 -4c90 -184 267 -689 336 -937c23 130 49 266 75 400c36 186 75 369 117 540h154c-28 -113 -58 -262 -90 -425c-44 -226 -90 -480 -135 -710c-11 -57 -23 -114 -33 -167z
" />
    <glyph glyph-name="Omicron" unicode="&#x39f;" 
d="M256 242c36 -65 98 -105 206 -105c116 0 201 67 262 150c52 64 114 230 136 337l4 19c12 64 21 140 21 212c0 58 -5 113 -20 159c-36 114 -98 156 -186 156c-95 0 -156 -28 -229 -104c-86 -89 -163 -231 -214 -493c-9 -44 -14 -98 -14 -150c0 -71 10 -139 34 -181z
M704 1323c105 0 341 -53 341 -444c0 -71 -7 -153 -25 -247l-2 -11c-32 -164 -106 -317 -172 -410c-103 -144 -249 -227 -414 -227c-122 0 -241 43 -303 143c-46 73 -69 165 -69 272c0 53 5 110 17 170c67 345 173 494 261 589c83 90 209 162 366 165z" />
    <glyph glyph-name="Rho" unicode="&#x3a1;" 
d="M185 -10l-158 1l254 1303c118 0 157 8 290 8c225 0 394 -13 482 -151c25 -40 35 -90 35 -143c0 -33 -3 -68 -10 -102c-18 -91 -44 -191 -121 -278c-125 -140 -288 -168 -527 -168c-48 0 -98 1 -152 3c-51 -263 -63 -317 -93 -473zM915 900c4 23 7 44 7 63
c0 153 -140 183 -358 188c-61 0 -107 -4 -152 -5l-25 -126c-36 -183 -80 -407 -80 -407c36 -1 70 -1 103 -1c286 0 461 60 505 288z" />
    <glyph glyph-name="Tau" unicode="&#x3a4;" 
d="M326 -9l224 1153c-198 0 -288 -1 -364 -1l30 155c122 0 577 1 765 1c73 0 120 -12 137 -15l-63 -152s-60 12 -110 12h-235l-224 -1153h-160z" />
    <glyph glyph-name="Upsilon" unicode="&#x3a5;" 
d="M323 -6l27 141c17 90 75 347 98 466c-57 111 -216 550 -246 656l154 71c25 -77 149 -432 209 -569c125 139 394 495 449 582l123 -79c-65 -94 -165 -236 -303 -404c-112 -131 -204 -242 -228 -268c-9 -47 -21 -95 -31 -149c-29 -132 -59 -274 -67 -316l-25 -131h-160z
" />
    <glyph glyph-name="Chi" unicode="&#x3a7;" 
d="M979 1340l118 -85l-476 -598c119 -267 182 -443 297 -580l-126 -113c-123 147 -185 302 -290 544l-423 -539l-116 85l469 600c-80 204 -133 428 -243 584l143 93c102 -146 153 -360 223 -532z" />
    <glyph glyph-name="Delta" unicode="&#x394;" 
d="M759 0l-649 -5l-157 24l685 1279h112l179 -1268zM633 982c-149 -284 -297 -544 -443 -831h555c-24 293 -76 548 -112 831z" />
    <glyph glyph-name="Lambda" unicode="&#x39b;" 
d="M754 -19c-44 337 -77 670 -121 1001c-179 -332 -340 -676 -528 -1006l-157 24l690 1298h112l174 -1287z" />
    <glyph glyph-name="Xi" unicode="&#x39e;" 
d="M344 816h438l-30 -150h-438zM278 1293c57 4 127 4 205 4h98h110c149 0 285 -3 359 -3h16l-30 -150h-785zM54 147l682 2c56 0 122 26 122 26l15 -148c-51 -13 -89 -30 -165 -30h-682z" />
    <glyph glyph-name="Pi" unicode="&#x3a0;" 
d="M225 0h-161l220 1131c-30 -4 -59 -9 -90 -15l10 152c96 21 193 28 313 28h660l-30 -152h-88l-149 -766c-25 -127 -38 -252 -47 -369l-157 -13c5 121 22 259 47 388l147 760h-332c-44 0 -84 0 -122 -1z" />
    <glyph glyph-name="Sigma" unicode="&#x3a3;" 
d="M468 1144l348 -392l-32 -132l-565 -473l517 2c56 0 122 26 122 26l15 -148c-51 -13 -89 -30 -165 -30h-682l9 175l618 515l-429 483l54 123c57 4 127 4 205 4h98h110c149 0 285 -3 359 -3h16l-30 -150h-568z" />
    <glyph glyph-name="Phi" unicode="&#x3a6;" 
d="M374 170c-88 12 -168 44 -218 98c-56 60 -84 139 -84 230c0 30 3 61 9 93c49 252 147 361 230 430c60 50 145 92 250 110c5 27 11 55 16 83l18 93h160l-28 -145l-5 -24c122 -14 313 -84 313 -361c0 -42 -4 -88 -14 -140l-2 -8c-23 -120 -89 -232 -150 -300
c-81 -90 -197 -147 -333 -161c-5 -26 -8 -46 -12 -66c-5 -28 -12 -56 -23 -102l-162 1c8 31 11 48 14 63s7 29 12 57c3 15 6 31 9 49zM568 332c80 13 139 48 182 90c48 41 99 148 113 216l2 12c5 29 9 62 9 95c0 51 -9 103 -33 143c-36 59 -86 87 -149 96
c-35 -186 -65 -345 -115 -602zM405 335c49 250 88 446 126 640c-38 -10 -73 -28 -109 -54c-80 -57 -146 -148 -179 -316c-3 -18 -5 -38 -5 -59c0 -57 14 -118 48 -152c28 -28 65 -49 119 -59z" />
    <glyph glyph-name="Psi" unicode="&#x3a8;" 
d="M149 770c12 60 22 116 32 167c28 145 48 253 48 322c0 14 0 25 -2 36l165 27c0 -6 1 -12 1 -19c0 -72 -20 -180 -51 -340c-9 -48 -19 -100 -30 -157c-6 -29 -8 -53 -8 -76c0 -131 88 -168 190 -168c10 52 21 103 31 154c40 205 76 405 113 594h163
c-37 -191 -70 -370 -108 -567c-11 -59 -23 -119 -36 -182c219 0 270 119 338 467c16 92 31 192 38 270l159 17c-6 -82 -21 -183 -34 -249c-3 -13 -4 -24 -6 -34c-75 -388 -161 -593 -527 -628c-29 -140 -58 -277 -86 -404l-161 1c16 62 47 219 58 274c8 41 16 84 25 128
c-217 20 -319 143 -319 295c0 24 2 47 7 72z" />
    <glyph glyph-name="Omega" unicode="&#x3a9;" 
d="M319 1h-358l27 150h167c-56 92 -101 221 -101 358c0 37 3 74 10 111c67 345 158 442 246 537c83 90 222 166 394 166c195 0 387 -62 387 -394c0 -70 -8 -151 -27 -246l-2 -11c-48 -249 -204 -422 -313 -521l80 1c56 0 122 26 122 26l15 -148c-50 -13 -87 -30 -159 -30h-6
h-268v148c85 61 314 235 371 527l4 19c2 12 5 23 7 35c12 61 23 120 23 178c0 38 -5 76 -17 113c-36 114 -154 150 -242 150c-95 0 -184 -29 -257 -105c-86 -89 -148 -179 -199 -441c-6 -30 -8 -60 -8 -90c0 -182 97 -354 161 -382z" />
    <glyph glyph-name="tonos" unicode="&#x384;" 
d="M548 1316c118 117 183 244 252 397l166 -63c-62 -154 -187 -312 -304 -428z" />
    <glyph glyph-name="alphatonos" unicode="&#x3ac;" 
d="M540 1201c118 117 183 244 252 397l166 -63c-62 -154 -187 -312 -304 -428zM257 527c-11 -59 -16 -109 -16 -151c0 -221 135 -226 150 -226h13c85 0 191 166 293 362c-25 251 -63 353 -180 353c-78 0 -214 -99 -260 -338zM831 464c9 -77 18 -164 31 -261
c8 -58 44 -80 98 -95l-95 -140c-122 32 -143 152 -149 212c-3 23 -5 46 -8 68c-94 -148 -199 -255 -330 -255c-222 0 -299 158 -299 353c0 58 7 119 19 181c71 367 285 491 460 491c165 0 218 -78 252 -275c50 99 102 198 156 291l132 -70c-89 -126 -182 -332 -267 -500z
" />
    <glyph glyph-name="Iotadieresis" unicode="&#x3aa;" 
d="M445 1676l234 -3l-44 -225l-234 3zM850 1673l234 -3l-43 -225l-235 3zM309 1298c157 4 258 4 354 4c105 0 205 -1 368 -3l-30 -152c-123 0 -174 5 -270 5l-194 -1000c46 0 72 1 123 1c45 0 92 -1 143 -4l-29 -150c-84 5 -146 6 -209 6c-47 0 -96 -1 -155 -1
c-74 0 -197 -7 -352 -7l29 149c86 4 157 5 214 5h75l195 1000c-66 -1 -179 -1 -286 -7z" />
    <glyph glyph-name="Upsilondieresis" unicode="&#x3ab;" 
d="M431 1601l234 -3l-44 -225l-234 3zM836 1598l234 -3l-43 -225l-235 3zM323 -6l27 141c17 90 75 347 98 466c-57 111 -216 550 -246 656l154 71c25 -77 149 -432 209 -569c125 139 394 495 449 582l123 -79c-65 -94 -165 -236 -303 -404c-112 -131 -204 -242 -228 -268
c-9 -47 -21 -95 -31 -149c-29 -132 -59 -274 -67 -316l-25 -131h-160z" />
    <glyph glyph-name="epsilontonos" unicode="&#x3ad;" 
d="M543 1209c118 117 183 244 252 397l166 -63c-62 -154 -187 -312 -304 -428zM879 131c-81 -53 -240 -135 -463 -135c-182 0 -256 35 -320 94c-43 40 -56 91 -56 140c0 25 4 49 8 71c25 130 113 247 272 283c-135 9 -182 79 -182 160c0 15 1 30 4 45
c28 146 184 235 494 235h14c232 0 294 -52 310 -64l-94 -130c-21 15 -112 41 -258 41c-204 0 -299 -25 -311 -88c-1 -4 -1 -8 -1 -12c0 -102 263 -110 370 -110h5h18l-29 -152c-26 0 -52 1 -78 1c-63 0 -126 -4 -205 -32c-119 -41 -160 -112 -173 -179c-2 -9 -2 -17 -2 -25
c0 -78 81 -124 245 -124c168 0 310 56 370 102z" />
    <glyph glyph-name="etatonos" unicode="&#x3ae;" 
d="M581 1192c118 117 183 244 252 397l166 -63c-62 -154 -187 -312 -304 -428zM371 900c123 79 247 122 357 122c111 0 249 -65 249 -190c0 -11 -2 -24 -4 -36l-170 -875c-10 -51 -21 -146 -21 -208c0 -18 1 -32 3 -43l-164 -32c-1 22 -2 43 -2 65c0 57 5 118 23 211
l166 851c1 6 2 12 2 17c0 62 -71 90 -133 90c-63 0 -190 -52 -338 -139l-143 -733l-158 -1l137 706c23 118 30 170 30 218c0 25 -2 48 -4 80l167 37c3 -15 5 -46 5 -80c0 -20 -1 -42 -2 -60z" />
    <glyph glyph-name="iotatonos" unicode="&#x3af;" 
d="M570 1206c118 117 183 244 252 397l166 -63c-62 -154 -187 -312 -304 -428zM539 1013h120c-53 -273 -146 -754 -146 -754c-4 -21 -6 -40 -6 -55c0 -69 42 -80 117 -80c93 0 197 61 269 175l99 -78c-99 -150 -210 -239 -394 -239c-85 0 -159 14 -198 38
c-45 28 -57 85 -57 139c0 37 6 72 10 96l117 602c-49 0 -165 -6 -264 -28l-1 142c117 26 230 42 334 42z" />
    <glyph glyph-name="upsilondieresistonos" unicode="&#x3b0;" 
d="M586.706 1456.97c109.324 107.662 169.544 224.527 233.471 365.316l153.794 -57.9727c-57.4404 -141.709 -173.25 -287.1 -281.646 -393.842zM354 1379.59l234 -2.56152l-44 -192.077l-234 2.56055zM759 1377.03l234 -2.56055l-43 -192.078l-235 2.56152zM110 366
c12 60 24 123 36 183c36 182 66 351 66 431c0 10 0 18 -1 25l165 27v-10c0 -78 -32 -253 -70 -449c-11 -56 -22 -114 -33 -171c-7 -37 -11 -69 -11 -97c0 -108 54 -153 160 -153c58 0 176 41 248 121c111 125 142 227 188 465c9 43 13 90 13 133c0 49 -6 94 -15 131l168 44
c7 -30 10 -68 10 -107c0 -69 -9 -143 -17 -185c-1 -4 -1 -8 -2 -12c-2 -12 -5 -25 -7 -37c-37 -191 -83 -402 -291 -582c-76 -66 -208 -127 -371 -127c-162 0 -245 120 -245 276c0 30 3 62 9 94z" />
    <glyph glyph-name="omicrontonos" unicode="&#x3cc;" 
d="M518 1190c118 117 183 244 252 397l166 -63c-62 -154 -187 -312 -304 -428zM407 1c-225 1 -334 126 -334 328c0 42 5 87 14 135c57 292 213 568 505 568c197 0 294 -69 338 -201c13 -39 18 -86 18 -136c0 -51 -5 -103 -15 -152c-55 -285 -202 -542 -524 -542h-2zM621 215
c77 61 121 167 150 315c1 6 3 12 4 18c7 40 12 79 12 114c0 127 -53 216 -191 216c-208 0 -303 -165 -350 -409c-7 -36 -11 -70 -11 -101c0 -134 68 -212 204 -212c76 1 124 17 182 59z" />
    <glyph glyph-name="upsilontonos" unicode="&#x3cd;" 
d="M546 1186c118 117 183 244 252 397l166 -63c-62 -154 -187 -312 -304 -428zM110 366c12 60 24 123 36 183c36 182 66 351 66 431c0 10 0 18 -1 25l165 27v-10c0 -78 -32 -253 -70 -449c-11 -56 -22 -114 -33 -171c-7 -37 -11 -69 -11 -97c0 -108 54 -153 160 -153
c58 0 176 41 248 121c111 125 142 227 188 465c9 43 13 90 13 133c0 49 -6 94 -15 131l168 44c7 -30 10 -68 10 -107c0 -69 -9 -143 -17 -185c-1 -4 -1 -8 -2 -12c-2 -12 -5 -25 -7 -37c-37 -191 -83 -402 -291 -582c-76 -66 -208 -127 -371 -127c-162 0 -245 120 -245 276
c0 30 3 62 9 94z" />
    <glyph glyph-name="omegatonos" unicode="&#x3ce;" 
d="M569 1124c118 117 183 244 252 397l166 -63c-62 -154 -187 -312 -304 -428zM492 684l163 19c-19 -85 -36 -179 -55 -272c-1 -8 -2 -17 -4 -26c-8 -46 -13 -87 -13 -120c0 -97 35 -141 95 -141c89 0 142 126 171 276c21 109 34 214 34 309c0 91 -12 173 -41 238l165 66
c30 -74 40 -164 40 -253c0 -128 -21 -256 -37 -339c-43 -223 -141 -453 -386 -453c-75 0 -134 45 -167 116c-64 -70 -141 -114 -217 -114c-162 0 -214 119 -214 269c0 59 8 122 20 185c33 168 86 414 232 597l140 -66c-106 -127 -165 -300 -205 -507
c-12 -64 -20 -125 -20 -177c0 -86 20 -146 70 -146c70 0 125 51 162 176c2 16 5 31 8 47c20 106 42 216 59 316z" />
    <glyph glyph-name="Upsilontonos" unicode="&#x38e;" 
d="M166.002 1273c98.8359 117 153.279 244 211.073 397l139.041 -63c-51.9316 -154 -156.631 -312 -254.629 -428zM457.059 -6l24.4141 141c15.3711 90 67.8154 347 88.6123 466c-51.54 111 -195.309 550 -222.436 656l139.248 71c22.6055 -77 134.728 -432 188.979 -569
c113.025 139 356.258 495 405.989 582l111.217 -79c-58.7734 -94 -149.193 -236 -273.975 -404c-101.271 -131 -184.458 -242 -206.159 -268c-8.1377 -47 -18.9883 -95 -28.0303 -149c-26.2217 -132 -53.3477 -274 -60.582 -316l-22.6045 -131h-144.674z" />
    <glyph glyph-name="Omegatonos" unicode="&#x38f;" 
d="M185.12 1215c99.7227 117 154.655 244 212.968 397l140.288 -63c-52.3965 -154 -158.035 -312 -256.913 -428zM372.96 1h-331.021l24.9648 150h154.415c-51.7803 92 -93.3887 221 -93.3887 358c0 37 2.77344 74 9.24609 111c61.9512 345 146.094 442 227.462 537
c76.7451 90 205.27 166 364.308 166c180.305 0 357.836 -62 357.836 -394c0 -70 -7.39746 -151 -24.9648 -246l-1.84961 -11c-44.3828 -249 -188.627 -422 -289.412 -521l73.9707 1c51.7803 0 112.807 26 112.807 26l13.8691 -148c-46.2314 -13 -80.4434 -30 -147.018 -30
h-5.54785h-247.804v148c78.5947 61 290.337 235 343.042 527l3.69824 19c1.84961 12 4.62305 23 6.47266 35c11.0957 61 21.2666 120 21.2666 178c0 38 -4.62305 76 -15.7188 113c-33.2871 114 -142.395 150 -223.764 150c-87.8398 0 -170.133 -29 -237.632 -105
c-79.5195 -89 -136.847 -179 -184.004 -441c-5.54785 -30 -7.39648 -60 -7.39648 -90c0 -182 89.6895 -354 148.867 -382z" />
    <glyph glyph-name="iotadieresistonos" unicode="&#x390;" 
d="M552.706 1456.97c109.324 107.662 169.544 224.527 233.471 365.316l153.794 -57.9727c-57.4404 -141.709 -173.25 -287.1 -281.646 -393.842zM320 1379.59l234 -2.56152l-44 -192.077l-234 2.56055zM725 1377.03l234 -2.56055l-43 -192.078l-235 2.56152zM539 1013h120
c-53 -273 -146 -754 -146 -754c-4 -21 -6 -40 -6 -55c0 -69 42 -80 117 -80c93 0 197 61 269 175l99 -78c-99 -150 -210 -239 -394 -239c-85 0 -159 14 -198 38c-45 28 -57 85 -57 139c0 37 6 72 10 96l117 602c-49 0 -165 -6 -264 -28l-1 142c117 26 230 42 334 42z" />
    <glyph glyph-name="Omicrontonos" unicode="&#x38c;" 
d="M202.008 1231c110.681 117 171.648 244 236.368 397l155.703 -63c-58.1543 -154 -175.4 -312 -285.143 -428zM292 242c36 -65 98 -105 206 -105c116 0 201 67 262 150c52 64 114 230 136 337l4 19c12 64 21 140 21 212c0 58 -5 113 -20 159c-36 114 -98 156 -186 156
c-95 0 -156 -28 -229 -104c-86 -89 -163 -231 -214 -493c-9 -44 -14 -98 -14 -150c0 -71 10 -139 34 -181zM740 1323c105 0 341 -53 341 -444c0 -71 -7 -153 -25 -247l-2 -11c-32 -164 -106 -317 -172 -410c-103 -144 -249 -227 -414 -227c-122 0 -241 43 -303 143
c-46 73 -69 165 -69 272c0 53 5 110 17 170c67 345 173 494 261 589c83 90 209 162 366 165z" />
    <glyph glyph-name="Epsilontonos" unicode="&#x388;" 
d="M184.122 1300c106.613 117 165.342 244 227.684 397l149.982 -63c-56.0176 -154 -168.956 -312 -274.666 -428zM387.646 1293c53.4414 4 119.072 4 192.203 4h91.8818h103.133c139.699 0 267.209 -3 336.59 -3h15.001l-28.127 -150h-589.734l-59.0674 -328h410.657
l-28.127 -150h-410.657l-4.68848 -30c-36.5654 -203 -77.8184 -412 -91.8818 -489l492.227 2c52.5039 0 114.384 26 114.384 26l14.0635 -148c-47.8164 -13 -83.4443 -30 -154.699 -30h-639.426z" />
    <glyph glyph-name="Etatonos" unicode="&#x389;" 
d="M170.979 1327c107.444 117 166.63 244 229.457 397l151.151 -63c-56.4541 -154 -170.272 -312 -276.806 -428zM506.986 1296l-101.605 -547c91.1602 21 182.32 28 296.271 28h216.506c50.3281 274 64.5723 352 94.0088 514h150.984l-238.347 -1291h-150.034l114.899 625
h-122.496c-138.64 0 -273.481 -3 -390.281 -28c-63.6221 -343 -75.0176 -416 -108.253 -597h-152.884l239.297 1294z" />
    <glyph glyph-name="Iotatonos" unicode="&#x38a;" 
d="M182.548 1267c106.275 117 164.816 244 226.96 397l149.506 -63c-55.8398 -154 -168.419 -312 -273.793 -428zM404.5 1283c145.567 4 239.213 4 328.223 4c97.3545 0 190.073 -1 341.204 -3l-27.8154 -152c-114.044 0 -161.33 5 -250.34 5l-179.874 -1000
c42.6504 0 66.7578 1 114.044 1c41.7236 0 85.3008 -1 132.587 -4l-26.8877 -150c-77.8838 5 -135.369 6 -193.781 6c-43.5781 0 -89.0098 -1 -143.714 -1c-68.6113 0 -182.655 -7 -326.369 -7l26.8887 149c79.7373 4 145.567 5 198.417 5h69.5391l180.801 1000
c-61.1943 -1 -165.966 -1 -265.175 -7z" />
    <glyph glyph-name="Alphatonos" unicode="&#x386;" 
d="M281 1283c118 117 183 244 252 397l166 -63c-62 -154 -187 -312 -304 -428zM638 1298h112l174 -1287l-170 -30l-32 345c-142 -3 -336 -2 -452 -29l-165 -321l-157 24zM697 490l-64 492l-273 -512c63 13 113 15 197 19z" />
    <glyph glyph-name="dieresistonos" unicode="&#x385;" 
d="M552.706 1361.97c109.324 107.662 169.544 224.527 233.471 365.316l153.794 -57.9727c-57.4404 -141.709 -173.25 -287.1 -281.646 -393.842zM320 1284.59l234 -2.56152l-44 -192.077l-234 2.56055zM725 1282.03l234 -2.56055l-43 -192.078l-235 2.56152z" />
    <glyph glyph-name="anoteleia" unicode="&#x387;" 
d="M458 656h251l-52 -269h-251z" />
    <glyph glyph-name="uni03D0" unicode="&#x3d0;" 
d="M277 644c-12 -74 -21 -146 -21 -210c0 -163 55 -281 242 -281c140 0 268 108 294 242c5 24 7 46 7 66c0 147 -117 207 -295 207c-68 0 -144 -8 -227 -24zM308 799c183 12 377 23 413 206c3 15 4 29 4 42c0 85 -61 129 -157 129c-65 0 -186 -66 -260 -377zM137 736
c82 420 274 592 460 592c160 0 287 -73 287 -240c0 -24 -3 -49 -8 -77c-20 -102 -64 -179 -130 -232c136 -40 209 -134 209 -285c0 -35 -4 -72 -12 -113c-41 -210 -207 -381 -475 -381c-287 0 -373 157 -373 386c0 104 17 224 42 350z" />
    <glyph glyph-name="theta1" unicode="&#x3d1;" 
d="M243 603c-9 -46 -15 -106 -15 -166c0 -75 10 -149 33 -190c36 -65 93 -110 201 -110c116 0 204 87 265 170c46 56 97 176 124 277c-42 6 -97 7 -161 7c-51 0 -108 -1 -170 -1c-144 0 -320 66 -320 257c0 22 2 46 7 71c14 72 42 151 127 242c83 90 228 163 370 163
c94 0 341 -65 341 -454c0 -68 -8 -147 -25 -237l-2 -11c-32 -164 -104 -297 -170 -390c-103 -144 -251 -247 -416 -247c-122 0 -237 48 -299 148c-46 73 -69 173 -69 284c0 55 5 114 17 174zM879 742c4 37 6 76 6 113c0 58 -5 113 -20 159c-36 114 -114 156 -186 156
c-78 0 -157 -27 -232 -102c-60 -60 -74 -111 -80 -141c-3 -17 -4 -32 -4 -46c0 -116 95 -133 195 -133c180 0 271 -1 321 -6z" />
    <glyph glyph-name="Upsilon1" unicode="&#x3d2;" 
d="M611 976c91 145 290 392 423 392c107 0 140 -45 140 -126c0 -45 -10 -101 -23 -166c0 -2 -1 -4 -1 -6h-157c8 54 11 94 11 118c0 12 -1 20 -2 24c-21 -13 -305 -267 -356 -528l-133 -684l-156 1l133 682c5 27 8 55 8 83c0 203 -130 419 -309 449l93 161
c165 -48 308 -247 329 -400z" />
    <glyph glyph-name="uni03D3" unicode="&#x3d3;" 
d="M687 999c91 145 214 369 347 369c107 0 140 -45 140 -126c0 -45 -10 -101 -23 -166c0 -2 -1 -4 -1 -6h-157c8 54 11 94 11 118c0 12 -1 20 -2 24c-21 -13 -235 -267 -286 -528l-133 -684l-156 1l133 682c8 41 12 85 12 128c0 189 -72 376 -182 404l93 161
c165 -48 184 -224 204 -377zM182 1224c93 130 138 270 195 438l169 -27c-63 -154 -148 -345 -248 -471z" />
    <glyph glyph-name="uni03D4" unicode="&#x3d4;" 
d="M420.96 1657l234 -3l-44 -225l-234 3zM825.96 1654l234 -3l-43 -225l-235 3zM611 976c91 145 290 392 423 392c107 0 140 -45 140 -126c0 -45 -10 -101 -23 -166c0 -2 -1 -4 -1 -6h-157c8 54 11 94 11 118c0 12 -1 20 -2 24c-21 -13 -305 -267 -356 -528l-133 -684
l-156 1l133 682c5 27 8 55 8 83c0 203 -130 419 -309 449l93 161c165 -48 308 -247 329 -400z" />
    <glyph glyph-name="phi1" unicode="&#x3d5;" 
d="M509 -1c-34 -186 -70 -380 -72 -397l-162 2c1 16 39 210 75 394c-180 9 -274 117 -274 311c0 347 173 686 474 720l75 384h158c-10 -51 -40 -202 -76 -387c183 -22 265 -160 265 -343c0 -391 -193 -664 -463 -684zM379 151l141 723c-176 -29 -284 -314 -284 -549
c0 -137 68 -166 143 -174zM813 673c0 116 -39 189 -135 203c-54 -278 -119 -612 -142 -730c159 14 277 295 277 527z" />
    <glyph glyph-name="omega1" unicode="&#x3d6;" 
d="M492 684l163 19c-19 -85 -36 -179 -55 -272c-1 -8 -2 -17 -4 -26c-8 -46 -13 -87 -13 -120c0 -97 35 -141 95 -141c89 0 142 126 171 276c14 70 20 133 20 191c0 98 -18 181 -47 257h-419c-87 -109 -155 -219 -190 -400c-12 -64 -20 -125 -20 -177c0 -86 20 -146 70 -146
c70 0 125 51 162 176c2 16 5 31 8 47c20 106 42 216 59 316zM161 1018c57 4 127 4 205 4h98h110c149 0 442 -4 516 -4h16l-29 -150h-74c18 -77 25 -156 25 -230c0 -73 -7 -141 -18 -197c-43 -223 -141 -453 -386 -453c-75 0 -134 45 -167 116c-64 -70 -141 -114 -217 -114
c-162 0 -214 119 -214 269c0 59 8 122 20 185c26 133 82 278 175 424h-87z" />
    <glyph glyph-name="uni03D7" unicode="&#x3d7;" 
d="M104 828c0 0 141 192 288 192c103 0 191 -74 191 -210c0 -22 -2 -45 -7 -70s-39 -124 -70 -170c54 34 127 88 200 139l20 15c92 154 166 294 313 294c50 0 69 -30 69 -75c0 -13 -1 -26 -4 -41c-21 -110 -176 -234 -294 -314c-44 -77 -123 -211 -140 -301
c-4 -21 -6 -39 -6 -54c0 -54 24 -77 64 -77c52 0 87 24 123 84l131 -49l-4 -22c-57 -291 -105 -514 -487 -514l29 150c203 0 271 68 306 250c1 3 1 7 2 10c-55 -35 -119 -65 -176 -65c-80 0 -150 70 -150 198c0 25 2 52 8 81c5 25 39 125 70 171c-54 -34 -129 -90 -202 -141
l-17 -13c-92 -154 -167 -295 -314 -295c-50 0 -69 30 -69 75c0 13 2 27 5 42c25 131 179 236 297 316c44 77 119 208 136 298c4 21 6 39 6 54c0 54 -24 77 -64 77c-52 0 -117 -74 -184 -129z" />
    <glyph glyph-name="uni03CF" unicode="&#x3cf;" 
d="M790 -17c-25 109 -254 491 -360 617c0 0 -103 -98 -147 -169l-85 -436h-158l255 1313h158l-117 -605c102 111 188 190 307 293c229 195 374 293 399 314l90 -106c-208 -132 -508 -406 -582 -479c97 -117 363 -531 388 -666c-48 -225 -123 -404 -447 -404l26 134
c162 0 237 78 273 194z" />
    <glyph glyph-name="uni03D8" unicode="&#x3d8;" 
d="M256 242c36 -65 98 -105 206 -105c116 0 201 67 262 150c52 64 114 230 136 337l4 19c12 64 21 140 21 212c0 58 -5 113 -20 159c-36 114 -98 156 -186 156c-95 0 -156 -28 -229 -104c-86 -89 -163 -231 -214 -493c-9 -44 -14 -98 -14 -150c0 -71 10 -139 34 -181z
M704 1323c105 0 341 -53 341 -444c0 -71 -7 -153 -25 -247l-2 -11c-32 -164 -106 -317 -172 -410c-84 -118 -197 -195 -326 -219l-59 -307h-171l59 306c-91 16 -173 59 -220 136c-46 73 -69 165 -69 272c0 53 5 110 17 170c67 345 173 494 261 589c83 90 209 162 366 165z
" />
    <glyph glyph-name="uni03D9" unicode="&#x3d9;" 
d="M621 215c77 61 121 167 150 315c1 6 3 12 4 18c7 40 12 79 12 114c0 127 -53 216 -191 216c-208 0 -303 -165 -350 -409c-7 -36 -11 -70 -11 -101c0 -134 68 -212 204 -212c76 1 124 17 182 59zM321 8c-167 30 -248 147 -248 321c0 42 5 87 14 135
c57 292 213 568 505 568c197 0 294 -69 338 -201c13 -39 18 -86 18 -136c0 -51 -5 -103 -15 -152c-51 -260 -177 -496 -442 -536l-62 -322h-171z" />
    <glyph glyph-name="uni03DB" unicode="&#x3db;" 
d="M257 527c-14 -71 -20 -129 -20 -176c0 -200 108 -197 161 -201c232 -19 366 -61 366 -196c0 -15 -2 -31 -5 -49c-19 -96 -98 -248 -364 -256l7 152c117 14 187 31 200 100c1 3 1 5 1 7c0 60 -151 76 -231 85c-222 23 -302 117 -302 301c0 66 11 143 28 233
c71 367 274 491 589 491c106 0 187 -1 263 -1c57 0 109 0 167 3l-29 -165c-41 4 -282 10 -442 10c-221 0 -343 -99 -389 -338z" />
    <glyph glyph-name="uni03DA" unicode="&#x3da;" 
d="M291 700c-24 -126 -37 -227 -37 -305c0 -155 48 -224 144 -245c223 -48 366 -67 366 -199c0 -14 -2 -29 -5 -46c-19 -96 -98 -248 -364 -256l7 152c117 14 187 31 200 100c0 3 1 5 1 7c0 60 -153 72 -231 85c-223 35 -286 173 -286 354c0 106 22 227 46 353
c71 367 236 621 604 621c106 0 188 -1 264 -1c57 0 109 0 167 3l-29 -166c-41 4 -283 11 -443 11c-261 0 -358 -229 -404 -468z" />
    <glyph glyph-name="uni03DC" unicode="&#x3dc;" 
d="M202 -1l-160 4l251 1295h685c76 -3 122 -18 153 -35l-85 -146c-23 14 -42 27 -140 28h-70c-104 0 -234 -1 -417 -2l-64 -328c120 0 188 3 310 3c88 0 144 -14 145 -14l17 -5l-64 -145c-35 9 -85 14 -130 14c-106 0 -198 0 -307 -3c-24 -121 -106 -573 -124 -666z" />
    <glyph glyph-name="uni03DD" unicode="&#x3dd;" 
d="M339 152c24 123 133 705 173 912c28 143 98 354 375 354h46c118 0 134 -5 256 -97l-96 -130c-80 60 -96 75 -228 75c-147 0 -175 -98 -196 -206l-9 -47c68 0 126 -1 199 -1c103 -3 129 -11 157 -20l-58 -146c-20 7 -39 13 -95 13h-233c-29 -154 -133 -703 -134 -707
c-46 -236 -156 -460 -495 -460c-30 0 -62 1 -95 5l39 147c27 -4 53 -6 77 -6c208 0 286 156 317 314z" />
    <glyph glyph-name="uni0190" unicode="&#x190;" 
d="M896 161c-79 -53 -221 -161 -470 -161c-175 0 -259 34 -323 106c-46 52 -62 112 -62 174c0 36 6 73 13 110c35 178 121 304 275 340c-79 28 -110 102 -110 184c0 23 2 47 7 71c38 195 207 312 486 312h12c225 0 299 -61 363 -102l-104 -140c-62 42 -160 89 -299 89
c-160 0 -288 -62 -307 -159c-2 -11 -3 -22 -3 -32c0 -135 191 -146 291 -146h4h18l-30 -152c-25 0 -50 1 -75 1c-61 0 -121 -4 -198 -32c-115 -41 -166 -169 -179 -236c-3 -16 -5 -31 -5 -46c0 -119 102 -188 257 -188c184 0 306 84 365 130z" />
    <glyph glyph-name="uni01CD" unicode="&#x1cd;" 
d="M743 1447l-298 323l114 103l208 -227l336 241l88 -121zM739 495l-80 587l-304 -607c63 13 119 13 203 17zM800 0l-50 332c-142 -3 -364 -5 -480 -32l-93 -179c-16 -29 -43 -93 -48 -121h-162c6 28 42 116 63 159l582 1142h171l186 -1301h-169z" />
    <glyph glyph-name="uni01CE" unicode="&#x1ce;" 
d="M676 1156l-298 323l114 103l208 -227l336 241l88 -121zM243 514c-17 -63 -25 -119 -25 -168c0 -128 54 -202 132 -202c226 0 358 298 416 464l45 196c-50 35 -123 86 -227 86c-191 0 -270 -116 -341 -376zM1006 1002l-120 -646c-13 -66 -20 -110 -20 -142
c0 -52 18 -72 53 -105l-106 -119c-41 37 -97 64 -97 201c0 8 0 16 1 25c-58 -84 -184 -224 -396 -224c-155 0 -255 148 -255 351c0 51 6 105 19 161c84 358 218 530 519 530c126 0 189 -40 237 -73c5 23 8 45 10 65z" />
    <glyph glyph-name="uni01CF" unicode="&#x1cf;" 
d="M669 1333l-298 323l114 103l208 -227l336 241l88 -121zM329 1298c157 4 238 4 334 4c105 0 201 -1 364 -3l-30 -152c-123 0 -170 5 -266 5l-194 -1000c46 0 72 1 123 1c45 0 92 -1 143 -4l-29 -150c-84 5 -146 6 -209 6c-47 0 -96 -1 -155 -1c-74 0 -176 -7 -331 -7
l29 149c86 4 136 5 193 5h75l195 1000c-66 -1 -159 -1 -266 -7z" />
    <glyph glyph-name="uni01D0" unicode="&#x1d0;" 
d="M621 1156l-298 323l114 103l208 -227l336 241l88 -121zM661 1020l-147 -736c-4 -19 -5 -36 -5 -52c0 -71 37 -108 112 -108c93 0 191 24 270 76l76 -117c-100 -71 -248 -101 -372 -101c-191 0 -245 117 -245 227c0 25 2 48 7 71l108 533c-35 -26 -145 -88 -219 -112
l-58 144c232 98 265 146 283 175h190z" />
    <glyph glyph-name="uni01D1" unicode="&#x1d1;" 
d="M723.5 1342l-298 323l114 103l208 -227l336 241l88 -121zM687 1326c105 0 340 -53 340 -444c0 -71 -7 -152 -25 -247l-2 -11c-32 -164 -105 -317 -171 -410c-103 -144 -250 -227 -415 -227c-122 0 -240 43 -302 143c-46 73 -69 165 -69 272c0 53 5 110 17 170
c67 345 173 494 261 589c83 90 209 162 366 165zM239 245c36 -65 97 -105 205 -105c88 0 202 67 263 150c52 64 114 230 136 337l4 19c12 65 22 143 22 216c0 56 -6 110 -20 155c-36 114 -98 156 -186 156c-68 0 -157 -28 -230 -104c-86 -89 -163 -231 -214 -493
c-9 -44 -14 -98 -14 -150c0 -71 10 -139 34 -181z" />
    <glyph glyph-name="uni01D2" unicode="&#x1d2;" 
d="M701 1157.6l-298 323l114 103l208 -227l336 241l88 -121zM621 215c77 61 121 167 150 315c1 6 3 12 4 18c7 40 12 79 12 114c0 127 -25 216 -191 216c-174 0 -303 -165 -350 -409c-7 -36 -11 -70 -11 -101c0 -134 28 -212 196 -212c76 1 132 17 190 59zM407 1h-2
c-204 0 -332 127 -332 328c0 42 5 87 14 135c57 292 213 568 505 568c197 0 294 -69 338 -201c13 -39 18 -86 18 -136c0 -51 -5 -103 -15 -152c-55 -285 -185 -542 -524 -542h-2z" />
    <glyph glyph-name="uni01D3" unicode="&#x1d3;" 
d="M658 1306l-298 323l114 103l208 -227l336 241l88 -121zM957 1313l154 -13c-21 -60 -29 -103 -39 -157c-28 -145 -50 -272 -72 -383l-12 -58c-45 -232 -92 -454 -229 -583c-100 -95 -214 -124 -344 -129c-256 0 -345 116 -345 322c0 42 3 86 10 135c10 75 31 197 57 332
c33 172 74 365 111 523h158c-36 -165 -83 -389 -119 -574c-24 -123 -43 -229 -50 -289c-3 -27 -5 -53 -5 -76c0 -155 67 -222 199 -222c107 5 164 28 229 84c81 74 132 280 170 477c24 123 48 269 81 439c14 71 24 110 46 172z" />
    <glyph glyph-name="uni01D4" unicode="&#x1d4;" 
d="M648 1087l-298 323l114 103l208 -227l336 241l88 -121zM808 -10c-39 33 -108 64 -108 192c0 32 5 70 15 116c-96 -177 -239 -297 -390 -298c-130 0 -246 88 -246 225c0 16 2 33 5 50c46 252 144 594 144 702c0 7 0 12 -1 17l165 27v-10c0 -99 -73 -345 -141 -705
c-3 -18 -5 -36 -5 -52c0 -55 21 -99 88 -99c165 0 342 302 437 536l69 337l158 -22l-151 -767c-1 -8 -2 -15 -2 -22c0 -57 38 -81 68 -110z" />
    <glyph glyph-name="uni01D5" unicode="&#x1d5;" 
d="M1036 1864l-30 -152h-17c-58 -2 -128 -2 -202 -2s-149 0 -217 2l-17 1l30 155l18 -2c65 -2 162 -2 254 -2h164h17zM445 1652l234 -3l-44 -225l-234 3zM850 1649l234 -3l-43 -225l-235 3zM957 1313l154 -13c-21 -60 -29 -103 -39 -157c-28 -145 -50 -272 -72 -383l-12 -58
c-45 -232 -92 -454 -229 -583c-100 -95 -214 -124 -344 -129c-256 0 -345 116 -345 322c0 42 3 86 10 135c10 75 31 197 57 332c33 172 74 365 111 523h158c-36 -165 -83 -389 -119 -574c-24 -123 -43 -229 -50 -289c-3 -27 -5 -53 -5 -76c0 -155 67 -222 199 -222
c107 5 164 28 229 84c81 74 132 280 170 477c24 123 48 269 81 439c14 71 24 110 46 172z" />
    <glyph glyph-name="uni01D6" unicode="&#x1d6;" 
d="M989 1642l-30 -152h-17c-58 -2 -128 -2 -202 -2s-149 0 -217 2l-17 1l30 155l18 -2c65 -2 162 -2 254 -2h164h17zM381 1409l234 -3l-44 -225l-234 3zM786 1406l234 -3l-43 -225l-235 3zM808 -10c-39 33 -108 64 -108 192c0 32 5 70 15 116c-96 -177 -239 -297 -390 -298
c-130 0 -246 88 -246 225c0 16 2 33 5 50c46 252 144 594 144 702c0 7 0 12 -1 17l165 27v-10c0 -99 -73 -345 -141 -705c-3 -18 -5 -36 -5 -52c0 -55 21 -99 88 -99c165 0 342 302 437 536l69 337l158 -22l-151 -767c-1 -8 -2 -15 -2 -22c0 -57 38 -81 68 -110z" />
    <glyph glyph-name="uni01D7" unicode="&#x1d7;" 
d="M529 1832c145 43 377 207 496 311l117 -150c-115 -108 -405 -269 -550 -311zM445 1652l234 -3l-44 -225l-234 3zM850 1649l234 -3l-43 -225l-235 3zM957 1313l154 -13c-21 -60 -29 -103 -39 -157c-28 -145 -50 -272 -72 -383l-12 -58c-45 -232 -92 -454 -229 -583
c-100 -95 -214 -124 -344 -129c-256 0 -345 116 -345 322c0 42 3 86 10 135c10 75 31 197 57 332c33 172 74 365 111 523h158c-36 -165 -83 -389 -119 -574c-24 -123 -43 -229 -50 -289c-3 -27 -5 -53 -5 -76c0 -155 67 -222 199 -222c107 5 164 28 229 84
c81 74 132 280 170 477c24 123 48 269 81 439c14 71 24 110 46 172z" />
    <glyph glyph-name="uni01D8" unicode="&#x1d8;" 
d="M466 1588c145 43 377 207 496 311l117 -150c-115 -108 -405 -269 -550 -311zM381 1409l234 -3l-44 -225l-234 3zM786 1406l234 -3l-43 -225l-235 3zM808 -10c-39 33 -108 64 -108 192c0 32 5 70 15 116c-96 -177 -239 -297 -390 -298c-130 0 -246 88 -246 225
c0 16 2 33 5 50c46 252 144 594 144 702c0 7 0 12 -1 17l165 27v-10c0 -99 -73 -345 -141 -705c-3 -18 -5 -36 -5 -52c0 -55 21 -99 88 -99c165 0 342 302 437 536l69 337l158 -22l-151 -767c-1 -8 -2 -15 -2 -22c0 -57 38 -81 68 -110z" />
    <glyph glyph-name="uni01D9" unicode="&#x1d9;" 
d="M774 1652l-298 323l114 103l208 -227l336 241l88 -121zM445 1652l234 -3l-44 -225l-234 3zM850 1649l234 -3l-43 -225l-235 3zM957 1313l154 -13c-21 -60 -29 -103 -39 -157c-28 -145 -50 -272 -72 -383l-12 -58c-45 -232 -92 -454 -229 -583
c-100 -95 -214 -124 -344 -129c-256 0 -345 116 -345 322c0 42 3 86 10 135c10 75 31 197 57 332c33 172 74 365 111 523h158c-36 -165 -83 -389 -119 -574c-24 -123 -43 -229 -50 -289c-3 -27 -5 -53 -5 -76c0 -155 67 -222 199 -222c107 5 164 28 229 84
c81 74 132 280 170 477c24 123 48 269 81 439c14 71 24 110 46 172z" />
    <glyph glyph-name="uni01DA" unicode="&#x1da;" 
d="M708 1425l-298 323l114 103l208 -227l336 241l88 -121zM381 1409l234 -3l-44 -225l-234 3zM786 1406l234 -3l-43 -225l-235 3zM808 -10c-39 33 -108 64 -108 192c0 32 5 70 15 116c-96 -177 -239 -297 -390 -298c-130 0 -246 88 -246 225c0 16 2 33 5 50
c46 252 144 594 144 702c0 7 0 12 -1 17l165 27v-10c0 -99 -73 -345 -141 -705c-3 -18 -5 -36 -5 -52c0 -55 21 -99 88 -99c165 0 342 302 437 536l69 337l158 -22l-151 -767c-1 -8 -2 -15 -2 -22c0 -57 38 -81 68 -110z" />
    <glyph glyph-name="uni01DB" unicode="&#x1db;" 
d="M1056 1805l-107 -123c-124 86 -313 286 -387 426l160 104c80 -136 210 -321 334 -407zM445 1652l234 -3l-44 -225l-234 3zM850 1649l234 -3l-43 -225l-235 3zM957 1313l154 -13c-21 -60 -29 -103 -39 -157c-28 -145 -50 -272 -72 -383l-12 -58
c-45 -232 -92 -454 -229 -583c-100 -95 -214 -124 -344 -129c-256 0 -345 116 -345 322c0 42 3 86 10 135c10 75 31 197 57 332c33 172 74 365 111 523h158c-36 -165 -83 -389 -119 -574c-24 -123 -43 -229 -50 -289c-3 -27 -5 -53 -5 -76c0 -155 67 -222 199 -222
c107 5 164 28 229 84c81 74 132 280 170 477c24 123 48 269 81 439c14 71 24 110 46 172z" />
    <glyph glyph-name="uni01DC" unicode="&#x1dc;" 
d="M968 1546l-107 -123c-124 86 -313 286 -387 426l160 104c80 -136 210 -321 334 -407zM381 1409l234 -3l-44 -225l-234 3zM786 1406l234 -3l-43 -225l-235 3zM808 -10c-39 33 -108 64 -108 192c0 32 5 70 15 116c-96 -177 -239 -297 -390 -298c-130 0 -246 88 -246 225
c0 16 2 33 5 50c46 252 144 594 144 702c0 7 0 12 -1 17l165 27v-10c0 -99 -73 -345 -141 -705c-3 -18 -5 -36 -5 -52c0 -55 21 -99 88 -99c165 0 342 302 437 536l69 337l158 -22l-151 -767c-1 -8 -2 -15 -2 -22c0 -57 38 -81 68 -110z" />
    <glyph glyph-name="uni01DE" unicode="&#x1de;" 
d="M1038 1827l-30 -152h-17c-58 -2 -128 -2 -202 -2s-149 0 -217 2l-17 1l30 155l18 -2c65 -2 162 -2 254 -2h164h17zM444 1607l234 -3l-44 -225l-234 3zM849 1604l234 -3l-43 -225l-235 3zM739 495l-80 587l-304 -607c63 13 119 13 203 17zM800 0l-50 332
c-142 -3 -364 -5 -480 -32l-93 -179c-16 -29 -43 -93 -48 -121h-162c6 28 42 116 63 159l582 1142h171l186 -1301h-169z" />
    <glyph glyph-name="uni01DF" unicode="&#x1df;" 
d="M1041 1640l-30 -152h-17c-58 -2 -128 -2 -202 -2s-149 0 -217 2l-17 1l30 155l18 -2c65 -2 162 -2 254 -2h164h17zM430 1406l234 -3l-44 -225l-234 3zM835 1403l234 -3l-43 -225l-235 3zM243 514c-17 -63 -25 -119 -25 -168c0 -128 54 -202 132 -202
c226 0 358 298 416 464l45 196c-50 35 -123 86 -227 86c-191 0 -270 -116 -341 -376zM1006 1002l-120 -646c-13 -66 -20 -110 -20 -142c0 -52 18 -72 53 -105l-106 -119c-41 37 -97 64 -97 201c0 8 0 16 1 25c-58 -84 -184 -224 -396 -224c-155 0 -255 148 -255 351
c0 51 6 105 19 161c84 358 218 530 519 530c126 0 189 -40 237 -73c5 23 8 45 10 65z" />
    <glyph glyph-name="uni01E2" unicode="&#x1e2;" 
d="M947.419 1560l-30 -152h-17c-58 -2 -128 -2 -202 -2s-149 0 -217 2l-17 1l30 155l18 -2c65 -2 162 -2 254 -2h164h17zM478 347c-162 -5 -243 -25 -243 -25l-90 -201c-13 -30 -43 -93 -48 -121h-162c6 28 43 116 63 159l533 1134c62 2 173 2 270 2c157 0 239 -1 336 -1
l-30 -150h-405l-37 -328h300l-30 -150h-281l-58 -519l244 2c56 0 122 26 122 26l15 -148c-50 -13 -87 -30 -159 -30h-6l-378 3zM495 490l67 604l-264 -619s72 13 197 15z" />
    <glyph glyph-name="uni01E3" unicode="&#x1e3;" 
d="M989 1342.1l-30 -152h-17c-58 -2 -128 -2 -202 -2s-149 0 -217 2l-17 1l30 155l18 -2c65 -2 162 -2 254 -2h164h17zM145 894c118 92 223 140 305 140c131 0 167 -70 191 -166c77 96 172 165 263 165c180 0 205 -147 205 -257c0 -112 -69 -205 -133 -272
c-90 -93 -235 -148 -379 -159v-11c0 -72 20 -189 98 -189c88 0 129 51 178 105l102 -109c-50 -45 -144 -149 -314 -149c-97 0 -149 49 -175 128c-48 -66 -115 -128 -271 -128c-106 0 -182 79 -182 249c0 193 132 446 364 446c51 0 105 -53 109 -69c0 0 22 78 22 120
c0 94 -24 151 -104 151c-54 0 -123 -43 -199 -105zM185 244c0 -73 32 -100 59 -100c172 0 205 235 220 286c-9 34 -51 113 -87 113c-104 0 -192 -199 -192 -299zM613 496c115 8 200 46 267 114c44 45 83 96 83 164c0 40 -8 112 -88 112c-82 0 -213 -139 -262 -390z" />
    <glyph glyph-name="Gcaron" unicode="&#x1e6;" 
d="M703 1327l-298 323l114 103l208 -227l336 241l88 -121zM1050 733l-15 -128c-51 -440 -231 -556 -418 -602c-47 -10 -112 -11 -154 -11c-294 0 -416 188 -416 444c0 61 7 125 20 192c46 237 137 431 293 558c117 88 236 116 351 116h20c213 -5 325 -113 368 -276l-166 -46
c-30 114 -87 170 -242 170c-84 0 -147 -6 -238 -73c-129 -95 -193 -288 -226 -460c-12 -61 -19 -119 -19 -172c0 -174 74 -298 296 -298c211 0 301 128 361 440h-14c-44 0 -83 1 -122 1c-75 0 -147 -5 -238 -36l-37 141c103 36 208 42 309 42c103 0 192 0 287 -2z" />
    <glyph glyph-name="gcaron" unicode="&#x1e7;" 
d="M677 1118l-298 323l114 103l208 -227l336 241l88 -121zM243 514c-17 -63 -25 -119 -25 -168c0 -128 54 -202 132 -202c226 0 358 298 416 464l45 196c-50 35 -123 86 -227 86c-191 0 -270 -116 -341 -376zM1006 1002l-120 -646c-48 -257 -136 -758 -532 -758
c-115 0 -256 42 -429 145l76 150c145 -101 258 -140 347 -140c254 0 323 331 361 454c-58 -84 -176 -215 -388 -215c-155 0 -255 148 -255 351c0 51 6 105 19 161c84 358 218 530 519 530c126 0 189 -40 237 -73c5 23 8 45 10 65z" />
    <glyph glyph-name="uni01E8" unicode="&#x1e8;" 
d="M680 1306l-298 323l114 103l208 -227l336 241l88 -121zM554 705c97 -117 367 -537 392 -672l-156 -50c-25 109 -249 478 -355 604c0 0 -103 -98 -147 -169l-90 -423h-158l255 1313h158l-117 -605c102 111 188 190 307 293c229 195 374 293 399 314l90 -130
c-208 -132 -504 -402 -578 -475z" />
    <glyph glyph-name="uni01E9" unicode="&#x1e9;" 
d="M437 1439l-298 323l114 103l208 -227l336 241l88 -121zM218 0h-157l239 1228c7 36 11 72 11 108c0 25 -2 49 -6 74l163 17c2 -11 4 -37 4 -69c0 -37 -3 -82 -10 -118l-161 -818c202 280 445 488 653 636l95 -136c-149 -89 -347 -256 -520 -453
c104 -177 215 -287 392 -332l-35 -155c-206 53 -352 183 -464 355c-84 -109 -155 -224 -204 -337z" />
    <glyph glyph-name="uni01F0" unicode="&#x1f0;" 
d="M772 1116l-298 323l114 103l208 -227l336 241l88 -121zM859 748l-174 -866c-28 -145 -113 -269 -351 -269c-123 0 -263 22 -349 227l145 98c68 -162 150 -169 213 -169h17c112 0 161 82 170 117l176 876c2 12 4 28 4 45c0 40 -11 84 -54 85h-3c-49 0 -114 -1 -234 -111
l-97 133c135 89 201 127 336 127c176 0 208 -98 208 -206c0 -25 -2 -63 -7 -87z" />
    <glyph glyph-name="uni01F4" unicode="&#x1f4;" 
d="M491 1452c145 43 377 207 496 311l117 -150c-115 -108 -405 -269 -550 -311zM1050 733l-15 -128c-51 -440 -231 -556 -418 -602c-47 -10 -112 -11 -154 -11c-294 0 -416 188 -416 444c0 61 7 125 20 192c46 237 137 431 293 558c117 88 236 116 351 116h20
c213 -5 325 -113 368 -276l-166 -46c-30 114 -87 170 -242 170c-84 0 -147 -6 -238 -73c-129 -95 -193 -288 -226 -460c-12 -61 -19 -119 -19 -172c0 -174 74 -298 296 -298c211 0 301 128 361 440h-14c-44 0 -83 1 -122 1c-75 0 -147 -5 -238 -36l-37 141
c103 36 208 42 309 42c103 0 192 0 287 -2z" />
    <glyph glyph-name="uni01F5" unicode="&#x1f5;" 
d="M465 1215c145 43 377 207 496 311l117 -150c-115 -108 -405 -269 -550 -311zM243 514c-17 -63 -25 -119 -25 -168c0 -128 54 -202 132 -202c226 0 358 298 416 464l45 196c-50 35 -123 86 -227 86c-191 0 -270 -116 -341 -376zM1006 1002l-120 -646
c-48 -257 -136 -758 -532 -758c-115 0 -256 42 -429 145l76 150c145 -101 258 -140 347 -140c254 0 323 331 361 454c-58 -84 -176 -215 -388 -215c-155 0 -255 148 -255 351c0 51 6 105 19 161c84 358 218 530 519 530c126 0 189 -40 237 -73c5 23 8 45 10 65z" />
    <glyph glyph-name="uni01F8" unicode="&#x1f8;" 
d="M945 1400l-107 -123c-124 86 -313 286 -387 426l160 104c80 -136 210 -321 334 -407zM676 -6c-94 357 -190 654 -323 1007l-40 -204c-57 -293 -125 -648 -155 -800h-159l253 1301l159 -4c90 -184 267 -689 336 -937c23 130 49 266 75 400c36 186 75 369 117 540h154
c-28 -113 -58 -262 -90 -425c-44 -226 -90 -480 -135 -710c-11 -57 -23 -114 -33 -167z" />
    <glyph glyph-name="uni01F9" unicode="&#x1f9;" 
d="M954.5 1237l-107 -123c-124 86 -313 286 -387 426l160 104c80 -136 210 -321 334 -407zM374 856c118 118 230 174 358 174c108 0 222 -69 222 -192c0 -13 -1 -27 -4 -42l-114 -585c-2 -8 -2 -14 -2 -21c0 -50 41 -70 85 -97l-106 -112c-70 38 -141 81 -141 178
c0 14 2 29 5 45l109 561c3 13 4 26 4 37c0 49 -26 75 -86 75c-116 0 -299 -137 -395 -391l-98 -486l-158 -1l137 706c17 88 22 141 22 184c0 44 -5 77 -8 125l170 18c2 -18 3 -48 3 -84c0 -28 -1 -60 -3 -92z" />
    <glyph glyph-name="Aringacute" unicode="&#x1fa;" 
d="M534 1829c145 43 377 207 496 311l117 -150c-115 -108 -405 -269 -550 -311zM739 495l-80 587l-304 -607c63 13 119 13 203 17zM654 1452c-1 -3 -1 -7 -1 -10c0 -32 28 -62 74 -62c51 0 92 37 99 72c1 4 1 7 1 11c0 31 -26 58 -73 58c-52 0 -93 -34 -100 -69zM524 1450
c22 111 140 195 255 195c103 0 181 -67 181 -160c0 -11 -1 -23 -3 -35c-17 -83 -86 -152 -169 -181l181 -1269h-169l-50 332c-142 -3 -364 -5 -480 -32l-93 -179c-16 -29 -43 -93 -48 -121h-162c6 28 42 116 63 159l571 1121c-49 28 -80 77 -80 136c0 11 1 22 3 34z" />
    <glyph glyph-name="aringacute" unicode="&#x1fb;" 
d="M537.409 1690.4c145 43 377 207 496 311l117 -150c-115 -108 -405 -269 -550 -311zM597.312 1290c-1 -3 -1 -7 -1 -10c0 -32 28 -62 74 -62c51 0 92 37 99 72c1 4 1 7 1 11c0 31 -26 58 -73 58c-52 0 -93 -34 -100 -69zM467.312 1288c22 111 140 195 255 195
c103 0 181 -67 181 -160c0 -11 -1 -23 -3 -35c-22 -111 -139 -195 -254 -195c-103 0 -182 67 -182 161c0 11 1 22 3 34zM243 514c-17 -63 -25 -119 -25 -168c0 -128 54 -202 132 -202c226 0 358 298 416 464l45 196c-50 35 -123 86 -227 86c-191 0 -270 -116 -341 -376z
M1006 1002l-120 -646c-13 -66 -20 -110 -20 -142c0 -52 18 -72 53 -105l-106 -119c-41 37 -97 64 -97 201c0 8 0 16 1 25c-58 -84 -184 -224 -396 -224c-155 0 -255 148 -255 351c0 51 6 105 19 161c84 358 218 530 519 530c126 0 189 -40 237 -73c5 23 8 45 10 65z" />
    <glyph glyph-name="AEacute" unicode="&#x1fc;" 
d="M485 1496c145 43 377 207 496 311l117 -150c-115 -108 -405 -269 -550 -311zM478 347c-162 -5 -243 -25 -243 -25l-90 -201c-13 -30 -43 -93 -48 -121h-162c6 28 43 116 63 159l533 1134c62 2 173 2 270 2c157 0 239 -1 336 -1l-30 -150h-405l-37 -328h300l-30 -150h-281
l-58 -519l244 2c56 0 122 26 122 26l15 -148c-50 -13 -87 -30 -159 -30h-6l-378 3zM495 490l67 604l-264 -619s72 13 197 15z" />
    <glyph glyph-name="aeacute" unicode="&#x1fd;" 
d="M439 1199c145 43 377 207 496 311l117 -150c-115 -108 -405 -269 -550 -311zM145 894c118 92 223 140 305 140c131 0 167 -70 191 -166c77 96 172 165 263 165c180 0 205 -147 205 -257c0 -112 -69 -205 -133 -272c-90 -93 -235 -148 -379 -159v-11
c0 -72 20 -189 98 -189c88 0 129 51 178 105l102 -109c-50 -45 -144 -149 -314 -149c-97 0 -149 49 -175 128c-48 -66 -115 -128 -271 -128c-106 0 -182 79 -182 249c0 193 132 446 364 446c51 0 105 -53 109 -69c0 0 22 78 22 120c0 94 -24 151 -104 151
c-54 0 -123 -43 -199 -105zM185 244c0 -73 32 -100 59 -100c172 0 205 235 220 286c-9 34 -51 113 -87 113c-104 0 -192 -199 -192 -299zM613 496c115 8 200 46 267 114c44 45 83 96 83 164c0 40 -8 112 -88 112c-82 0 -213 -139 -262 -390z" />
    <glyph glyph-name="Oslashacute" unicode="&#x1fe;" 
d="M399 1491c145 43 377 207 496 311l117 -150c-115 -108 -405 -269 -550 -311zM6 -57c9 13 48 70 74 112c11 17 25 39 40 64c-3 4 -6 7 -8 11c-46 73 -69 165 -69 272c0 53 5 110 17 170c67 345 173 494 261 589c83 90 209 162 366 165c39 0 97 -8 153 -37
c41 69 76 128 101 172l139 -81c-33 -56 -74 -125 -121 -203c41 -66 68 -161 68 -295c0 -71 -7 -152 -25 -247l-2 -11c-32 -164 -105 -317 -171 -410c-103 -144 -250 -227 -415 -227c-59 0 -118 10 -169 32c-40 -64 -73 -119 -99 -160zM223 284c150 242 368 596 533 867
c-27 15 -58 22 -93 22c-68 0 -157 -28 -230 -104c-86 -89 -163 -231 -214 -493c-9 -44 -14 -98 -14 -150s6 -102 18 -142zM853 1003c-165 -271 -366 -596 -520 -844c30 -13 66 -19 111 -19c88 0 202 67 263 150c52 64 114 230 136 337l4 19c12 65 22 143 22 216
c0 50 -5 99 -16 141z" />
    <glyph glyph-name="oslashacute" unicode="&#x1ff;" 
d="M420 1216c145 43 377 207 496 311l117 -150c-115 -108 -405 -269 -550 -311zM235 356l505 465c-30 36 -77 57 -144 57c-208 0 -303 -165 -350 -409c-7 -37 -11 -72 -11 -103v-10zM936 804c8 -35 12 -74 12 -114c0 -49 -6 -100 -15 -147c-55 -285 -202 -542 -524 -542h-2
c-114 1 -197 32 -252 90l-111 -100l-91 104l133 123c-9 34 -13 70 -13 110c0 42 5 88 14 136c57 292 213 568 505 568c132 0 220 -31 276 -92l137 127l99 -111zM621 215c77 61 121 167 150 315c1 6 3 12 4 18c7 38 12 75 12 109v10l-501 -455c34 -36 85 -56 153 -56
c76 1 124 17 182 59z" />
    <glyph glyph-name="uni0200" unicode="&#x200;" 
d="M963 1346.42l-143 -68.1357c-86 107.444 -191 281.278 -213 417.55l177 43.6768c26 -135.398 94 -284.772 179 -393.091zM639 1341.18l-142 -68.1357c-86 108.318 -191 281.278 -212 417.55l176 43.6768c27 -135.398 94 -283.899 178 -393.091zM739 495l-80 587
l-304 -607c63 13 119 13 203 17zM800 0l-50 332c-142 -3 -364 -5 -480 -32l-93 -179c-16 -29 -43 -93 -48 -121h-162c6 28 42 116 63 159l582 1142h171l186 -1301h-169z" />
    <glyph glyph-name="uni0201" unicode="&#x201;" 
d="M1060 1190l-143 -78c-86 123 -191 322 -213 478l177 50c26 -155 94 -326 179 -450zM736 1184l-142 -78c-86 124 -191 322 -212 478l176 50c27 -155 94 -325 178 -450zM243 514c-17 -63 -25 -119 -25 -168c0 -128 54 -202 132 -202c226 0 358 298 416 464l45 196
c-50 35 -123 86 -227 86c-191 0 -270 -116 -341 -376zM1006 1002l-120 -646c-13 -66 -20 -110 -20 -142c0 -52 18 -72 53 -105l-106 -119c-41 37 -97 64 -97 201c0 8 0 16 1 25c-58 -84 -184 -224 -396 -224c-155 0 -255 148 -255 351c0 51 6 105 19 161
c84 358 218 530 519 530c126 0 189 -40 237 -73c5 23 8 45 10 65z" />
    <glyph glyph-name="uni0204" unicode="&#x204;" 
d="M1028 1368.76l-143 -63.0244c-86 99.3838 -191 260.174 -213 386.221l177 40.4004c26 -125.239 94 -263.406 179 -363.597zM704 1363.91l-142 -63.0234c-86 100.191 -191 260.174 -212 386.221l176 40.3994c27 -125.238 94 -262.598 178 -363.597zM278 1293
c57 4 127 4 205 4h98h110c149 0 285 -3 359 -3h16v-150h-659l-63 -328h438v-150h-468l-5 -30c-39 -203 -83 -411 -98 -488h519c56 0 105 20 105 20l50 -141c-45 -18 -89 -30 -165 -30h-694z" />
    <glyph glyph-name="uni0205" unicode="&#x205;" 
d="M1029 1149.7l-143 -78c-86 123 -191 322 -213 478l177 50c26 -155 94 -326 179 -450zM705 1143.7l-142 -78c-86 124 -191 322 -212 478l176 50c27 -155 94 -325 178 -450zM262 492c115 8 324 21 438 89c75 45 111 102 111 154c0 73 -71 134 -207 134
c-170 0 -293 -126 -342 -377zM632 1021c215 0 325 -136 325 -281c0 -101 -54 -206 -163 -273c-153 -93 -404 -115 -548 -126v-11c0 -72 39 -187 233 -187c179 0 278 81 327 135l102 -109c-50 -45 -170 -179 -463 -179c-244 0 -359 142 -359 366c0 49 6 103 17 160
c56 286 246 505 529 505z" />
    <glyph glyph-name="uni0208" unicode="&#x208;" 
d="M1003 1382.38l-143 -56.9277c-86 89.7705 -191 235.009 -213 348.863l177 36.4922c26 -113.125 94 -237.928 179 -328.428zM679 1378l-142 -56.9277c-86 90.5 -191 235.009 -212 348.863l176 36.4922c27 -113.125 94 -237.198 178 -328.428zM329 1298c157 4 238 4 334 4
c105 0 201 -1 364 -3l-30 -152c-123 0 -170 5 -266 5l-194 -1000c46 0 72 1 123 1c45 0 92 -1 143 -4l-29 -150c-84 5 -146 6 -209 6c-47 0 -96 -1 -155 -1c-74 0 -176 -7 -331 -7l29 149c86 4 136 5 193 5h75l195 1000c-66 -1 -159 -1 -266 -7z" />
    <glyph glyph-name="uni0209" unicode="&#x209;" 
d="M954 1175l-143 -78c-86 123 -191 322 -213 478l177 50c26 -155 94 -326 179 -450zM630 1169l-142 -78c-86 124 -191 322 -212 478l176 50c27 -155 94 -325 178 -450zM661 1020l-147 -736c-4 -19 -5 -36 -5 -52c0 -71 37 -108 112 -108c93 0 191 24 270 76l76 -117
c-100 -71 -248 -101 -372 -101c-191 0 -245 117 -245 227c0 25 2 48 7 71l108 533c-35 -26 -145 -88 -219 -112l-58 144c232 98 265 146 283 175h190z" />
    <glyph glyph-name="uni020C" unicode="&#x20c;" 
d="M995.5 1388.58l-143 -55.5c-86 87.5195 -191 229.117 -213 340.118l177 35.5771c26 -110.289 94 -231.964 179 -320.195zM671.5 1384.32l-142 -55.5c-86 88.2314 -191 229.117 -212 340.118l176 35.5771c27 -110.289 94 -231.252 178 -320.195zM687 1326
c105 0 340 -53 340 -444c0 -71 -7 -152 -25 -247l-2 -11c-32 -164 -105 -317 -171 -410c-103 -144 -250 -227 -415 -227c-122 0 -240 43 -302 143c-46 73 -69 165 -69 272c0 53 5 110 17 170c67 345 173 494 261 589c83 90 209 162 366 165zM239 245
c36 -65 97 -105 205 -105c88 0 202 67 263 150c52 64 114 230 136 337l4 19c12 65 22 143 22 216c0 56 -6 110 -20 155c-36 114 -98 156 -186 156c-68 0 -157 -28 -230 -104c-86 -89 -163 -231 -214 -493c-9 -44 -14 -98 -14 -150c0 -71 10 -139 34 -181z" />
    <glyph glyph-name="uni020D" unicode="&#x20d;" 
d="M947 1127l-143 -78c-86 123 -191 322 -213 478l177 50c26 -155 94 -326 179 -450zM623 1121l-142 -78c-86 124 -191 322 -212 478l176 50c27 -155 94 -325 178 -450zM621 215c77 61 121 167 150 315c1 6 3 12 4 18c7 40 12 79 12 114c0 127 -25 216 -191 216
c-174 0 -303 -165 -350 -409c-7 -36 -11 -70 -11 -101c0 -134 28 -212 196 -212c76 1 132 17 190 59zM407 1h-2c-204 0 -332 127 -332 328c0 42 5 87 14 135c57 292 213 568 505 568c197 0 294 -69 338 -201c13 -39 18 -86 18 -136c0 -51 -5 -103 -15 -152
c-55 -285 -185 -542 -524 -542h-2z" />
    <glyph glyph-name="uni0210" unicode="&#x210;" 
d="M953 1377.54l-143 -56.249c-86 88.7002 -191 232.206 -213 344.703l177 36.0576c26 -111.776 94 -235.091 179 -324.512zM629 1373.21l-142 -56.249c-86 89.4209 -191 232.206 -212 344.704l176 36.0566c27 -111.776 94 -234.37 178 -324.512zM682 540
c54 -122 163 -299 206 -364c15 -16 39 -49 79 -60l-76 -132c-56 9 -103 46 -129 88c-76 107 -222 368 -260 462c-80 8 -147 20 -220 33l-109 -567h-158l216 1113c13 67 21 114 29 175c43 4 160 15 221 15c250 0 416 -14 509 -164c28 -44 45 -104 45 -167
c0 -21 -2 -42 -6 -63c-43 -220 -141 -343 -347 -369zM871 895c3 17 5 34 5 50c0 36 -9 70 -32 103c-52 78 -163 102 -387 102c-26 0 -35 0 -64 -1l-81 -430c96 -18 170 -35 252 -35c171 0 275 42 307 211z" />
    <glyph glyph-name="uni0211" unicode="&#x211;" 
d="M1080 1137l-143 -78c-86 123 -191 322 -213 478l177 50c26 -155 94 -326 179 -450zM756 1131l-142 -78c-86 124 -191 322 -212 478l176 50c27 -155 94 -325 178 -450zM421 731c148 224 266 294 421 294c109 0 173 -63 173 -171c0 -37 -5 -79 -14 -125c0 -2 -1 -4 -1 -6
h-156c5 33 12 62 12 86c0 34 -15 56 -69 56c-101 0 -263 -196 -406 -419l-90 -446l-156 1l149 763c2 9 3 18 3 27c0 47 -26 93 -88 140l120 136c45 -43 119 -116 119 -227c0 -16 -14 -92 -17 -109z" />
    </font>
</defs>
</svg>
